  0
SECTION
  2
HEADER
  9
$ACADVER
  1
AC1015
  9
$ACADMAINTVER
 70
    14
  9
$DWGCODEPAGE
  3
ANSI_932
  9
$INSBASE
 10
0.0
 20
0.0
 30
0.0
  9
$EXTMIN
 10
-722.5364966062073
 20
-363.3218350911397
 30
0.0
  9
$EXTMAX
 10
7677.46350339379
 20
5576.678164908861
 30
0.0
  9
$LIMMIN
 10
0.0
 20
0.0
  9
$LIMMAX
 10
420.0
 20
297.0
  9
$ORTHOMODE
 70
     1
  9
$REGENMODE
 70
     1
  9
$FILLMODE
 70
     1
  9
$QTEXTMODE
 70
     0
  9
$MIRRTEXT
 70
     1
  9
$LTSCALE
 40
50.0
  9
$ATTMODE
 70
     1
  9
$TEXTSIZE
 40
2.5
  9
$TRACEWID
 40
1.0
  9
$TEXTSTYLE
  7
Standard
  9
$CLAYER
  8
D-STR
  9
$CELTYPE
  6
ByLayer
  9
$CECOLOR
 62
   256
  9
$CELTSCALE
 40
1.0
  9
$DISPSILH
 70
     0
  9
$DIMSCALE
 40
10.0
  9
$DIMASZ
 40
2.0
  9
$DIMEXO
 40
1.0
  9
$DIMDLI
 40
10.0
  9
$DIMRND
 40
0.0
  9
$DIMDLE
 40
0.0
  9
$DIMEXE
 40
2.0
  9
$DIMTP
 40
0.0
  9
$DIMTM
 40
0.0
  9
$DIMTXT
 40
3.0
  9
$DIMCEN
 40
3.0
  9
$DIMTSZ
 40
0.0
  9
$DIMTOL
 70
     0
  9
$DIMLIM
 70
     0
  9
$DIMTIH
 70
     0
  9
$DIMTOH
 70
     0
  9
$DIMSE1
 70
     0
  9
$DIMSE2
 70
     0
  9
$DIMTAD
 70
     1
  9
$DIMZIN
 70
     8
  9
$DIMBLK
  1
OPEN30
  9
$DIMASO
 70
     1
  9
$DIMSHO
 70
     1
  9
$DIMPOST
  1

  9
$DIMAPOST
  1

  9
$DIMALT
 70
     0
  9
$DIMALTD
 70
     2
  9
$DIMALTF
 40
25.4
  9
$DIMLFAC
 40
2.0
  9
$DIMTOFL
 70
     1
  9
$DIMTVP
 40
0.0
  9
$DIMTIX
 70
     0
  9
$DIMSOXD
 70
     0
  9
$DIMSAH
 70
     0
  9
$DIMBLK1
  1

  9
$DIMBLK2
  1

  9
$DIMSTYLE
  2
S5
  9
$DIMCLRD
 70
   256
  9
$DIMCLRE
 70
   256
  9
$DIMCLRT
 70
   256
  9
$DIMTFAC
 40
1.0
  9
$DIMGAP
 40
1.0
  9
$DIMJUST
 70
     0
  9
$DIMSD1
 70
     0
  9
$DIMSD2
 70
     0
  9
$DIMTOLJ
 70
     1
  9
$DIMTZIN
 70
     0
  9
$DIMALTZ
 70
     0
  9
$DIMALTTZ
 70
     0
  9
$DIMUPT
 70
     0
  9
$DIMDEC
 70
     0
  9
$DIMTDEC
 70
     0
  9
$DIMALTU
 70
     2
  9
$DIMALTTD
 70
     2
  9
$DIMTXSTY
  7
Standard
  9
$DIMAUNIT
 70
     0
  9
$DIMADEC
 70
     0
  9
$DIMALTRND
 40
0.0
  9
$DIMAZIN
 70
     0
  9
$DIMDSEP
 70
    46
  9
$DIMATFIT
 70
     3
  9
$DIMFRAC
 70
     0
  9
$DIMLDRBLK
  1
OPEN30
  9
$DIMLUNIT
 70
     2
  9
$DIMLWD
 70
    -2
  9
$DIMLWE
 70
    -2
  9
$DIMTMOVE
 70
     2
  9
$LUNITS
 70
     2
  9
$LUPREC
 70
     4
  9
$SKETCHINC
 40
1.0
  9
$FILLETRAD
 40
10.0
  9
$AUNITS
 70
     0
  9
$AUPREC
 70
     0
  9
$MENU
  1
.
  9
$ELEVATION
 40
0.0
  9
$PELEVATION
 40
0.0
  9
$THICKNESS
 40
0.0
  9
$LIMCHECK
 70
     0
  9
$CHAMFERA
 40
10.0
  9
$CHAMFERB
 40
10.0
  9
$CHAMFERC
 40
20.0
  9
$CHAMFERD
 40
0.0
  9
$SKPOLY
 70
     0
  9
$TDCREATE
 40
2454027.648910231
  9
$TDUCREATE
 40
2454027.273910231
  9
$TDUPDATE
 40
2454642.379361342
  9
$TDUUPDATE
 40
2454642.004361342
  9
$TDINDWG
 40
0.0188605324
  9
$TDUSRTIMER
 40
0.0188600000
  9
$USRTIMER
 70
     1
  9
$ANGBASE
 50
0.0
  9
$ANGDIR
 70
     0
  9
$PDMODE
 70
     0
  9
$PDSIZE
 40
0.0
  9
$PLINEWID
 40
0.0
  9
$SPLFRAME
 70
     0
  9
$SPLINETYPE
 70
     6
  9
$SPLINESEGS
 70
     8
  9
$HANDSEED
  5
11EA
  9
$SURFTAB1
 70
     6
  9
$SURFTAB2
 70
     6
  9
$SURFTYPE
 70
     6
  9
$SURFU
 70
     6
  9
$SURFV
 70
     6
  9
$UCSBASE
  2

  9
$UCSNAME
  2

  9
$UCSORG
 10
0.0
 20
0.0
 30
0.0
  9
$UCSXDIR
 10
1.0
 20
0.0
 30
0.0
  9
$UCSYDIR
 10
0.0
 20
1.0
 30
0.0
  9
$UCSORTHOREF
  2

  9
$UCSORTHOVIEW
 70
     0
  9
$UCSORGTOP
 10
0.0
 20
0.0
 30
0.0
  9
$UCSORGBOTTOM
 10
0.0
 20
0.0
 30
0.0
  9
$UCSORGLEFT
 10
0.0
 20
0.0
 30
0.0
  9
$UCSORGRIGHT
 10
0.0
 20
0.0
 30
0.0
  9
$UCSORGFRONT
 10
0.0
 20
0.0
 30
0.0
  9
$UCSORGBACK
 10
0.0
 20
0.0
 30
0.0
  9
$PUCSBASE
  2

  9
$PUCSNAME
  2

  9
$PUCSORG
 10
0.0
 20
0.0
 30
0.0
  9
$PUCSXDIR
 10
1.0
 20
0.0
 30
0.0
  9
$PUCSYDIR
 10
0.0
 20
1.0
 30
0.0
  9
$PUCSORTHOREF
  2

  9
$PUCSORTHOVIEW
 70
     0
  9
$PUCSORGTOP
 10
0.0
 20
0.0
 30
0.0
  9
$PUCSORGBOTTOM
 10
0.0
 20
0.0
 30
0.0
  9
$PUCSORGLEFT
 10
0.0
 20
0.0
 30
0.0
  9
$PUCSORGRIGHT
 10
0.0
 20
0.0
 30
0.0
  9
$PUCSORGFRONT
 10
0.0
 20
0.0
 30
0.0
  9
$PUCSORGBACK
 10
0.0
 20
0.0
 30
0.0
  9
$USERI1
 70
     0
  9
$USERI2
 70
     0
  9
$USERI3
 70
     0
  9
$USERI4
 70
     0
  9
$USERI5
 70
     0
  9
$USERR1
 40
0.0
  9
$USERR2
 40
0.0
  9
$USERR3
 40
0.0
  9
$USERR4
 40
0.0
  9
$USERR5
 40
0.0
  9
$WORLDVIEW
 70
     1
  9
$SHADEDGE
 70
     3
  9
$SHADEDIF
 70
    70
  9
$TILEMODE
 70
     1
  9
$MAXACTVP
 70
    64
  9
$PINSBASE
 10
0.0
 20
0.0
 30
0.0
  9
$PLIMCHECK
 70
     0
  9
$PEXTMIN
 10
1.000000000000000E+20
 20
1.000000000000000E+20
 30
1.000000000000000E+20
  9
$PEXTMAX
 10
-1.000000000000000E+20
 20
-1.000000000000000E+20
 30
-1.000000000000000E+20
  9
$PLIMMIN
 10
0.0
 20
0.0
  9
$PLIMMAX
 10
420.0
 20
297.0
  9
$UNITMODE
 70
     0
  9
$VISRETAIN
 70
     1
  9
$PLINEGEN
 70
     0
  9
$PSLTSCALE
 70
     1
  9
$TREEDEPTH
 70
  3020
  9
$CMLSTYLE
  2
Standard
  9
$CMLJUST
 70
     0
  9
$CMLSCALE
 40
20.0
  9
$PROXYGRAPHICS
 70
     1
  9
$MEASUREMENT
 70
     1
  9
$CELWEIGHT
370
    -1
  9
$ENDCAPS
280
     0
  9
$JOINSTYLE
280
     0
  9
$LWDISPLAY
290
     0
  9
$INSUNITS
 70
     4
  9
$HYPERLINKBASE
  1

  9
$STYLESHEET
  1

  9
$XEDIT
290
     1
  9
$CEPSNTYPE
380
     0
  9
$PSTYLEMODE
290
     1
  9
$FINGERPRINTGUID
  2
{FA1E80AF-ED1D-402D-81F0-6626158D8A36}
  9
$VERSIONGUID
  2
{B8EAE2D8-0779-492A-92CF-8BDE9463E6C9}
  9
$EXTNAMES
290
     1
  9
$PSVPSCALE
 40
0.0
  9
$OLESTARTUP
290
     0
  0
ENDSEC
  0
SECTION
  2
CLASSES
  0
CLASS
  1
ACDBDICTIONARYWDFLT
  2
AcDbDictionaryWithDefault
  3
AutoCAD 2000
 90
        0
280
     0
281
     0
  0
CLASS
  1
ACDBPLACEHOLDER
  2
AcDbPlaceHolder
  3
AutoCAD 2000
 90
        0
280
     0
281
     0
  0
CLASS
  1
LAYOUT
  2
AcDbLayout
  3
AutoCAD 2000
 90
        0
280
     0
281
     0
  0
CLASS
  1
DIMASSOC
  2
AcDbDimAssoc
  3
"AcDbDimAssoc|Product Desc:     AcDim ARX App For Dimension|Company:          Autodesk, Inc.|WEB Address:      www.autodesk.com"
 90
        0
280
     0
281
     0
  0
CLASS
  1
DICTIONARYVAR
  2
AcDbDictionaryVar
  3
AutoCAD 2000
 90
        0
280
     0
281
     0
  0
ENDSEC
  0
SECTION
  2
TABLES
  0
TABLE
  2
VPORT
  5
8
330
0
100
AcDbSymbolTable
 70
     2
  0
VPORT
  5
11E9
330
8
100
AcDbSymbolTableRecord
100
AcDbViewportTableRecord
  2
*Active
 70
     0
 10
0.0
 20
0.0
 11
1.0
 21
1.0
 12
3809.736655156856
 22
2606.678178739
 13
0.0
 23
0.0
 14
10.0
 24
10.0
 15
10.0
 25
10.0
 16
0.0
 26
0.0
 36
1.0
 17
0.0
 27
0.0
 37
0.0
 40
5989.120654564487
 41
1.64931506849315
 42
50.0
 43
0.0
 44
0.0
 50
0.0
 51
0.0
 71
     0
 72
   100
 73
     1
 74
     3
 75
     0
 76
     0
 77
     0
 78
     0
281
     0
 65
     1
110
0.0
120
0.0
130
0.0
111
1.0
121
0.0
131
0.0
112
0.0
122
1.0
132
0.0
 79
     0
146
0.0
  0
ENDTAB
  0
TABLE
  2
LTYPE
  5
5
330
0
100
AcDbSymbolTable
 70
     3
  0
LTYPE
  5
14
330
5
100
AcDbSymbolTableRecord
100
AcDbLinetypeTableRecord
  2
ByBlock
 70
     0
  3

 72
    65
 73
     0
 40
0.0
  0
LTYPE
  5
15
330
5
100
AcDbSymbolTableRecord
100
AcDbLinetypeTableRecord
  2
ByLayer
 70
     0
  3

 72
    65
 73
     0
 40
0.0
  0
LTYPE
  5
16
330
5
100
AcDbSymbolTableRecord
100
AcDbLinetypeTableRecord
  2
Continuous
 70
     0
  3
Solid line
 72
    65
 73
     0
 40
0.0
  0
LTYPE
  5
161
330
5
100
AcDbSymbolTableRecord
100
AcDbLinetypeTableRecord
  2
CENTER
 70
     0
  3
____ _ ____ _ ____ _ ____ _ ____ _ ____ _ ____
 72
    65
 73
     4
 40
2.0
 49
1.25
 74
     0
 49
-0.25
 74
     0
 49
0.25
 74
     0
 49
-0.25
 74
     0
  0
LTYPE
  5
162
330
5
100
AcDbSymbolTableRecord
100
AcDbLinetypeTableRecord
  2
HIDDEN
 70
     0
  3
_ _ _ _ _ _ _ _ _ _ _ _ _ _ _ _ _ _ _ _ _ _ _
 72
    65
 73
     2
 40
0.375
 49
0.25
 74
     0
 49
-0.125
 74
     0
  0
ENDTAB
  0
TABLE
  2
LAYER
  5
2
330
0
100
AcDbSymbolTable
 70
     6
  0
LAYER
  5
10
330
2
100
AcDbSymbolTableRecord
100
AcDbLayerTableRecord
  2
0
 70
     0
 62
     7
  6
Continuous
370
    -3
390
F
  0
LAYER
  5
163
330
2
100
AcDbSymbolTableRecord
100
AcDbLayerTableRecord
  2
DEFPOINTS
 70
     0
 62
     7
  6
Continuous
290
     0
370
    -3
390
F
  0
LAYER
  5
48B
330
2
100
AcDbSymbolTableRecord
100
AcDbLayerTableRecord
  2
D-STR
 70
     0
 62
     1
  6
Continuous
370
    -3
390
F
  0
LAYER
  5
48C
330
2
100
AcDbSymbolTableRecord
100
AcDbLayerTableRecord
  2
D-TTL
 70
     0
 62
     2
  6
Continuous
370
    -3
390
F
  0
LAYER
  5
499
330
2
100
AcDbSymbolTableRecord
100
AcDbLayerTableRecord
  2
D-STR-TXT
 70
     0
 62
     7
  6
Continuous
370
    15
390
F
  0
LAYER
  5
6EB
330
2
100
AcDbSymbolTableRecord
100
AcDbLayerTableRecord
  2
D-STR-DIM
 70
     0
 62
     7
  6
Continuous
370
    -3
390
F
  0
ENDTAB
  0
TABLE
  2
STYLE
  5
3
330
0
100
AcDbSymbolTable
 70
     1
  0
STYLE
  5
11
330
3
100
AcDbSymbolTableRecord
100
AcDbTextStyleTableRecord
  2
Standard
 70
     0
 40
0.0
 41
0.8
 50
0.0
 71
     0
 42
2.5
  3
MS Gothic.ttf
  4

1001
ACAD
1000
MS Gothic
1071
    32817
  0
ENDTAB
  0
TABLE
  2
VIEW
  5
6
330
0
100
AcDbSymbolTable
 70
     0
  0
ENDTAB
  0
TABLE
  2
UCS
  5
7
330
0
100
AcDbSymbolTable
 70
     0
  0
ENDTAB
  0
TABLE
  2
APPID
  5
9
330
0
100
AcDbSymbolTable
 70
     2
  0
APPID
  5
12
330
9
100
AcDbSymbolTableRecord
100
AcDbRegAppTableRecord
  2
ACAD
 70
     0
  0
APPID
  5
11E3
330
9
100
AcDbSymbolTableRecord
100
AcDbRegAppTableRecord
  2
DCO15
 70
     0
  0
ENDTAB
  0
TABLE
  2
DIMSTYLE
  5
A
330
0
100
AcDbSymbolTable
 70
     3
100
AcDbDimStyleTable
 71
     2
340
16B
340
A17
  0
DIMSTYLE
105
16A
330
A
100
AcDbSymbolTableRecord
100
AcDbDimStyleTableRecord
  2
STANDARD
 70
     0
 40
20.0
 41
2.0
 42
1.0
 43
1.0
 44
1.0
 73
     0
 74
     0
 77
     1
 78
     8
140
3.0
141
0.0
147
2.0
172
     1
271
     1
272
     1
340
11
341
2B
342
2B
  0
DIMSTYLE
105
16B
102
{ACAD_REACTORS
330
222
330
224
330
223
330
210
330
20F
330
20E
330
22A
330
211
330
219
330
218
330
21F
330
230
330
234
330
250
330
232
330
253
330
245
330
244
330
23E
330
23F
330
243
330
23D
330
252
330
251
330
931
330
933
330
F18
330
F1E
330
F15
330
F25
330
F28
330
F1D
330
F30
330
F2D
330
DD8
330
DD3
330
DCE
330
DC7
330
DDC
330
DCD
330
DD9
330
DC3
102
}
330
A
100
AcDbSymbolTableRecord
100
AcDbDimStyleTableRecord
  2
S10
 70
     0
 40
10.0
 41
2.0
 42
1.0
 43
10.0
 44
2.0
 73
     0
 74
     0
 77
     1
 78
     8
140
3.0
141
3.0
147
1.0
172
     1
176
   256
177
   256
178
   256
271
     0
272
     0
279
     2
340
11
341
2B
342
2B
  0
DIMSTYLE
105
A17
102
{ACAD_REACTORS
330
A18
330
A39
330
A55
330
AB9
330
BD5
330
BED
330
C05
330
C26
330
C23
330
C20
330
C1D
330
CCA
102
}
330
A
100
AcDbSymbolTableRecord
100
AcDbDimStyleTableRecord
  2
S5
 70
     0
 40
10.0
 41
2.0
 42
1.0
 43
10.0
 44
2.0
 73
     0
 74
     0
 77
     1
 78
     8
140
3.0
141
3.0
144
2.0
147
1.0
172
     1
176
   256
177
   256
178
   256
271
     0
272
     0
279
     2
340
11
341
2B
342
2B
  0
ENDTAB
  0
TABLE
  2
BLOCK_RECORD
  5
1
330
0
100
AcDbSymbolTable
 70
    54
  0
BLOCK_RECORD
  5
1F
330
1
100
AcDbSymbolTableRecord
100
AcDbBlockTableRecord
  2
*Model_Space
340
22
  0
BLOCK_RECORD
  5
1B
330
1
100
AcDbSymbolTableRecord
100
AcDbBlockTableRecord
  2
*Paper_Space
340
1E
  0
BLOCK_RECORD
  5
23
330
1
100
AcDbSymbolTableRecord
100
AcDbBlockTableRecord
  2
*Paper_Space0
340
26
  0
BLOCK_RECORD
  5
2B
330
1
100
AcDbSymbolTableRecord
100
AcDbBlockTableRecord
  2
_OPEN30
340
0
102
{BLKREFS
331
945
331
946
331
957
331
958
331
974
331
975
331
97D
331
97E
331
986
331
987
331
98F
331
990
331
998
331
999
331
9A1
331
9A2
331
9AA
331
9AB
331
9B3
331
9B4
331
9BC
331
9BD
331
9C5
331
9C6
331
9CE
331
9CF
331
9D7
331
9D8
331
9E0
331
9E1
331
9E9
331
9EA
331
A33
331
A34
331
A90
331
A91
331
AB4
331
AB5
331
ACA
331
ACB
331
AF0
331
AF1
331
B0D
331
B0E
331
B2A
331
B2B
331
B4E
331
B4F
331
B72
331
B73
331
B8F
331
B90
331
BAC
331
BAD
331
BD0
331
BD1
331
BE6
331
BE7
331
BFE
331
BFF
331
CA5
331
CA6
331
CB1
331
CB2
331
CBC
331
CBD
331
CC4
331
CC5
331
CDC
331
CDD
331
CEE
331
CEF
331
1147
331
1148
331
1150
331
1151
331
1159
331
115A
331
1162
331
1163
331
116B
331
116C
331
1174
331
1175
331
117D
331
117E
331
1186
331
1187
331
118F
331
1190
331
1198
331
1199
331
11A1
331
11A2
331
11AA
331
11AB
331
11B3
331
11B4
331
11BC
331
11BD
331
11C5
331
11C6
331
11CE
331
11CF
102
}
  0
BLOCK_RECORD
  5
273
330
1
100
AcDbSymbolTableRecord
100
AcDbBlockTableRecord
  2
*D2
340
0
  0
BLOCK_RECORD
  5
281
330
1
100
AcDbSymbolTableRecord
100
AcDbBlockTableRecord
  2
*D3
340
0
  0
BLOCK_RECORD
  5
28F
330
1
100
AcDbSymbolTableRecord
100
AcDbBlockTableRecord
  2
*D4
340
0
  0
BLOCK_RECORD
  5
29B
330
1
100
AcDbSymbolTableRecord
100
AcDbBlockTableRecord
  2
*D5
340
0
  0
BLOCK_RECORD
  5
2A7
330
1
100
AcDbSymbolTableRecord
100
AcDbBlockTableRecord
  2
*D6
340
0
  0
BLOCK_RECORD
  5
2B3
330
1
100
AcDbSymbolTableRecord
100
AcDbBlockTableRecord
  2
*D7
340
0
  0
BLOCK_RECORD
  5
2BF
330
1
100
AcDbSymbolTableRecord
100
AcDbBlockTableRecord
  2
*D8
340
0
  0
BLOCK_RECORD
  5
2CB
330
1
100
AcDbSymbolTableRecord
100
AcDbBlockTableRecord
  2
*D9
340
0
  0
BLOCK_RECORD
  5
2D9
330
1
100
AcDbSymbolTableRecord
100
AcDbBlockTableRecord
  2
*D10
340
0
  0
BLOCK_RECORD
  5
2E7
330
1
100
AcDbSymbolTableRecord
100
AcDbBlockTableRecord
  2
*D11
340
0
  0
BLOCK_RECORD
  5
2F3
330
1
100
AcDbSymbolTableRecord
100
AcDbBlockTableRecord
  2
*D12
340
0
  0
BLOCK_RECORD
  5
2FF
330
1
100
AcDbSymbolTableRecord
100
AcDbBlockTableRecord
  2
*D13
340
0
  0
BLOCK_RECORD
  5
30B
330
1
100
AcDbSymbolTableRecord
100
AcDbBlockTableRecord
  2
*D14
340
0
  0
BLOCK_RECORD
  5
317
330
1
100
AcDbSymbolTableRecord
100
AcDbBlockTableRecord
  2
*D15
340
0
  0
BLOCK_RECORD
  5
323
330
1
100
AcDbSymbolTableRecord
100
AcDbBlockTableRecord
  2
*D16
340
0
  0
BLOCK_RECORD
  5
331
330
1
100
AcDbSymbolTableRecord
100
AcDbBlockTableRecord
  2
*D17
340
0
  0
BLOCK_RECORD
  5
33D
330
1
100
AcDbSymbolTableRecord
100
AcDbBlockTableRecord
  2
*D18
340
0
  0
BLOCK_RECORD
  5
349
330
1
100
AcDbSymbolTableRecord
100
AcDbBlockTableRecord
  2
*D19
340
0
  0
BLOCK_RECORD
  5
357
330
1
100
AcDbSymbolTableRecord
100
AcDbBlockTableRecord
  2
*D20
340
0
  0
BLOCK_RECORD
  5
363
330
1
100
AcDbSymbolTableRecord
100
AcDbBlockTableRecord
  2
*D21
340
0
  0
BLOCK_RECORD
  5
36F
330
1
100
AcDbSymbolTableRecord
100
AcDbBlockTableRecord
  2
*D22
340
0
  0
BLOCK_RECORD
  5
37B
330
1
100
AcDbSymbolTableRecord
100
AcDbBlockTableRecord
  2
*D23
340
0
  0
BLOCK_RECORD
  5
389
330
1
100
AcDbSymbolTableRecord
100
AcDbBlockTableRecord
  2
*D24
340
0
  0
BLOCK_RECORD
  5
397
330
1
100
AcDbSymbolTableRecord
100
AcDbBlockTableRecord
  2
*D25
340
0
  0
BLOCK_RECORD
  5
A19
330
1
100
AcDbSymbolTableRecord
100
AcDbBlockTableRecord
  2
*D26
340
0
  0
BLOCK_RECORD
  5
A3A
330
1
100
AcDbSymbolTableRecord
100
AcDbBlockTableRecord
  2
*D27
340
0
  0
BLOCK_RECORD
  5
A56
330
1
100
AcDbSymbolTableRecord
100
AcDbBlockTableRecord
  2
*D28
340
0
  0
BLOCK_RECORD
  5
ABA
330
1
100
AcDbSymbolTableRecord
100
AcDbBlockTableRecord
  2
*D29
340
0
  0
BLOCK_RECORD
  5
BD6
330
1
100
AcDbSymbolTableRecord
100
AcDbBlockTableRecord
  2
*D30
340
0
  0
BLOCK_RECORD
  5
BEE
330
1
100
AcDbSymbolTableRecord
100
AcDbBlockTableRecord
  2
*D31
340
0
  0
BLOCK_RECORD
  5
C08
330
1
100
AcDbSymbolTableRecord
100
AcDbBlockTableRecord
  2
*D32
340
0
  0
BLOCK_RECORD
  5
C29
330
1
100
AcDbSymbolTableRecord
100
AcDbBlockTableRecord
  2
*D33
340
0
  0
BLOCK_RECORD
  5
C35
330
1
100
AcDbSymbolTableRecord
100
AcDbBlockTableRecord
  2
*D34
340
0
  0
BLOCK_RECORD
  5
C43
330
1
100
AcDbSymbolTableRecord
100
AcDbBlockTableRecord
  2
*D35
340
0
  0
BLOCK_RECORD
  5
C51
330
1
100
AcDbSymbolTableRecord
100
AcDbBlockTableRecord
  2
*D36
340
0
  0
BLOCK_RECORD
  5
CCD
330
1
100
AcDbSymbolTableRecord
100
AcDbBlockTableRecord
  2
*D37
340
0
  0
BLOCK_RECORD
  5
DE3
330
1
100
AcDbSymbolTableRecord
100
AcDbBlockTableRecord
  2
*D38
340
0
  0
BLOCK_RECORD
  5
DEF
330
1
100
AcDbSymbolTableRecord
100
AcDbBlockTableRecord
  2
*D39
340
0
  0
BLOCK_RECORD
  5
DFB
330
1
100
AcDbSymbolTableRecord
100
AcDbBlockTableRecord
  2
*D40
340
0
  0
BLOCK_RECORD
  5
E07
330
1
100
AcDbSymbolTableRecord
100
AcDbBlockTableRecord
  2
*D41
340
0
  0
BLOCK_RECORD
  5
E13
330
1
100
AcDbSymbolTableRecord
100
AcDbBlockTableRecord
  2
*D42
340
0
  0
BLOCK_RECORD
  5
E1F
330
1
100
AcDbSymbolTableRecord
100
AcDbBlockTableRecord
  2
*D43
340
0
  0
BLOCK_RECORD
  5
E2B
330
1
100
AcDbSymbolTableRecord
100
AcDbBlockTableRecord
  2
*D44
340
0
  0
BLOCK_RECORD
  5
E37
330
1
100
AcDbSymbolTableRecord
100
AcDbBlockTableRecord
  2
*D45
340
0
  0
BLOCK_RECORD
  5
F33
330
1
100
AcDbSymbolTableRecord
100
AcDbBlockTableRecord
  2
*D46
340
0
  0
BLOCK_RECORD
  5
F3F
330
1
100
AcDbSymbolTableRecord
100
AcDbBlockTableRecord
  2
*D47
340
0
  0
BLOCK_RECORD
  5
F4B
330
1
100
AcDbSymbolTableRecord
100
AcDbBlockTableRecord
  2
*D48
340
0
  0
BLOCK_RECORD
  5
F57
330
1
100
AcDbSymbolTableRecord
100
AcDbBlockTableRecord
  2
*D49
340
0
  0
BLOCK_RECORD
  5
F63
330
1
100
AcDbSymbolTableRecord
100
AcDbBlockTableRecord
  2
*D50
340
0
  0
BLOCK_RECORD
  5
F6F
330
1
100
AcDbSymbolTableRecord
100
AcDbBlockTableRecord
  2
*D51
340
0
  0
BLOCK_RECORD
  5
F7B
330
1
100
AcDbSymbolTableRecord
100
AcDbBlockTableRecord
  2
*D52
340
0
  0
BLOCK_RECORD
  5
F87
330
1
100
AcDbSymbolTableRecord
100
AcDbBlockTableRecord
  2
*D53
340
0
  0
ENDTAB
  0
ENDSEC
  0
SECTION
  2
BLOCKS
  0
BLOCK
  5
20
330
1F
100
AcDbEntity
  8
0
100
AcDbBlockBegin
  2
*Model_Space
 70
     0
 10
0.0
 20
0.0
 30
0.0
  3
*Model_Space
  1

  0
ENDBLK
  5
21
330
1F
100
AcDbEntity
  8
0
100
AcDbBlockEnd
  0
BLOCK
  5
1C
330
1B
100
AcDbEntity
 67
     1
  8
0
100
AcDbBlockBegin
  2
*Paper_Space
 70
     0
 10
0.0
 20
0.0
 30
0.0
  3
*Paper_Space
  1

  0
ENDBLK
  5
1D
330
1B
100
AcDbEntity
 67
     1
  8
0
100
AcDbBlockEnd
  0
BLOCK
  5
24
330
23
100
AcDbEntity
  8
0
100
AcDbBlockBegin
  2
*Paper_Space0
 70
     0
 10
0.0
 20
0.0
 30
0.0
  3
*Paper_Space0
  1

  0
ENDBLK
  5
25
330
23
100
AcDbEntity
  8
0
100
AcDbBlockEnd
  0
BLOCK
  5
2F
330
2B
100
AcDbEntity
  8
0
100
AcDbBlockBegin
  2
_OPEN30
 70
     0
 10
0.0
 20
0.0
 30
0.0
  3
_OPEN30
  1

  0
LINE
  5
2C
330
2B
100
AcDbEntity
  8
0
  6
ByBlock
 62
     0
100
AcDbLine
 10
-1.0
 20
0.26794919
 30
0.0
 11
0.0
 21
0.0
 31
0.0
  0
LINE
  5
2D
330
2B
100
AcDbEntity
  8
0
  6
ByBlock
 62
     0
100
AcDbLine
 10
0.0
 20
0.0
 30
0.0
 11
-1.0
 21
-0.26794919
 31
0.0
  0
LINE
  5
2E
330
2B
100
AcDbEntity
  8
0
  6
ByBlock
 62
     0
100
AcDbLine
 10
0.0
 20
0.0
 30
0.0
 11
-1.0
 21
0.0
 31
0.0
  0
ENDBLK
  5
30
330
2B
100
AcDbEntity
  8
0
100
AcDbBlockEnd
  0
BLOCK
  5
27F
330
273
100
AcDbEntity
  8
0
100
AcDbBlockBegin
  2
*D2
 70
     1
 10
0.0
 20
0.0
 30
0.0
  3
*D2
  1

  0
LINE
  5
BCA
330
273
100
AcDbEntity
  8
D-STR-DIM
370
    -2
100
AcDbLine
 10
1444.597493069798
 20
3968.647034531208
 30
0.0
 11
1554.597493069798
 21
3968.647034531208
 31
0.0
  0
LINE
  5
BCB
330
273
100
AcDbEntity
  8
D-STR-DIM
370
    -2
100
AcDbLine
 10
1444.597493069798
 20
4013.647034531207
 30
0.0
 11
1554.597493069798
 21
4013.647034531207
 31
0.0
  0
LINE
  5
BCC
330
273
100
AcDbEntity
  8
D-STR-DIM
370
    -2
100
AcDbLine
 10
1534.597493069798
 20
3948.647034531207
 30
0.0
 11
1534.597493069798
 21
3928.647034531209
 31
0.0
  0
LINE
  5
BCD
330
273
100
AcDbEntity
  8
D-STR-DIM
370
    -2
100
AcDbLine
 10
1534.597493069798
 20
4033.647034531209
 30
0.0
 11
1534.597493069798
 21
4053.647034531207
 31
0.0
  0
MTEXT
  5
BCE
330
273
100
AcDbEntity
  8
D-STR-DIM
100
AcDbMText
 10
1509.597493069798
 20
3991.147034531209
 30
0.0
 40
30.0
 41
0.0
 71
     5
 72
     1
  1
\A1;45
 11
0.0000000000000001
 21
1.0
 31
0.0
 73
     1
 44
1.0
  0
LINE
  5
BCF
330
273
100
AcDbEntity
  8
D-STR-DIM
370
    -2
100
AcDbLine
 10
1534.597493069798
 20
3968.647034531208
 30
0.0
 11
1534.597493069798
 21
4013.647034531207
 31
0.0
  0
INSERT
  5
BD0
330
273
100
AcDbEntity
  8
D-STR-DIM
370
    -2
100
AcDbBlockReference
  2
_OPEN30
 10
1534.597493069798
 20
3968.647034531208
 30
0.0
 41
20.0
 42
20.0
 43
20.0
 50
90.0
  0
INSERT
  5
BD1
330
273
100
AcDbEntity
  8
D-STR-DIM
370
    -2
100
AcDbBlockReference
  2
_OPEN30
 10
1534.597493069798
 20
4013.647034531207
 30
0.0
 41
20.0
 42
20.0
 43
20.0
 50
270.0
  0
POINT
  5
BD2
330
273
100
AcDbEntity
  8
DEFPOINTS
 62
     0
100
AcDbPoint
 10
1434.597493069797
 20
3968.647034531208
 30
0.0
  0
POINT
  5
BD3
330
273
100
AcDbEntity
  8
DEFPOINTS
 62
     0
100
AcDbPoint
 10
1434.597493069797
 20
4013.647034531207
 30
0.0
  0
POINT
  5
BD4
330
273
100
AcDbEntity
  8
DEFPOINTS
 62
     0
100
AcDbPoint
 10
1534.597493069798
 20
4013.647034531207
 30
0.0
  0
ENDBLK
  5
280
330
273
100
AcDbEntity
  8
0
100
AcDbBlockEnd
  0
BLOCK
  5
28D
330
281
100
AcDbEntity
  8
0
100
AcDbBlockBegin
  2
*D3
 70
     1
 10
0.0
 20
0.0
 30
0.0
  3
*D3
  1

  0
LINE
  5
BA8
330
281
100
AcDbEntity
  8
D-STR-DIM
370
    -2
100
AcDbLine
 10
1444.597493069798
 20
4013.647034531207
 30
0.0
 11
1554.597493069798
 21
4013.647034531207
 31
0.0
  0
LINE
  5
BA9
330
281
100
AcDbEntity
  8
D-STR-DIM
370
    -2
100
AcDbLine
 10
1444.597493069798
 20
4073.647034531208
 30
0.0
 11
1554.597493069798
 21
4073.647034531208
 31
0.0
  0
LINE
  5
BAA
330
281
100
AcDbEntity
  8
D-STR-DIM
370
    -2
100
AcDbLine
 10
1534.597493069798
 20
4033.647034531209
 30
0.0
 11
1534.597493069798
 21
4053.647034531207
 31
0.0
  0
MTEXT
  5
BAB
330
281
100
AcDbEntity
  8
D-STR-DIM
100
AcDbMText
 10
1509.597493069798
 20
4043.647034531209
 30
0.0
 40
30.0
 41
0.0
 71
     5
 72
     1
  1
\A1;60
 11
0.0000000000000001
 21
1.0
 31
0.0
 73
     1
 44
1.0
  0
INSERT
  5
BAC
330
281
100
AcDbEntity
  8
D-STR-DIM
370
    -2
100
AcDbBlockReference
  2
_OPEN30
 10
1534.597493069798
 20
4013.647034531207
 30
0.0
 41
20.0
 42
20.0
 43
20.0
 50
270.0
  0
INSERT
  5
BAD
330
281
100
AcDbEntity
  8
D-STR-DIM
370
    -2
100
AcDbBlockReference
  2
_OPEN30
 10
1534.597493069798
 20
4073.647034531208
 30
0.0
 41
20.0
 42
20.0
 43
20.0
 50
90.0
  0
POINT
  5
BAE
330
281
100
AcDbEntity
  8
DEFPOINTS
 62
     0
100
AcDbPoint
 10
1434.597493069797
 20
4013.647034531207
 30
0.0
  0
POINT
  5
BAF
330
281
100
AcDbEntity
  8
DEFPOINTS
 62
     0
100
AcDbPoint
 10
1434.597493069797
 20
4073.647034531208
 30
0.0
  0
POINT
  5
BB0
330
281
100
AcDbEntity
  8
DEFPOINTS
 62
     0
100
AcDbPoint
 10
1534.597493069798
 20
4073.647034531208
 30
0.0
  0
ENDBLK
  5
28E
330
281
100
AcDbEntity
  8
0
100
AcDbBlockEnd
  0
BLOCK
  5
299
330
28F
100
AcDbEntity
  8
0
100
AcDbBlockBegin
  2
*D4
 70
     1
 10
0.0
 20
0.0
 30
0.0
  3
*D4
  1

  0
LINE
  5
954
330
28F
100
AcDbEntity
  8
D-STR-DIM
370
    -2
100
AcDbLine
 10
1444.597493069798
 20
4428.647034531208
 30
0.0
 11
1654.597493069797
 21
4428.647034531208
 31
0.0
  0
LINE
  5
955
330
28F
100
AcDbEntity
  8
D-STR-DIM
370
    -2
100
AcDbLine
 10
1444.597493069798
 20
3968.647034531208
 30
0.0
 11
1654.597493069797
 21
3968.647034531208
 31
0.0
  0
LINE
  5
956
330
28F
100
AcDbEntity
  8
D-STR-DIM
370
    -2
100
AcDbLine
 10
1634.597493069797
 20
4408.647034531208
 30
0.0
 11
1634.597493069797
 21
3988.647034531208
 31
0.0
  0
INSERT
  5
957
330
28F
100
AcDbEntity
  8
D-STR-DIM
370
    -2
100
AcDbBlockReference
  2
_OPEN30
 10
1634.597493069797
 20
4428.647034531208
 30
0.0
 41
20.0
 42
20.0
 43
20.0
 50
90.0
  0
INSERT
  5
958
330
28F
100
AcDbEntity
  8
D-STR-DIM
370
    -2
100
AcDbBlockReference
  2
_OPEN30
 10
1634.597493069797
 20
3968.647034531208
 30
0.0
 41
20.0
 42
20.0
 43
20.0
 50
270.0
  0
MTEXT
  5
959
330
28F
100
AcDbEntity
  8
D-STR-DIM
100
AcDbMText
 10
1609.597493069797
 20
4198.647034531208
 30
0.0
 40
30.0
 41
0.0
 71
     5
 72
     1
  1
\A1;460
 11
0.0000000000000001
 21
1.0
 31
0.0
 73
     1
 44
1.0
  0
POINT
  5
95A
330
28F
100
AcDbEntity
  8
DEFPOINTS
 62
     0
100
AcDbPoint
 10
1434.597493069797
 20
4428.647034531208
 30
0.0
  0
POINT
  5
95B
330
28F
100
AcDbEntity
  8
DEFPOINTS
 62
     0
100
AcDbPoint
 10
1434.597493069797
 20
3968.647034531208
 30
0.0
  0
POINT
  5
95C
330
28F
100
AcDbEntity
  8
DEFPOINTS
 62
     0
100
AcDbPoint
 10
1634.597493069797
 20
3968.647034531208
 30
0.0
  0
ENDBLK
  5
29A
330
28F
100
AcDbEntity
  8
0
100
AcDbBlockEnd
  0
BLOCK
  5
2A5
330
29B
100
AcDbEntity
  8
0
100
AcDbBlockBegin
  2
*D5
 70
     1
 10
0.0
 20
0.0
 30
0.0
  3
*D5
  1

  0
LINE
  5
97A
330
29B
100
AcDbEntity
  8
D-STR-DIM
370
    -2
100
AcDbLine
 10
1076.526425258204
 20
4205.718102343076
 30
0.0
 11
1034.100018387021
 21
4248.144509214277
 31
0.0
  0
LINE
  5
97B
330
29B
100
AcDbEntity
  8
D-STR-DIM
370
    -2
100
AcDbLine
 10
828.3319450618593
 20
3957.523622146851
 30
0.0
 11
785.9055381906764
 21
3999.950029018054
 31
0.0
  0
LINE
  5
97C
330
29B
100
AcDbEntity
  8
D-STR-DIM
370
    -2
100
AcDbLine
 10
1034.100018387015
 20
4219.860237966815
 30
0.0
 11
814.1898094381382
 21
3999.950029018047
 31
0.0
  0
INSERT
  5
97D
330
29B
100
AcDbEntity
  8
D-STR-DIM
370
    -2
100
AcDbBlockReference
  2
_OPEN30
 10
1048.242154010749
 20
4234.002373590544
 30
0.0
 41
20.0
 42
20.0
 43
20.0
 50
44.9999999999861
  0
INSERT
  5
97E
330
29B
100
AcDbEntity
  8
D-STR-DIM
370
    -2
100
AcDbBlockReference
  2
_OPEN30
 10
800.047673814404
 20
3985.807893394319
 30
0.0
 41
20.0
 42
20.0
 43
20.0
 50
224.9999999999861
  0
MTEXT
  5
97F
330
29B
100
AcDbEntity
  8
D-STR-DIM
100
AcDbMText
 10
906.4672443829174
 20
4127.582803022099
 30
0.0
 40
30.0
 41
0.0
 71
     5
 72
     1
  1
\A1;351
 11
0.7071067811867195
 21
0.7071067811863757
 31
0.0
 73
     1
 44
1.0
  0
POINT
  5
980
330
29B
100
AcDbEntity
  8
DEFPOINTS
 62
     0
100
AcDbPoint
 10
1083.597493070068
 20
4198.647034531208
 30
0.0
  0
POINT
  5
981
330
29B
100
AcDbEntity
  8
DEFPOINTS
 62
     0
100
AcDbPoint
 10
835.4030128737232
 20
3950.452554334983
 30
0.0
  0
POINT
  5
982
330
29B
100
AcDbEntity
  8
DEFPOINTS
 62
     0
100
AcDbPoint
 10
800.047673814404
 20
3985.807893394319
 30
0.0
  0
ENDBLK
  5
2A6
330
29B
100
AcDbEntity
  8
0
100
AcDbBlockEnd
  0
BLOCK
  5
2B1
330
2A7
100
AcDbEntity
  8
0
100
AcDbBlockBegin
  2
*D6
 70
     1
 10
0.0
 20
0.0
 30
0.0
  3
*D6
  1

  0
LINE
  5
98C
330
2A7
100
AcDbEntity
  8
D-STR-DIM
370
    -2
100
AcDbLine
 10
1185.937680227712
 20
3961.57596671934
 30
0.0
 11
1263.71942615821
 21
3883.794220788803
 31
0.0
  0
LINE
  5
98D
330
2A7
100
AcDbEntity
  8
D-STR-DIM
370
    -2
100
AcDbLine
 10
1005.108640358453
 20
3780.746926850172
 30
0.0
 11
1082.890386288952
 21
3702.965180919633
 31
0.0
  0
LINE
  5
98E
330
2A7
100
AcDbEntity
  8
D-STR-DIM
370
    -2
100
AcDbLine
 10
1235.435154910749
 20
3883.794220788811
 30
0.0
 11
1082.89038628896
 21
3731.249452167096
 31
0.0
  0
INSERT
  5
98F
330
2A7
100
AcDbEntity
  8
D-STR-DIM
370
    -2
100
AcDbBlockReference
  2
_OPEN30
 10
1249.577290534483
 20
3897.936356412538
 30
0.0
 41
20.0
 42
20.0
 43
20.0
 50
44.99999999998601
  0
INSERT
  5
990
330
2A7
100
AcDbEntity
  8
D-STR-DIM
370
    -2
100
AcDbBlockReference
  2
_OPEN30
 10
1068.748250665225
 20
3717.107316543369
 30
0.0
 41
20.0
 42
20.0
 43
20.0
 50
224.999999999986
  0
MTEXT
  5
991
330
2A7
100
AcDbEntity
  8
D-STR-DIM
100
AcDbMText
 10
1141.485101070194
 20
3825.199506007622
 30
0.0
 40
30.0
 41
0.0
 71
     5
 72
     1
  1
\A1;256
 11
0.7071067811867202
 21
0.7071067811863752
 31
0.0
 73
     1
 44
1.0
  0
POINT
  5
992
330
2A7
100
AcDbEntity
  8
DEFPOINTS
 62
     0
100
AcDbPoint
 10
1178.866612415847
 20
3968.647034531209
 30
0.0
  0
POINT
  5
993
330
2A7
100
AcDbEntity
  8
DEFPOINTS
 62
     0
100
AcDbPoint
 10
998.0375725465901
 20
3787.817994662038
 30
0.0
  0
POINT
  5
994
330
2A7
100
AcDbEntity
  8
DEFPOINTS
 62
     0
100
AcDbPoint
 10
1068.748250665225
 20
3717.107316543369
 30
0.0
  0
ENDBLK
  5
2B2
330
2A7
100
AcDbEntity
  8
0
100
AcDbBlockEnd
  0
BLOCK
  5
2BD
330
2B3
100
AcDbEntity
  8
0
100
AcDbBlockBegin
  2
*D7
 70
     1
 10
0.0
 20
0.0
 30
0.0
  3
*D7
  1

  0
LINE
  5
983
330
2B3
100
AcDbEntity
  8
D-STR-DIM
370
    -2
100
AcDbLine
 10
1178.866612415847
 20
3958.647034531209
 30
0.0
 11
1178.866612415847
 21
3848.647034531207
 31
0.0
  0
LINE
  5
984
330
2B3
100
AcDbEntity
  8
D-STR-DIM
370
    -2
100
AcDbLine
 10
1434.597493069797
 20
3958.647034531209
 30
0.0
 11
1434.597493069797
 21
3848.647034531207
 31
0.0
  0
LINE
  5
985
330
2B3
100
AcDbEntity
  8
D-STR-DIM
370
    -2
100
AcDbLine
 10
1198.866612415848
 20
3868.647034531209
 30
0.0
 11
1414.597493069797
 21
3868.647034531209
 31
0.0
  0
INSERT
  5
986
330
2B3
100
AcDbEntity
  8
D-STR-DIM
370
    -2
100
AcDbBlockReference
  2
_OPEN30
 10
1178.866612415847
 20
3868.647034531209
 30
0.0
 41
20.0
 42
20.0
 43
20.0
 50
180.0
  0
INSERT
  5
987
330
2B3
100
AcDbEntity
  8
D-STR-DIM
370
    -2
100
AcDbBlockReference
  2
_OPEN30
 10
1434.597493069797
 20
3868.647034531209
 30
0.0
 41
20.0
 42
20.0
 43
20.0
  0
MTEXT
  5
988
330
2B3
100
AcDbEntity
  8
D-STR-DIM
100
AcDbMText
 10
1306.732052742823
 20
3893.647034531209
 30
0.0
 40
30.0
 41
0.0
 71
     5
 72
     1
  1
\A1;256
 73
     1
 44
1.0
  0
POINT
  5
989
330
2B3
100
AcDbEntity
  8
DEFPOINTS
 62
     0
100
AcDbPoint
 10
1178.866612415847
 20
3968.647034531208
 30
0.0
  0
POINT
  5
98A
330
2B3
100
AcDbEntity
  8
DEFPOINTS
 62
     0
100
AcDbPoint
 10
1434.597493069797
 20
3968.647034531208
 30
0.0
  0
POINT
  5
98B
330
2B3
100
AcDbEntity
  8
DEFPOINTS
 62
     0
100
AcDbPoint
 10
1434.597493069797
 20
3868.647034531209
 30
0.0
  0
ENDBLK
  5
2BE
330
2B3
100
AcDbEntity
  8
0
100
AcDbBlockEnd
  0
BLOCK
  5
2C9
330
2BF
100
AcDbEntity
  8
0
100
AcDbBlockBegin
  2
*D8
 70
     1
 10
0.0
 20
0.0
 30
0.0
  3
*D8
  1

  0
LINE
  5
995
330
2BF
100
AcDbEntity
  8
D-STR-DIM
370
    -2
100
AcDbLine
 10
981.2573059124272
 20
4435.718102343076
 30
0.0
 11
903.4755599819195
 21
4513.499848273622
 31
0.0
  0
LINE
  5
996
330
2BF
100
AcDbEntity
  8
D-STR-DIM
370
    -2
100
AcDbLine
 10
665.6973853889935
 20
4120.158181819796
 30
0.0
 11
587.9156394584851
 21
4197.939927750343
 31
0.0
  0
LINE
  5
997
330
2BF
100
AcDbEntity
  8
D-STR-DIM
370
    -2
100
AcDbLine
 10
903.4755599819124
 20
4485.215577026159
 30
0.0
 11
616.1999107059474
 21
4197.939927750335
 31
0.0
  0
INSERT
  5
998
330
2BF
100
AcDbEntity
  8
D-STR-DIM
370
    -2
100
AcDbBlockReference
  2
_OPEN30
 10
917.6176956056472
 20
4499.357712649888
 30
0.0
 41
20.0
 42
20.0
 43
20.0
 50
44.99999999998593
  0
INSERT
  5
999
330
2BF
100
AcDbEntity
  8
D-STR-DIM
370
    -2
100
AcDbBlockReference
  2
_OPEN30
 10
602.0577750822127
 20
4183.797792126608
 30
0.0
 41
20.0
 42
20.0
 43
20.0
 50
224.999999999986
  0
MTEXT
  5
99A
330
2BF
100
AcDbEntity
  8
D-STR-DIM
100
AcDbMText
 10
742.1600658142706
 20
4359.255421917914
 30
0.0
 40
30.0
 41
0.0
 71
     5
 72
     1
  1
\A1;446
 11
0.707106781186721
 21
0.7071067811863742
 31
0.0
 73
     1
 44
1.0
  0
POINT
  5
99B
330
2BF
100
AcDbEntity
  8
DEFPOINTS
 62
     0
100
AcDbPoint
 10
988.3283737242914
 20
4428.647034531208
 30
0.0
  0
POINT
  5
99C
330
2BF
100
AcDbEntity
  8
DEFPOINTS
 62
     0
100
AcDbPoint
 10
672.7684532008573
 20
4113.087114007929
 30
0.0
  0
POINT
  5
99D
330
2BF
100
AcDbEntity
  8
DEFPOINTS
 62
     0
100
AcDbPoint
 10
602.0577750822127
 20
4183.797792126608
 30
0.0
  0
ENDBLK
  5
2CA
330
2BF
100
AcDbEntity
  8
0
100
AcDbBlockEnd
  0
BLOCK
  5
2D7
330
2CB
100
AcDbEntity
  8
0
100
AcDbBlockBegin
  2
*D9
 70
     1
 10
0.0
 20
0.0
 30
0.0
  3
*D9
  1

  0
LINE
  5
B6C
330
2CB
100
AcDbEntity
  8
D-STR-DIM
370
    -2
100
AcDbLine
 10
1444.597493069798
 20
4383.647034531207
 30
0.0
 11
1554.597493069798
 21
4383.647034531207
 31
0.0
  0
LINE
  5
B6D
330
2CB
100
AcDbEntity
  8
D-STR-DIM
370
    -2
100
AcDbLine
 10
1444.597493069798
 20
4428.647034531208
 30
0.0
 11
1554.597493069798
 21
4428.647034531208
 31
0.0
  0
LINE
  5
B6E
330
2CB
100
AcDbEntity
  8
D-STR-DIM
370
    -2
100
AcDbLine
 10
1534.597493069798
 20
4363.647034531208
 30
0.0
 11
1534.597493069798
 21
4343.647034531207
 31
0.0
  0
LINE
  5
B6F
330
2CB
100
AcDbEntity
  8
D-STR-DIM
370
    -2
100
AcDbLine
 10
1534.597493069798
 20
4448.647034531208
 30
0.0
 11
1534.597493069798
 21
4468.647034531207
 31
0.0
  0
MTEXT
  5
B70
330
2CB
100
AcDbEntity
  8
D-STR-DIM
100
AcDbMText
 10
1509.597493069798
 20
4406.147034531207
 30
0.0
 40
30.0
 41
0.0
 71
     5
 72
     1
  1
\A1;45
 11
0.0000000000000001
 21
1.0
 31
0.0
 73
     1
 44
1.0
  0
LINE
  5
B71
330
2CB
100
AcDbEntity
  8
D-STR-DIM
370
    -2
100
AcDbLine
 10
1534.597493069798
 20
4383.647034531207
 30
0.0
 11
1534.597493069798
 21
4428.647034531208
 31
0.0
  0
INSERT
  5
B72
330
2CB
100
AcDbEntity
  8
D-STR-DIM
370
    -2
100
AcDbBlockReference
  2
_OPEN30
 10
1534.597493069798
 20
4383.647034531207
 30
0.0
 41
20.0
 42
20.0
 43
20.0
 50
90.0
  0
INSERT
  5
B73
330
2CB
100
AcDbEntity
  8
D-STR-DIM
370
    -2
100
AcDbBlockReference
  2
_OPEN30
 10
1534.597493069798
 20
4428.647034531208
 30
0.0
 41
20.0
 42
20.0
 43
20.0
 50
270.0
  0
POINT
  5
B74
330
2CB
100
AcDbEntity
  8
DEFPOINTS
 62
     0
100
AcDbPoint
 10
1434.597493069797
 20
4383.647034531207
 30
0.0
  0
POINT
  5
B75
330
2CB
100
AcDbEntity
  8
DEFPOINTS
 62
     0
100
AcDbPoint
 10
1434.597493069797
 20
4428.647034531208
 30
0.0
  0
POINT
  5
B76
330
2CB
100
AcDbEntity
  8
DEFPOINTS
 62
     0
100
AcDbPoint
 10
1534.597493069798
 20
4428.647034531208
 30
0.0
  0
ENDBLK
  5
2D8
330
2CB
100
AcDbEntity
  8
0
100
AcDbBlockEnd
  0
BLOCK
  5
2E5
330
2D9
100
AcDbEntity
  8
0
100
AcDbBlockBegin
  2
*D10
 70
     1
 10
0.0
 20
0.0
 30
0.0
  3
*D10
  1

  0
LINE
  5
B8B
330
2D9
100
AcDbEntity
  8
D-STR-DIM
370
    -2
100
AcDbLine
 10
1444.597493069798
 20
4323.647034531208
 30
0.0
 11
1554.597493069798
 21
4323.647034531208
 31
0.0
  0
LINE
  5
B8C
330
2D9
100
AcDbEntity
  8
D-STR-DIM
370
    -2
100
AcDbLine
 10
1444.597493069798
 20
4383.647034531207
 30
0.0
 11
1554.597493069798
 21
4383.647034531207
 31
0.0
  0
LINE
  5
B8D
330
2D9
100
AcDbEntity
  8
D-STR-DIM
370
    -2
100
AcDbLine
 10
1534.597493069798
 20
4343.647034531207
 30
0.0
 11
1534.597493069798
 21
4363.647034531208
 31
0.0
  0
MTEXT
  5
B8E
330
2D9
100
AcDbEntity
  8
D-STR-DIM
100
AcDbMText
 10
1509.597493069799
 20
4353.647034531208
 30
0.0
 40
30.0
 41
0.0
 71
     5
 72
     1
  1
\A1;60
 11
0.0000000000000001
 21
1.0
 31
0.0
 73
     1
 44
1.0
  0
INSERT
  5
B8F
330
2D9
100
AcDbEntity
  8
D-STR-DIM
370
    -2
100
AcDbBlockReference
  2
_OPEN30
 10
1534.597493069798
 20
4323.647034531208
 30
0.0
 41
20.0
 42
20.0
 43
20.0
 50
270.0
  0
INSERT
  5
B90
330
2D9
100
AcDbEntity
  8
D-STR-DIM
370
    -2
100
AcDbBlockReference
  2
_OPEN30
 10
1534.597493069798
 20
4383.647034531207
 30
0.0
 41
20.0
 42
20.0
 43
20.0
 50
90.0
  0
POINT
  5
B91
330
2D9
100
AcDbEntity
  8
DEFPOINTS
 62
     0
100
AcDbPoint
 10
1434.597493069797
 20
4323.647034531208
 30
0.0
  0
POINT
  5
B92
330
2D9
100
AcDbEntity
  8
DEFPOINTS
 62
     0
100
AcDbPoint
 10
1434.597493069797
 20
4383.647034531207
 30
0.0
  0
POINT
  5
B93
330
2D9
100
AcDbEntity
  8
DEFPOINTS
 62
     0
100
AcDbPoint
 10
1534.597493069798
 20
4383.647034531207
 30
0.0
  0
ENDBLK
  5
2E6
330
2D9
100
AcDbEntity
  8
0
100
AcDbBlockEnd
  0
BLOCK
  5
2F1
330
2E7
100
AcDbEntity
  8
0
100
AcDbBlockBegin
  2
*D11
 70
     1
 10
0.0
 20
0.0
 30
0.0
  3
*D11
  1

  0
LINE
  5
942
330
2E7
100
AcDbEntity
  8
D-STR-DIM
370
    -2
100
AcDbLine
 10
1444.597493069798
 20
4323.647034531208
 30
0.0
 11
1554.597493069797
 21
4323.647034531208
 31
0.0
  0
LINE
  5
943
330
2E7
100
AcDbEntity
  8
D-STR-DIM
370
    -2
100
AcDbLine
 10
1444.597493069798
 20
4073.647034531208
 30
0.0
 11
1554.597493069797
 21
4073.647034531208
 31
0.0
  0
LINE
  5
944
330
2E7
100
AcDbEntity
  8
D-STR-DIM
370
    -2
100
AcDbLine
 10
1534.597493069797
 20
4303.647034531208
 30
0.0
 11
1534.597493069797
 21
4093.647034531207
 31
0.0
  0
INSERT
  5
945
330
2E7
100
AcDbEntity
  8
D-STR-DIM
370
    -2
100
AcDbBlockReference
  2
_OPEN30
 10
1534.597493069797
 20
4323.647034531208
 30
0.0
 41
20.0
 42
20.0
 43
20.0
 50
90.0
  0
INSERT
  5
946
330
2E7
100
AcDbEntity
  8
D-STR-DIM
370
    -2
100
AcDbBlockReference
  2
_OPEN30
 10
1534.597493069797
 20
4073.647034531208
 30
0.0
 41
20.0
 42
20.0
 43
20.0
 50
270.0
  0
MTEXT
  5
947
330
2E7
100
AcDbEntity
  8
D-STR-DIM
100
AcDbMText
 10
1509.597493069797
 20
4198.647034531208
 30
0.0
 40
30.0
 41
0.0
 71
     5
 72
     1
  1
\A1;250
 11
0.0000000000000001
 21
1.0
 31
0.0
 73
     1
 44
1.0
  0
POINT
  5
948
330
2E7
100
AcDbEntity
  8
DEFPOINTS
 62
     0
100
AcDbPoint
 10
1434.597493069797
 20
4323.647034531208
 30
0.0
  0
POINT
  5
949
330
2E7
100
AcDbEntity
  8
DEFPOINTS
 62
     0
100
AcDbPoint
 10
1434.597493069797
 20
4073.647034531208
 30
0.0
  0
POINT
  5
94A
330
2E7
100
AcDbEntity
  8
DEFPOINTS
 62
     0
100
AcDbPoint
 10
1534.597493069797
 20
4073.647034531208
 30
0.0
  0
ENDBLK
  5
2F2
330
2E7
100
AcDbEntity
  8
0
100
AcDbBlockEnd
  0
BLOCK
  5
2FD
330
2F3
100
AcDbEntity
  8
0
100
AcDbBlockBegin
  2
*D12
 70
     1
 10
0.0
 20
0.0
 30
0.0
  3
*D12
  1

  0
LINE
  5
971
330
2F3
100
AcDbEntity
  8
D-STR-DIM
370
    -2
100
AcDbLine
 10
1434.597493069797
 20
4208.647034531208
 30
0.0
 11
1434.597493069797
 21
4268.647034531208
 31
0.0
  0
LINE
  5
972
330
2F3
100
AcDbEntity
  8
D-STR-DIM
370
    -2
100
AcDbLine
 10
1083.597493070068
 20
4208.647034531208
 30
0.0
 11
1083.597493070068
 21
4268.647034531208
 31
0.0
  0
LINE
  5
973
330
2F3
100
AcDbEntity
  8
D-STR-DIM
370
    -2
100
AcDbLine
 10
1414.597493069797
 20
4248.647034531209
 30
0.0
 11
1103.597493070068
 21
4248.647034531209
 31
0.0
  0
INSERT
  5
974
330
2F3
100
AcDbEntity
  8
D-STR-DIM
370
    -2
100
AcDbBlockReference
  2
_OPEN30
 10
1434.597493069797
 20
4248.647034531209
 30
0.0
 41
20.0
 42
20.0
 43
20.0
  0
INSERT
  5
975
330
2F3
100
AcDbEntity
  8
D-STR-DIM
370
    -2
100
AcDbBlockReference
  2
_OPEN30
 10
1083.597493070068
 20
4248.647034531209
 30
0.0
 41
20.0
 42
20.0
 43
20.0
 50
180.0
  0
MTEXT
  5
976
330
2F3
100
AcDbEntity
  8
D-STR-DIM
100
AcDbMText
 10
1259.097493069933
 20
4273.647034531208
 30
0.0
 40
30.0
 41
0.0
 71
     5
 72
     1
  1
\A1;351
 73
     1
 44
1.0
  0
POINT
  5
977
330
2F3
100
AcDbEntity
  8
DEFPOINTS
 62
     0
100
AcDbPoint
 10
1434.597493069797
 20
4198.647034531208
 30
0.0
  0
POINT
  5
978
330
2F3
100
AcDbEntity
  8
DEFPOINTS
 62
     0
100
AcDbPoint
 10
1083.597493070068
 20
4198.647034531208
 30
0.0
  0
POINT
  5
979
330
2F3
100
AcDbEntity
  8
DEFPOINTS
 62
     0
100
AcDbPoint
 10
1083.597493070068
 20
4248.647034531209
 30
0.0
  0
ENDBLK
  5
2FE
330
2F3
100
AcDbEntity
  8
0
100
AcDbBlockEnd
  0
BLOCK
  5
309
330
2FF
100
AcDbEntity
  8
0
100
AcDbBlockBegin
  2
*D13
 70
     1
 10
0.0
 20
0.0
 30
0.0
  3
*D13
  1

  0
LINE
  5
99E
330
2FF
100
AcDbEntity
  8
D-STR-DIM
370
    -2
100
AcDbLine
 10
988.3283737242912
 20
4438.647034531208
 30
0.0
 11
988.3283737242912
 21
4548.647034531208
 31
0.0
  0
LINE
  5
99F
330
2FF
100
AcDbEntity
  8
D-STR-DIM
370
    -2
100
AcDbLine
 10
1434.597493069797
 20
4438.647034531208
 30
0.0
 11
1434.597493069797
 21
4548.647034531208
 31
0.0
  0
LINE
  5
9A0
330
2FF
100
AcDbEntity
  8
D-STR-DIM
370
    -2
100
AcDbLine
 10
1008.32837372429
 20
4528.647034531208
 30
0.0
 11
1414.597493069797
 21
4528.647034531208
 31
0.0
  0
INSERT
  5
9A1
330
2FF
100
AcDbEntity
  8
D-STR-DIM
370
    -2
100
AcDbBlockReference
  2
_OPEN30
 10
988.3283737242912
 20
4528.647034531208
 30
0.0
 41
20.0
 42
20.0
 43
20.0
 50
180.0
  0
INSERT
  5
9A2
330
2FF
100
AcDbEntity
  8
D-STR-DIM
370
    -2
100
AcDbBlockReference
  2
_OPEN30
 10
1434.597493069797
 20
4528.647034531208
 30
0.0
 41
20.0
 42
20.0
 43
20.0
  0
MTEXT
  5
9A3
330
2FF
100
AcDbEntity
  8
D-STR-DIM
100
AcDbMText
 10
1211.462933397044
 20
4553.647034531208
 30
0.0
 40
30.0
 41
0.0
 71
     5
 72
     1
  1
\A1;446
 73
     1
 44
1.0
  0
POINT
  5
9A4
330
2FF
100
AcDbEntity
  8
DEFPOINTS
 62
     0
100
AcDbPoint
 10
988.3283737242912
 20
4428.647034531208
 30
0.0
  0
POINT
  5
9A5
330
2FF
100
AcDbEntity
  8
DEFPOINTS
 62
     0
100
AcDbPoint
 10
1434.597493069797
 20
4428.647034531208
 30
0.0
  0
POINT
  5
9A6
330
2FF
100
AcDbEntity
  8
DEFPOINTS
 62
     0
100
AcDbPoint
 10
1434.597493069797
 20
4528.647034531208
 30
0.0
  0
ENDBLK
  5
30A
330
2FF
100
AcDbEntity
  8
0
100
AcDbBlockEnd
  0
BLOCK
  5
315
330
30B
100
AcDbEntity
  8
0
100
AcDbBlockBegin
  2
*D14
 70
     1
 10
0.0
 20
0.0
 30
0.0
  3
*D14
  1

  0
LINE
  5
9B9
330
30B
100
AcDbEntity
  8
D-STR-DIM
370
    -2
100
AcDbLine
 10
1076.526425258163
 20
1602.247573866514
 30
0.0
 11
1034.100018386981
 21
1644.673980737717
 31
0.0
  0
LINE
  5
9BA
330
30B
100
AcDbEntity
  8
D-STR-DIM
370
    -2
100
AcDbLine
 10
828.3319450618195
 20
1354.053093670289
 30
0.0
 11
785.9055381906372
 21
1396.479500541492
 31
0.0
  0
LINE
  5
9BB
330
30B
100
AcDbEntity
  8
D-STR-DIM
370
    -2
100
AcDbLine
 10
1034.100018386974
 20
1616.389709490256
 30
0.0
 11
814.1898094380993
 21
1396.479500541486
 31
0.0
  0
INSERT
  5
9BC
330
30B
100
AcDbEntity
  8
D-STR-DIM
370
    -2
100
AcDbBlockReference
  2
_OPEN30
 10
1048.24215401071
 20
1630.531845113982
 30
0.0
 41
20.0
 42
20.0
 43
20.0
 50
44.9999999999861
  0
INSERT
  5
9BD
330
30B
100
AcDbEntity
  8
D-STR-DIM
370
    -2
100
AcDbBlockReference
  2
_OPEN30
 10
800.0476738143648
 20
1382.337364917757
 30
0.0
 41
20.0
 42
20.0
 43
20.0
 50
224.9999999999861
  0
MTEXT
  5
9BE
330
30B
100
AcDbEntity
  8
D-STR-DIM
100
AcDbMText
 10
906.4672443828779
 20
1524.112274545538
 30
0.0
 40
30.0
 41
0.0
 71
     5
 72
     1
  1
\A1;351
 11
0.7071067811867187
 21
0.7071067811863764
 31
0.0
 73
     1
 44
1.0
  0
POINT
  5
9BF
330
30B
100
AcDbEntity
  8
DEFPOINTS
 62
     0
100
AcDbPoint
 10
1083.597493070028
 20
1595.176506054648
 30
0.0
  0
POINT
  5
9C0
330
30B
100
AcDbEntity
  8
DEFPOINTS
 62
     0
100
AcDbPoint
 10
835.4030128736834
 20
1346.982025858422
 30
0.0
  0
POINT
  5
9C1
330
30B
100
AcDbEntity
  8
DEFPOINTS
 62
     0
100
AcDbPoint
 10
800.0476738143648
 20
1382.337364917757
 30
0.0
  0
ENDBLK
  5
316
330
30B
100
AcDbEntity
  8
0
100
AcDbBlockEnd
  0
BLOCK
  5
321
330
317
100
AcDbEntity
  8
0
100
AcDbBlockBegin
  2
*D15
 70
     1
 10
0.0
 20
0.0
 30
0.0
  3
*D15
  1

  0
LINE
  5
9A7
330
317
100
AcDbEntity
  8
D-STR-DIM
370
    -2
100
AcDbLine
 10
968.8308990411819
 20
1862.247573866516
 30
0.0
 11
891.0491531106716
 21
1940.029319797064
 31
0.0
  0
LINE
  5
9A8
330
317
100
AcDbEntity
  8
D-STR-DIM
370
    -2
100
AcDbLine
 10
644.4841819533045
 20
1537.900856778798
 30
0.0
 11
566.7024360227942
 21
1615.682602709346
 31
0.0
  0
LINE
  5
9A9
330
317
100
AcDbEntity
  8
D-STR-DIM
370
    -2
100
AcDbLine
 10
891.049153110665
 20
1911.745048549601
 30
0.0
 11
594.9867072702561
 21
1615.682602709338
 31
0.0
  0
INSERT
  5
9AA
330
317
100
AcDbEntity
  8
D-STR-DIM
370
    -2
100
AcDbBlockReference
  2
_OPEN30
 10
905.1912887343991
 20
1925.88718417333
 30
0.0
 41
20.0
 42
20.0
 43
20.0
 50
44.99999999998585
  0
INSERT
  5
9AB
330
317
100
AcDbEntity
  8
D-STR-DIM
370
    -2
100
AcDbBlockReference
  2
_OPEN30
 10
580.8445716465215
 20
1601.540467085612
 30
0.0
 41
20.0
 42
20.0
 43
20.0
 50
224.9999999999858
  0
MTEXT
  5
9AC
330
317
100
AcDbEntity
  8
D-STR-DIM
100
AcDbMText
 10
725.3402606608009
 20
1781.391495159137
 30
0.0
 40
30.0
 41
0.0
 71
     5
 72
     1
  1
\A1;459
 11
0.7071067811867221
 21
0.707106781186373
 31
0.0
 73
     1
 44
1.0
  0
POINT
  5
9AD
330
317
100
AcDbEntity
  8
DEFPOINTS
 62
     0
100
AcDbPoint
 10
975.9019668530456
 20
1855.176506054648
 30
0.0
  0
POINT
  5
9AE
330
317
100
AcDbEntity
  8
DEFPOINTS
 62
     0
100
AcDbPoint
 10
651.5552497651682
 20
1530.829788966929
 30
0.0
  0
POINT
  5
9AF
330
317
100
AcDbEntity
  8
DEFPOINTS
 62
     0
100
AcDbPoint
 10
580.8445716465215
 20
1601.540467085612
 30
0.0
  0
ENDBLK
  5
322
330
317
100
AcDbEntity
  8
0
100
AcDbBlockEnd
  0
BLOCK
  5
32F
330
323
100
AcDbEntity
  8
0
100
AcDbBlockBegin
  2
*D16
 70
     1
 10
0.0
 20
0.0
 30
0.0
  3
*D16
  1

  0
LINE
  5
B26
330
323
100
AcDbEntity
  8
D-STR-DIM
370
    -2
100
AcDbLine
 10
1444.597493069798
 20
1385.176506054877
 30
0.0
 11
1554.597493069798
 21
1385.176506054877
 31
0.0
  0
LINE
  5
B27
330
323
100
AcDbEntity
  8
D-STR-DIM
370
    -2
100
AcDbLine
 10
1444.597493069798
 20
1445.176506054877
 30
0.0
 11
1554.597493069798
 21
1445.176506054877
 31
0.0
  0
LINE
  5
B28
330
323
100
AcDbEntity
  8
D-STR-DIM
370
    -2
100
AcDbLine
 10
1534.597493069798
 20
1405.176506054877
 30
0.0
 11
1534.597493069798
 21
1425.176506054877
 31
0.0
  0
MTEXT
  5
B29
330
323
100
AcDbEntity
  8
D-STR-DIM
100
AcDbMText
 10
1509.597493069798
 20
1415.176506054877
 30
0.0
 40
30.0
 41
0.0
 71
     5
 72
     1
  1
\A1;60
 11
0.0000000000000001
 21
1.0
 31
0.0
 73
     1
 44
1.0
  0
INSERT
  5
B2A
330
323
100
AcDbEntity
  8
D-STR-DIM
370
    -2
100
AcDbBlockReference
  2
_OPEN30
 10
1534.597493069798
 20
1385.176506054877
 30
0.0
 41
20.0
 42
20.0
 43
20.0
 50
270.0
  0
INSERT
  5
B2B
330
323
100
AcDbEntity
  8
D-STR-DIM
370
    -2
100
AcDbBlockReference
  2
_OPEN30
 10
1534.597493069798
 20
1445.176506054877
 30
0.0
 41
20.0
 42
20.0
 43
20.0
 50
90.0
  0
POINT
  5
B2C
330
323
100
AcDbEntity
  8
DEFPOINTS
 62
     0
100
AcDbPoint
 10
1434.597493069797
 20
1385.176506054877
 30
0.0
  0
POINT
  5
B2D
330
323
100
AcDbEntity
  8
DEFPOINTS
 62
     0
100
AcDbPoint
 10
1434.597493069797
 20
1445.176506054877
 30
0.0
  0
POINT
  5
B2E
330
323
100
AcDbEntity
  8
DEFPOINTS
 62
     0
100
AcDbPoint
 10
1534.597493069798
 20
1445.176506054877
 30
0.0
  0
ENDBLK
  5
330
330
323
100
AcDbEntity
  8
0
100
AcDbBlockEnd
  0
BLOCK
  5
33B
330
331
100
AcDbEntity
  8
0
100
AcDbBlockBegin
  2
*D17
 70
     1
 10
0.0
 20
0.0
 30
0.0
  3
*D17
  1

  0
LINE
  5
9DD
330
331
100
AcDbEntity
  8
D-STR-DIM
370
    -2
100
AcDbLine
 10
1444.597493069798
 20
1745.176506054648
 30
0.0
 11
1554.597493069798
 21
1745.176506054647
 31
0.0
  0
LINE
  5
9DE
330
331
100
AcDbEntity
  8
D-STR-DIM
370
    -2
100
AcDbLine
 10
1444.597493069798
 20
1445.176506054877
 30
0.0
 11
1554.597493069797
 21
1445.176506054877
 31
0.0
  0
LINE
  5
9DF
330
331
100
AcDbEntity
  8
D-STR-DIM
370
    -2
100
AcDbLine
 10
1534.597493069798
 20
1725.176506054648
 30
0.0
 11
1534.597493069797
 21
1465.176506054877
 31
0.0
  0
INSERT
  5
9E0
330
331
100
AcDbEntity
  8
D-STR-DIM
370
    -2
100
AcDbBlockReference
  2
_OPEN30
 10
1534.597493069798
 20
1745.176506054648
 30
0.0
 41
20.0
 42
20.0
 43
20.0
 50
90.0
  0
INSERT
  5
9E1
330
331
100
AcDbEntity
  8
D-STR-DIM
370
    -2
100
AcDbBlockReference
  2
_OPEN30
 10
1534.597493069797
 20
1445.176506054877
 30
0.0
 41
20.0
 42
20.0
 43
20.0
 50
270.0
  0
MTEXT
  5
9E2
330
331
100
AcDbEntity
  8
D-STR-DIM
100
AcDbMText
 10
1509.597493069797
 20
1595.176506054763
 30
0.0
 40
30.0
 41
0.0
 71
     5
 72
     1
  1
\A1;300
 11
0.0000000000000001
 21
1.0
 31
0.0
 73
     1
 44
1.0
  0
POINT
  5
9E3
330
331
100
AcDbEntity
  8
DEFPOINTS
 62
     0
100
AcDbPoint
 10
1434.597493069797
 20
1745.176506054648
 30
0.0
  0
POINT
  5
9E4
330
331
100
AcDbEntity
  8
DEFPOINTS
 62
     0
100
AcDbPoint
 10
1434.597493069797
 20
1445.176506054877
 30
0.0
  0
POINT
  5
9E5
330
331
100
AcDbEntity
  8
DEFPOINTS
 62
     0
100
AcDbPoint
 10
1534.597493069797
 20
1445.176506054877
 30
0.0
  0
ENDBLK
  5
33C
330
331
100
AcDbEntity
  8
0
100
AcDbBlockEnd
  0
BLOCK
  5
347
330
33D
100
AcDbEntity
  8
0
100
AcDbBlockBegin
  2
*D18
 70
     1
 10
0.0
 20
0.0
 30
0.0
  3
*D18
  1

  0
LINE
  5
9E6
330
33D
100
AcDbEntity
  8
D-STR-DIM
370
    -2
100
AcDbLine
 10
1444.597493069798
 20
1855.176506054648
 30
0.0
 11
1654.597493069798
 21
1855.176506054648
 31
0.0
  0
LINE
  5
9E7
330
33D
100
AcDbEntity
  8
D-STR-DIM
370
    -2
100
AcDbLine
 10
1444.597493069798
 20
1335.176506054648
 30
0.0
 11
1654.597493069797
 21
1335.176506054648
 31
0.0
  0
LINE
  5
9E8
330
33D
100
AcDbEntity
  8
D-STR-DIM
370
    -2
100
AcDbLine
 10
1634.597493069798
 20
1835.176506054648
 30
0.0
 11
1634.597493069797
 21
1355.176506054648
 31
0.0
  0
INSERT
  5
9E9
330
33D
100
AcDbEntity
  8
D-STR-DIM
370
    -2
100
AcDbBlockReference
  2
_OPEN30
 10
1634.597493069798
 20
1855.176506054648
 30
0.0
 41
20.0
 42
20.0
 43
20.0
 50
90.0
  0
INSERT
  5
9EA
330
33D
100
AcDbEntity
  8
D-STR-DIM
370
    -2
100
AcDbBlockReference
  2
_OPEN30
 10
1634.597493069797
 20
1335.176506054648
 30
0.0
 41
20.0
 42
20.0
 43
20.0
 50
270.0
  0
MTEXT
  5
9EB
330
33D
100
AcDbEntity
  8
D-STR-DIM
100
AcDbMText
 10
1609.597493069797
 20
1595.176506054648
 30
0.0
 40
30.0
 41
0.0
 71
     5
 72
     1
  1
\A1;520
 11
0.0000000000000001
 21
1.0
 31
0.0
 73
     1
 44
1.0
  0
POINT
  5
9EC
330
33D
100
AcDbEntity
  8
DEFPOINTS
 62
     0
100
AcDbPoint
 10
1434.597493069797
 20
1855.176506054648
 30
0.0
  0
POINT
  5
9ED
330
33D
100
AcDbEntity
  8
DEFPOINTS
 62
     0
100
AcDbPoint
 10
1434.597493069797
 20
1335.176506054648
 30
0.0
  0
POINT
  5
9EE
330
33D
100
AcDbEntity
  8
DEFPOINTS
 62
     0
100
AcDbPoint
 10
1634.597493069797
 20
1335.176506054648
 30
0.0
  0
ENDBLK
  5
348
330
33D
100
AcDbEntity
  8
0
100
AcDbBlockEnd
  0
BLOCK
  5
355
330
349
100
AcDbEntity
  8
0
100
AcDbBlockBegin
  2
*D19
 70
     1
 10
0.0
 20
0.0
 30
0.0
  3
*D19
  1

  0
LINE
  5
B48
330
349
100
AcDbEntity
  8
D-STR-DIM
370
    -2
100
AcDbLine
 10
1444.597493069798
 20
1335.176506054648
 30
0.0
 11
1554.597493069798
 21
1335.176506054648
 31
0.0
  0
LINE
  5
B49
330
349
100
AcDbEntity
  8
D-STR-DIM
370
    -2
100
AcDbLine
 10
1444.597493069798
 20
1385.176506054877
 30
0.0
 11
1554.597493069798
 21
1385.176506054877
 31
0.0
  0
LINE
  5
B4A
330
349
100
AcDbEntity
  8
D-STR-DIM
370
    -2
100
AcDbLine
 10
1534.597493069798
 20
1315.176506054648
 30
0.0
 11
1534.597493069798
 21
1295.176506054648
 31
0.0
  0
LINE
  5
B4B
330
349
100
AcDbEntity
  8
D-STR-DIM
370
    -2
100
AcDbLine
 10
1534.597493069798
 20
1405.176506054877
 30
0.0
 11
1534.597493069798
 21
1425.176506054877
 31
0.0
  0
MTEXT
  5
B4C
330
349
100
AcDbEntity
  8
D-STR-DIM
100
AcDbMText
 10
1509.597493069798
 20
1360.176506054762
 30
0.0
 40
30.0
 41
0.0
 71
     5
 72
     1
  1
\A1;50
 11
0.0000000000000001
 21
1.0
 31
0.0
 73
     1
 44
1.0
  0
LINE
  5
B4D
330
349
100
AcDbEntity
  8
D-STR-DIM
370
    -2
100
AcDbLine
 10
1534.597493069798
 20
1335.176506054648
 30
0.0
 11
1534.597493069798
 21
1385.176506054877
 31
0.0
  0
INSERT
  5
B4E
330
349
100
AcDbEntity
  8
D-STR-DIM
370
    -2
100
AcDbBlockReference
  2
_OPEN30
 10
1534.597493069798
 20
1335.176506054648
 30
0.0
 41
20.0
 42
20.0
 43
20.0
 50
90.0
  0
INSERT
  5
B4F
330
349
100
AcDbEntity
  8
D-STR-DIM
370
    -2
100
AcDbBlockReference
  2
_OPEN30
 10
1534.597493069798
 20
1385.176506054877
 30
0.0
 41
20.0
 42
20.0
 43
20.0
 50
270.0
  0
POINT
  5
B50
330
349
100
AcDbEntity
  8
DEFPOINTS
 62
     0
100
AcDbPoint
 10
1434.597493069797
 20
1335.176506054648
 30
0.0
  0
POINT
  5
B51
330
349
100
AcDbEntity
  8
DEFPOINTS
 62
     0
100
AcDbPoint
 10
1434.597493069797
 20
1385.176506054877
 30
0.0
  0
POINT
  5
B52
330
349
100
AcDbEntity
  8
DEFPOINTS
 62
     0
100
AcDbPoint
 10
1534.597493069798
 20
1385.176506054877
 30
0.0
  0
ENDBLK
  5
356
330
349
100
AcDbEntity
  8
0
100
AcDbBlockEnd
  0
BLOCK
  5
361
330
357
100
AcDbEntity
  8
0
100
AcDbBlockBegin
  2
*D20
 70
     1
 10
0.0
 20
0.0
 30
0.0
  3
*D20
  1

  0
LINE
  5
9D4
330
357
100
AcDbEntity
  8
D-STR-DIM
370
    -2
100
AcDbLine
 10
1191.293019286981
 20
1325.176506054646
 30
0.0
 11
1191.293019286981
 21
1215.176506054647
 31
0.0
  0
LINE
  5
9D5
330
357
100
AcDbEntity
  8
D-STR-DIM
370
    -2
100
AcDbLine
 10
1434.597493069797
 20
1325.176506054647
 30
0.0
 11
1434.597493069797
 21
1215.176506054647
 31
0.0
  0
LINE
  5
9D6
330
357
100
AcDbEntity
  8
D-STR-DIM
370
    -2
100
AcDbLine
 10
1211.293019286981
 20
1235.176506054647
 30
0.0
 11
1414.597493069797
 21
1235.176506054647
 31
0.0
  0
INSERT
  5
9D7
330
357
100
AcDbEntity
  8
D-STR-DIM
370
    -2
100
AcDbBlockReference
  2
_OPEN30
 10
1191.293019286981
 20
1235.176506054647
 30
0.0
 41
20.0
 42
20.0
 43
20.0
 50
180.0
  0
INSERT
  5
9D8
330
357
100
AcDbEntity
  8
D-STR-DIM
370
    -2
100
AcDbBlockReference
  2
_OPEN30
 10
1434.597493069797
 20
1235.176506054647
 30
0.0
 41
20.0
 42
20.0
 43
20.0
  0
MTEXT
  5
9D9
330
357
100
AcDbEntity
  8
D-STR-DIM
100
AcDbMText
 10
1312.945256178388
 20
1260.176506054647
 30
0.0
 40
30.0
 41
0.0
 71
     5
 72
     1
  1
\A1;243
 73
     1
 44
1.0
  0
POINT
  5
9DA
330
357
100
AcDbEntity
  8
DEFPOINTS
 62
     0
100
AcDbPoint
 10
1191.293019286981
 20
1335.176506054646
 30
0.0
  0
POINT
  5
9DB
330
357
100
AcDbEntity
  8
DEFPOINTS
 62
     0
100
AcDbPoint
 10
1434.597493069797
 20
1335.176506054648
 30
0.0
  0
POINT
  5
9DC
330
357
100
AcDbEntity
  8
DEFPOINTS
 62
     0
100
AcDbPoint
 10
1434.597493069797
 20
1235.176506054647
 30
0.0
  0
ENDBLK
  5
362
330
357
100
AcDbEntity
  8
0
100
AcDbBlockEnd
  0
BLOCK
  5
36D
330
363
100
AcDbEntity
  8
0
100
AcDbBlockBegin
  2
*D21
 70
     1
 10
0.0
 20
0.0
 30
0.0
  3
*D21
  1

  0
LINE
  5
9CB
330
363
100
AcDbEntity
  8
D-STR-DIM
370
    -2
100
AcDbLine
 10
1198.364087098844
 20
1328.105438242779
 30
0.0
 11
1276.145833029341
 21
1250.323692312243
 31
0.0
  0
LINE
  5
9CC
330
363
100
AcDbEntity
  8
D-STR-DIM
370
    -2
100
AcDbLine
 10
1026.321843793944
 20
1156.063194937967
 30
0.0
 11
1104.103589724443
 21
1078.281449007431
 31
0.0
  0
LINE
  5
9CD
330
363
100
AcDbEntity
  8
D-STR-DIM
370
    -2
100
AcDbLine
 10
1247.86156178188
 20
1250.32369231225
 30
0.0
 11
1104.10358972445
 21
1106.565720254893
 31
0.0
  0
INSERT
  5
9CE
330
363
100
AcDbEntity
  8
D-STR-DIM
370
    -2
100
AcDbBlockReference
  2
_OPEN30
 10
1262.003697405614
 20
1264.465827935978
 30
0.0
 41
20.0
 42
20.0
 43
20.0
 50
44.99999999998561
  0
INSERT
  5
9CF
330
363
100
AcDbEntity
  8
D-STR-DIM
370
    -2
100
AcDbBlockReference
  2
_OPEN30
 10
1089.961454100714
 20
1092.423584631165
 30
0.0
 41
20.0
 42
20.0
 43
20.0
 50
224.9999999999856
  0
MTEXT
  5
9D0
330
363
100
AcDbEntity
  8
D-STR-DIM
100
AcDbMText
 10
1158.304906223506
 20
1196.12237581324
 30
0.0
 40
30.0
 41
0.0
 71
     5
 72
     1
  1
\A1;243
 11
0.707106781186725
 21
0.7071067811863702
 31
0.0
 73
     1
 44
1.0
  0
POINT
  5
9D1
330
363
100
AcDbEntity
  8
DEFPOINTS
 62
     0
100
AcDbPoint
 10
1191.29301928698
 20
1335.176506054646
 30
0.0
  0
POINT
  5
9D2
330
363
100
AcDbEntity
  8
DEFPOINTS
 62
     0
100
AcDbPoint
 10
1019.250775982082
 20
1163.134262749834
 30
0.0
  0
POINT
  5
9D3
330
363
100
AcDbEntity
  8
DEFPOINTS
 62
     0
100
AcDbPoint
 10
1089.961454100714
 20
1092.423584631165
 30
0.0
  0
ENDBLK
  5
36E
330
363
100
AcDbEntity
  8
0
100
AcDbBlockEnd
  0
BLOCK
  5
379
330
36F
100
AcDbEntity
  8
0
100
AcDbBlockBegin
  2
*D22
 70
     1
 10
0.0
 20
0.0
 30
0.0
  3
*D22
  1

  0
LINE
  5
9B0
330
36F
100
AcDbEntity
  8
D-STR-DIM
370
    -2
100
AcDbLine
 10
975.9019668530456
 20
1865.176506054648
 30
0.0
 11
975.9019668530456
 21
1975.176506054648
 31
0.0
  0
LINE
  5
9B1
330
36F
100
AcDbEntity
  8
D-STR-DIM
370
    -2
100
AcDbLine
 10
1434.597493069797
 20
1865.176506054648
 30
0.0
 11
1434.597493069797
 21
1975.176506054648
 31
0.0
  0
LINE
  5
9B2
330
36F
100
AcDbEntity
  8
D-STR-DIM
370
    -2
100
AcDbLine
 10
995.9019668530457
 20
1955.176506054648
 30
0.0
 11
1414.597493069797
 21
1955.176506054648
 31
0.0
  0
INSERT
  5
9B3
330
36F
100
AcDbEntity
  8
D-STR-DIM
370
    -2
100
AcDbBlockReference
  2
_OPEN30
 10
975.9019668530456
 20
1955.176506054648
 30
0.0
 41
20.0
 42
20.0
 43
20.0
 50
180.0
  0
INSERT
  5
9B4
330
36F
100
AcDbEntity
  8
D-STR-DIM
370
    -2
100
AcDbBlockReference
  2
_OPEN30
 10
1434.597493069797
 20
1955.176506054648
 30
0.0
 41
20.0
 42
20.0
 43
20.0
  0
MTEXT
  5
9B5
330
36F
100
AcDbEntity
  8
D-STR-DIM
100
AcDbMText
 10
1205.249729961421
 20
1980.176506054648
 30
0.0
 40
30.0
 41
0.0
 71
     5
 72
     1
  1
\A1;459
 73
     1
 44
1.0
  0
POINT
  5
9B6
330
36F
100
AcDbEntity
  8
DEFPOINTS
 62
     0
100
AcDbPoint
 10
975.9019668530456
 20
1855.176506054648
 30
0.0
  0
POINT
  5
9B7
330
36F
100
AcDbEntity
  8
DEFPOINTS
 62
     0
100
AcDbPoint
 10
1434.597493069797
 20
1855.176506054648
 30
0.0
  0
POINT
  5
9B8
330
36F
100
AcDbEntity
  8
DEFPOINTS
 62
     0
100
AcDbPoint
 10
1434.597493069797
 20
1955.176506054648
 30
0.0
  0
ENDBLK
  5
37A
330
36F
100
AcDbEntity
  8
0
100
AcDbBlockEnd
  0
BLOCK
  5
387
330
37B
100
AcDbEntity
  8
0
100
AcDbBlockBegin
  2
*D23
 70
     1
 10
0.0
 20
0.0
 30
0.0
  3
*D23
  1

  0
LINE
  5
AEA
330
37B
100
AcDbEntity
  8
D-STR-DIM
370
    -2
100
AcDbLine
 10
1444.597493069798
 20
1805.176506054648
 30
0.0
 11
1554.597493069798
 21
1805.176506054648
 31
0.0
  0
LINE
  5
AEB
330
37B
100
AcDbEntity
  8
D-STR-DIM
370
    -2
100
AcDbLine
 10
1444.597493069798
 20
1855.176506054648
 30
0.0
 11
1554.597493069798
 21
1855.176506054648
 31
0.0
  0
LINE
  5
AEC
330
37B
100
AcDbEntity
  8
D-STR-DIM
370
    -2
100
AcDbLine
 10
1534.597493069798
 20
1785.176506054648
 30
0.0
 11
1534.597493069798
 21
1765.176506054648
 31
0.0
  0
LINE
  5
AED
330
37B
100
AcDbEntity
  8
D-STR-DIM
370
    -2
100
AcDbLine
 10
1534.597493069798
 20
1875.176506054648
 30
0.0
 11
1534.597493069798
 21
1895.176506054648
 31
0.0
  0
MTEXT
  5
AEE
330
37B
100
AcDbEntity
  8
D-STR-DIM
100
AcDbMText
 10
1509.597493069798
 20
1830.176506054648
 30
0.0
 40
30.0
 41
0.0
 71
     5
 72
     1
  1
\A1;50
 11
0.0000000000000001
 21
1.0
 31
0.0
 73
     1
 44
1.0
  0
LINE
  5
AEF
330
37B
100
AcDbEntity
  8
D-STR-DIM
370
    -2
100
AcDbLine
 10
1534.597493069798
 20
1805.176506054648
 30
0.0
 11
1534.597493069798
 21
1855.176506054648
 31
0.0
  0
INSERT
  5
AF0
330
37B
100
AcDbEntity
  8
D-STR-DIM
370
    -2
100
AcDbBlockReference
  2
_OPEN30
 10
1534.597493069798
 20
1805.176506054648
 30
0.0
 41
20.0
 42
20.0
 43
20.0
 50
90.0
  0
INSERT
  5
AF1
330
37B
100
AcDbEntity
  8
D-STR-DIM
370
    -2
100
AcDbBlockReference
  2
_OPEN30
 10
1534.597493069798
 20
1855.176506054648
 30
0.0
 41
20.0
 42
20.0
 43
20.0
 50
270.0
  0
POINT
  5
AF2
330
37B
100
AcDbEntity
  8
DEFPOINTS
 62
     0
100
AcDbPoint
 10
1434.597493069797
 20
1805.176506054648
 30
0.0
  0
POINT
  5
AF3
330
37B
100
AcDbEntity
  8
DEFPOINTS
 62
     0
100
AcDbPoint
 10
1434.597493069797
 20
1855.176506054648
 30
0.0
  0
POINT
  5
AF4
330
37B
100
AcDbEntity
  8
DEFPOINTS
 62
     0
100
AcDbPoint
 10
1534.597493069798
 20
1855.176506054648
 30
0.0
  0
ENDBLK
  5
388
330
37B
100
AcDbEntity
  8
0
100
AcDbBlockEnd
  0
BLOCK
  5
395
330
389
100
AcDbEntity
  8
0
100
AcDbBlockBegin
  2
*D24
 70
     1
 10
0.0
 20
0.0
 30
0.0
  3
*D24
  1

  0
LINE
  5
B09
330
389
100
AcDbEntity
  8
D-STR-DIM
370
    -2
100
AcDbLine
 10
1444.597493069798
 20
1745.176506054648
 30
0.0
 11
1554.597493069798
 21
1745.176506054647
 31
0.0
  0
LINE
  5
B0A
330
389
100
AcDbEntity
  8
D-STR-DIM
370
    -2
100
AcDbLine
 10
1444.597493069798
 20
1805.176506054648
 30
0.0
 11
1554.597493069798
 21
1805.176506054648
 31
0.0
  0
LINE
  5
B0B
330
389
100
AcDbEntity
  8
D-STR-DIM
370
    -2
100
AcDbLine
 10
1534.597493069798
 20
1765.176506054648
 30
0.0
 11
1534.597493069798
 21
1785.176506054648
 31
0.0
  0
MTEXT
  5
B0C
330
389
100
AcDbEntity
  8
D-STR-DIM
100
AcDbMText
 10
1509.597493069799
 20
1775.176506054648
 30
0.0
 40
30.0
 41
0.0
 71
     5
 72
     1
  1
\A1;60
 11
0.0000000000000001
 21
1.0
 31
0.0
 73
     1
 44
1.0
  0
INSERT
  5
B0D
330
389
100
AcDbEntity
  8
D-STR-DIM
370
    -2
100
AcDbBlockReference
  2
_OPEN30
 10
1534.597493069798
 20
1745.176506054648
 30
0.0
 41
20.0
 42
20.0
 43
20.0
 50
270.0
  0
INSERT
  5
B0E
330
389
100
AcDbEntity
  8
D-STR-DIM
370
    -2
100
AcDbBlockReference
  2
_OPEN30
 10
1534.597493069798
 20
1805.176506054648
 30
0.0
 41
20.0
 42
20.0
 43
20.0
 50
90.0
  0
POINT
  5
B0F
330
389
100
AcDbEntity
  8
DEFPOINTS
 62
     0
100
AcDbPoint
 10
1434.597493069797
 20
1745.176506054648
 30
0.0
  0
POINT
  5
B10
330
389
100
AcDbEntity
  8
DEFPOINTS
 62
     0
100
AcDbPoint
 10
1434.597493069797
 20
1805.176506054648
 30
0.0
  0
POINT
  5
B11
330
389
100
AcDbEntity
  8
DEFPOINTS
 62
     0
100
AcDbPoint
 10
1534.597493069798
 20
1805.176506054648
 30
0.0
  0
ENDBLK
  5
396
330
389
100
AcDbEntity
  8
0
100
AcDbBlockEnd
  0
BLOCK
  5
3A1
330
397
100
AcDbEntity
  8
0
100
AcDbBlockBegin
  2
*D25
 70
     1
 10
0.0
 20
0.0
 30
0.0
  3
*D25
  1

  0
LINE
  5
9C2
330
397
100
AcDbEntity
  8
D-STR-DIM
370
    -2
100
AcDbLine
 10
1434.597493069757
 20
1605.176506054648
 30
0.0
 11
1434.597493069757
 21
1665.176506054648
 31
0.0
  0
LINE
  5
9C3
330
397
100
AcDbEntity
  8
D-STR-DIM
370
    -2
100
AcDbLine
 10
1083.597493070028
 20
1605.176506054648
 30
0.0
 11
1083.597493070028
 21
1665.176506054648
 31
0.0
  0
LINE
  5
9C4
330
397
100
AcDbEntity
  8
D-STR-DIM
370
    -2
100
AcDbLine
 10
1414.597493069758
 20
1645.176506054648
 30
0.0
 11
1103.597493070028
 21
1645.176506054648
 31
0.0
  0
INSERT
  5
9C5
330
397
100
AcDbEntity
  8
D-STR-DIM
370
    -2
100
AcDbBlockReference
  2
_OPEN30
 10
1434.597493069757
 20
1645.176506054648
 30
0.0
 41
20.0
 42
20.0
 43
20.0
  0
INSERT
  5
9C6
330
397
100
AcDbEntity
  8
D-STR-DIM
370
    -2
100
AcDbBlockReference
  2
_OPEN30
 10
1083.597493070028
 20
1645.176506054648
 30
0.0
 41
20.0
 42
20.0
 43
20.0
 50
180.0
  0
MTEXT
  5
9C7
330
397
100
AcDbEntity
  8
D-STR-DIM
100
AcDbMText
 10
1259.097493069893
 20
1670.176506054648
 30
0.0
 40
30.0
 41
0.0
 71
     5
 72
     1
  1
\A1;351
 73
     1
 44
1.0
  0
POINT
  5
9C8
330
397
100
AcDbEntity
  8
DEFPOINTS
 62
     0
100
AcDbPoint
 10
1434.597493069757
 20
1595.176506054648
 30
0.0
  0
POINT
  5
9C9
330
397
100
AcDbEntity
  8
DEFPOINTS
 62
     0
100
AcDbPoint
 10
1083.597493070028
 20
1595.176506054648
 30
0.0
  0
POINT
  5
9CA
330
397
100
AcDbEntity
  8
DEFPOINTS
 62
     0
100
AcDbPoint
 10
1083.597493070028
 20
1645.176506054648
 30
0.0
  0
ENDBLK
  5
3A2
330
397
100
AcDbEntity
  8
0
100
AcDbBlockEnd
  0
BLOCK
  5
A23
330
A19
100
AcDbEntity
  8
0
100
AcDbBlockBegin
  2
*D26
 70
     1
 10
0.0
 20
0.0
 30
0.0
  3
*D26
  1

  0
LINE
  5
A30
330
A19
100
AcDbEntity
  8
D-STR-DIM
370
    -2
100
AcDbLine
 10
3381.423655745258
 20
1597.100855987119
 30
0.0
 11
3507.923455894953
 21
1597.100855987119
 31
0.0
  0
LINE
  5
A31
330
A19
100
AcDbEntity
  8
D-STR-DIM
370
    -2
100
AcDbLine
 10
3381.423655745258
 20
1447.100855987119
 30
0.0
 11
3507.923455894953
 21
1447.100855987119
 31
0.0
  0
LINE
  5
A32
330
A19
100
AcDbEntity
  8
D-STR-DIM
370
    -2
100
AcDbLine
 10
3487.923455894954
 20
1577.100855987119
 30
0.0
 11
3487.923455894954
 21
1467.100855987119
 31
0.0
  0
INSERT
  5
A33
330
A19
100
AcDbEntity
  8
D-STR-DIM
370
    -2
100
AcDbBlockReference
  2
_OPEN30
 10
3487.923455894954
 20
1597.100855987119
 30
0.0
 41
20.0
 42
20.0
 43
20.0
 50
90.0
  0
INSERT
  5
A34
330
A19
100
AcDbEntity
  8
D-STR-DIM
370
    -2
100
AcDbBlockReference
  2
_OPEN30
 10
3487.923455894954
 20
1447.100855987119
 30
0.0
 41
20.0
 42
20.0
 43
20.0
 50
270.0
  0
MTEXT
  5
A35
330
A19
100
AcDbEntity
  8
D-STR-DIM
100
AcDbMText
 10
3462.923455894952
 20
1522.100855987119
 30
0.0
 40
30.0
 41
0.0
 71
     5
 72
     1
  1
\A1;300
 11
0.0000000000000001
 21
1.0
 31
0.0
 73
     1
 44
1.0
  0
POINT
  5
A36
330
A19
100
AcDbEntity
  8
DEFPOINTS
 62
     0
100
AcDbPoint
 10
3371.423655745258
 20
1597.100855987119
 30
0.0
  0
POINT
  5
A37
330
A19
100
AcDbEntity
  8
DEFPOINTS
 62
     0
100
AcDbPoint
 10
3371.423655745258
 20
1447.100855987119
 30
0.0
  0
POINT
  5
A38
330
A19
100
AcDbEntity
  8
DEFPOINTS
 62
     0
100
AcDbPoint
 10
3487.923455894954
 20
1447.100855987119
 30
0.0
  0
ENDBLK
  5
A24
330
A19
100
AcDbEntity
  8
0
100
AcDbBlockEnd
  0
BLOCK
  5
A46
330
A3A
100
AcDbEntity
  8
0
100
AcDbBlockBegin
  2
*D27
 70
     1
 10
0.0
 20
0.0
 30
0.0
  3
*D27
  1

  0
LINE
  5
A8A
330
A3A
100
AcDbEntity
  8
D-STR-DIM
370
    -2
100
AcDbLine
 10
3381.423655745258
 20
1652.100855987119
 30
0.0
 11
3507.923455894953
 21
1652.100855987119
 31
0.0
  0
LINE
  5
A8B
330
A3A
100
AcDbEntity
  8
D-STR-DIM
370
    -2
100
AcDbLine
 10
3381.423655745258
 20
1597.100855987119
 30
0.0
 11
3507.923455894953
 21
1597.100855987119
 31
0.0
  0
LINE
  5
A8C
330
A3A
100
AcDbEntity
  8
D-STR-DIM
370
    -2
100
AcDbLine
 10
3487.923455894954
 20
1672.100855987119
 30
0.0
 11
3487.923455894954
 21
1692.100855987119
 31
0.0
  0
LINE
  5
A8D
330
A3A
100
AcDbEntity
  8
D-STR-DIM
370
    -2
100
AcDbLine
 10
3487.923455894954
 20
1577.100855987119
 30
0.0
 11
3487.923455894954
 21
1557.100855987119
 31
0.0
  0
MTEXT
  5
A8E
330
A3A
100
AcDbEntity
  8
D-STR-DIM
100
AcDbMText
 10
3462.923455894954
 20
1624.600855987119
 30
0.0
 40
30.0
 41
0.0
 71
     5
 72
     1
  1
\A1;110
 11
0.0000000000000001
 21
1.0
 31
0.0
 73
     1
 44
1.0
  0
LINE
  5
A8F
330
A3A
100
AcDbEntity
  8
D-STR-DIM
370
    -2
100
AcDbLine
 10
3487.923455894954
 20
1652.100855987119
 30
0.0
 11
3487.923455894954
 21
1597.100855987119
 31
0.0
  0
INSERT
  5
A90
330
A3A
100
AcDbEntity
  8
D-STR-DIM
370
    -2
100
AcDbBlockReference
  2
_OPEN30
 10
3487.923455894954
 20
1652.100855987119
 30
0.0
 41
20.0
 42
20.0
 43
20.0
 50
270.0
  0
INSERT
  5
A91
330
A3A
100
AcDbEntity
  8
D-STR-DIM
370
    -2
100
AcDbBlockReference
  2
_OPEN30
 10
3487.923455894954
 20
1597.100855987119
 30
0.0
 41
20.0
 42
20.0
 43
20.0
 50
90.0
  0
POINT
  5
A92
330
A3A
100
AcDbEntity
  8
DEFPOINTS
 62
     0
100
AcDbPoint
 10
3371.423655745258
 20
1652.100855987119
 30
0.0
  0
POINT
  5
A93
330
A3A
100
AcDbEntity
  8
DEFPOINTS
 62
     0
100
AcDbPoint
 10
3371.423655745258
 20
1597.100855987119
 30
0.0
  0
POINT
  5
A94
330
A3A
100
AcDbEntity
  8
DEFPOINTS
 62
     0
100
AcDbPoint
 10
3487.923455894954
 20
1597.100855987119
 30
0.0
  0
ENDBLK
  5
A47
330
A3A
100
AcDbEntity
  8
0
100
AcDbBlockEnd
  0
BLOCK
  5
A62
330
A56
100
AcDbEntity
  8
0
100
AcDbBlockBegin
  2
*D28
 70
     1
 10
0.0
 20
0.0
 30
0.0
  3
*D28
  1

  0
LINE
  5
AAE
330
A56
100
AcDbEntity
  8
D-STR-DIM
370
    -2
100
AcDbLine
 10
3381.423655745258
 20
1447.100855987119
 30
0.0
 11
3507.923455894953
 21
1447.100855987119
 31
0.0
  0
LINE
  5
AAF
330
A56
100
AcDbEntity
  8
D-STR-DIM
370
    -2
100
AcDbLine
 10
3381.423655745258
 20
1392.100855987121
 30
0.0
 11
3507.923455894953
 21
1392.100855987121
 31
0.0
  0
LINE
  5
AB0
330
A56
100
AcDbEntity
  8
D-STR-DIM
370
    -2
100
AcDbLine
 10
3487.923455894954
 20
1467.100855987119
 30
0.0
 11
3487.923455894954
 21
1487.100855987119
 31
0.0
  0
LINE
  5
AB1
330
A56
100
AcDbEntity
  8
D-STR-DIM
370
    -2
100
AcDbLine
 10
3487.923455894954
 20
1372.100855987122
 30
0.0
 11
3487.923455894954
 21
1352.100855987122
 31
0.0
  0
MTEXT
  5
AB2
330
A56
100
AcDbEntity
  8
D-STR-DIM
100
AcDbMText
 10
3462.923455894954
 20
1419.60085598712
 30
0.0
 40
30.0
 41
0.0
 71
     5
 72
     1
  1
\A1;110
 11
0.0000000000000001
 21
1.0
 31
0.0
 73
     1
 44
1.0
  0
LINE
  5
AB3
330
A56
100
AcDbEntity
  8
D-STR-DIM
370
    -2
100
AcDbLine
 10
3487.923455894954
 20
1447.100855987119
 30
0.0
 11
3487.923455894954
 21
1392.100855987121
 31
0.0
  0
INSERT
  5
AB4
330
A56
100
AcDbEntity
  8
D-STR-DIM
370
    -2
100
AcDbBlockReference
  2
_OPEN30
 10
3487.923455894954
 20
1447.100855987119
 30
0.0
 41
20.0
 42
20.0
 43
20.0
 50
270.0
  0
INSERT
  5
AB5
330
A56
100
AcDbEntity
  8
D-STR-DIM
370
    -2
100
AcDbBlockReference
  2
_OPEN30
 10
3487.923455894954
 20
1392.100855987121
 30
0.0
 41
20.0
 42
20.0
 43
20.0
 50
90.0
  0
POINT
  5
AB6
330
A56
100
AcDbEntity
  8
DEFPOINTS
 62
     0
100
AcDbPoint
 10
3371.423655745258
 20
1447.100855987119
 30
0.0
  0
POINT
  5
AB7
330
A56
100
AcDbEntity
  8
DEFPOINTS
 62
     0
100
AcDbPoint
 10
3371.423655745258
 20
1392.100855987121
 30
0.0
  0
POINT
  5
AB8
330
A56
100
AcDbEntity
  8
DEFPOINTS
 62
     0
100
AcDbPoint
 10
3487.923455894954
 20
1392.100855987121
 30
0.0
  0
ENDBLK
  5
A63
330
A56
100
AcDbEntity
  8
0
100
AcDbBlockEnd
  0
BLOCK
  5
AC4
330
ABA
100
AcDbEntity
  8
0
100
AcDbBlockBegin
  2
*D29
 70
     1
 10
0.0
 20
0.0
 30
0.0
  3
*D29
  1

  0
LINE
  5
AC7
330
ABA
100
AcDbEntity
  8
D-STR-DIM
370
    -2
100
AcDbLine
 10
3381.423655745258
 20
1652.100855987119
 30
0.0
 11
3613.023101480747
 21
1652.100855987119
 31
0.0
  0
LINE
  5
AC8
330
ABA
100
AcDbEntity
  8
D-STR-DIM
370
    -2
100
AcDbLine
 10
3381.423655745257
 20
1392.100855987119
 30
0.0
 11
3613.023101480747
 21
1392.100855987119
 31
0.0
  0
LINE
  5
AC9
330
ABA
100
AcDbEntity
  8
D-STR-DIM
370
    -2
100
AcDbLine
 10
3593.023101480746
 20
1632.100855987119
 30
0.0
 11
3593.023101480746
 21
1412.100855987119
 31
0.0
  0
INSERT
  5
ACA
330
ABA
100
AcDbEntity
  8
D-STR-DIM
370
    -2
100
AcDbBlockReference
  2
_OPEN30
 10
3593.023101480746
 20
1652.100855987119
 30
0.0
 41
20.0
 42
20.0
 43
20.0
 50
90.0
  0
INSERT
  5
ACB
330
ABA
100
AcDbEntity
  8
D-STR-DIM
370
    -2
100
AcDbBlockReference
  2
_OPEN30
 10
3593.023101480746
 20
1392.100855987119
 30
0.0
 41
20.0
 42
20.0
 43
20.0
 50
270.0
  0
MTEXT
  5
ACC
330
ABA
100
AcDbEntity
  8
D-STR-DIM
100
AcDbMText
 10
3568.023101480747
 20
1522.100855987119
 30
0.0
 40
30.0
 41
0.0
 71
     5
 72
     1
  1
\A1;520
 11
0.0000000000000001
 21
1.0
 31
0.0
 73
     1
 44
1.0
  0
POINT
  5
ACD
330
ABA
100
AcDbEntity
  8
DEFPOINTS
 62
     0
100
AcDbPoint
 10
3371.423655745258
 20
1652.100855987119
 30
0.0
  0
POINT
  5
ACE
330
ABA
100
AcDbEntity
  8
DEFPOINTS
 62
     0
100
AcDbPoint
 10
3371.423655745255
 20
1392.100855987119
 30
0.0
  0
POINT
  5
ACF
330
ABA
100
AcDbEntity
  8
DEFPOINTS
 62
     0
100
AcDbPoint
 10
3593.023101480746
 20
1392.100855987119
 30
0.0
  0
ENDBLK
  5
AC5
330
ABA
100
AcDbEntity
  8
0
100
AcDbBlockEnd
  0
BLOCK
  5
BE0
330
BD6
100
AcDbEntity
  8
0
100
AcDbBlockBegin
  2
*D30
 70
     1
 10
0.0
 20
0.0
 30
0.0
  3
*D30
  1

  0
LINE
  5
BE3
330
BD6
100
AcDbEntity
  8
D-STR-DIM
370
    -2
100
AcDbLine
 10
2173.034695352286
 20
1382.100855987119
 30
0.0
 11
2173.034695352286
 21
940.7580770266161
 31
0.0
  0
LINE
  5
BE4
330
BD6
100
AcDbEntity
  8
D-STR-DIM
370
    -2
100
AcDbLine
 10
3371.423655745255
 20
1382.100855987119
 30
0.0
 11
3371.423655745255
 21
940.7580770266161
 31
0.0
  0
LINE
  5
BE5
330
BD6
100
AcDbEntity
  8
D-STR-DIM
370
    -2
100
AcDbLine
 10
2193.034695352286
 20
960.7580770266157
 30
0.0
 11
3351.423655745257
 21
960.7580770266157
 31
0.0
  0
INSERT
  5
BE6
330
BD6
100
AcDbEntity
  8
D-STR-DIM
370
    -2
100
AcDbBlockReference
  2
_OPEN30
 10
2173.034695352286
 20
960.7580770266157
 30
0.0
 41
20.0
 42
20.0
 43
20.0
 50
180.0
  0
INSERT
  5
BE7
330
BD6
100
AcDbEntity
  8
D-STR-DIM
370
    -2
100
AcDbBlockReference
  2
_OPEN30
 10
3371.423655745255
 20
960.7580770266157
 30
0.0
 41
20.0
 42
20.0
 43
20.0
  0
MTEXT
  5
BE8
330
BD6
100
AcDbEntity
  8
D-STR-DIM
100
AcDbMText
 10
2772.229175548771
 20
985.7580770266157
 30
0.0
 40
30.0
 41
0.0
 71
     5
 72
     1
  1
\A1;2397
 73
     1
 44
1.0
  0
POINT
  5
BE9
330
BD6
100
AcDbEntity
  8
DEFPOINTS
 62
     0
100
AcDbPoint
 10
2173.034695352286
 20
1392.100855987119
 30
0.0
  0
POINT
  5
BEA
330
BD6
100
AcDbEntity
  8
DEFPOINTS
 62
     0
100
AcDbPoint
 10
3371.423655745255
 20
1392.100855987119
 30
0.0
  0
POINT
  5
BEB
330
BD6
100
AcDbEntity
  8
DEFPOINTS
 62
     0
100
AcDbPoint
 10
3371.423655745255
 20
960.7580770266157
 30
0.0
  0
ENDBLK
  5
BE1
330
BD6
100
AcDbEntity
  8
0
100
AcDbBlockEnd
  0
BLOCK
  5
BF8
330
BEE
100
AcDbEntity
  8
0
100
AcDbBlockBegin
  2
*D31
 70
     1
 10
0.0
 20
0.0
 30
0.0
  3
*D31
  1

  0
LINE
  5
BFB
330
BEE
100
AcDbEntity
  8
D-STR-DIM
370
    -2
100
AcDbLine
 10
2412.382458460798
 20
1652.100855987119
 30
0.0
 11
2728.224207520383
 21
1652.100855987119
 31
0.0
  0
LINE
  5
BFC
330
BEE
100
AcDbEntity
  8
D-STR-DIM
370
    -2
100
AcDbLine
 10
2660.576938657278
 20
1403.90637579064
 30
0.0
 11
2728.224207520383
 21
1403.90637579064
 31
0.0
  0
LINE
  5
BFD
330
BEE
100
AcDbEntity
  8
D-STR-DIM
370
    -2
100
AcDbLine
 10
2708.224207520383
 20
1632.100855987119
 30
0.0
 11
2708.224207520383
 21
1423.90637579064
 31
0.0
  0
INSERT
  5
BFE
330
BEE
100
AcDbEntity
  8
D-STR-DIM
370
    -2
100
AcDbBlockReference
  2
_OPEN30
 10
2708.224207520383
 20
1652.100855987119
 30
0.0
 41
20.0
 42
20.0
 43
20.0
 50
90.0
  0
INSERT
  5
BFF
330
BEE
100
AcDbEntity
  8
D-STR-DIM
370
    -2
100
AcDbBlockReference
  2
_OPEN30
 10
2708.224207520383
 20
1403.90637579064
 30
0.0
 41
20.0
 42
20.0
 43
20.0
 50
270.0
  0
MTEXT
  5
C00
330
BEE
100
AcDbEntity
  8
D-STR-DIM
100
AcDbMText
 10
2683.224207520382
 20
1528.00361588888
 30
0.0
 40
30.0
 41
0.0
 71
     5
 72
     1
  1
\A1;496
 11
0.0000000000000001
 21
1.0
 31
0.0
 73
     1
 44
1.0
  0
POINT
  5
C01
330
BEE
100
AcDbEntity
  8
DEFPOINTS
 62
     0
100
AcDbPoint
 10
2402.382458460798
 20
1652.100855987119
 30
0.0
  0
POINT
  5
C02
330
BEE
100
AcDbEntity
  8
DEFPOINTS
 62
     0
100
AcDbPoint
 10
2650.576938657278
 20
1403.90637579064
 30
0.0
  0
POINT
  5
C03
330
BEE
100
AcDbEntity
  8
DEFPOINTS
 62
     0
100
AcDbPoint
 10
2708.224207520383
 20
1403.90637579064
 30
0.0
  0
ENDBLK
  5
BF9
330
BEE
100
AcDbEntity
  8
0
100
AcDbBlockEnd
  0
BLOCK
  5
C12
330
C08
100
AcDbEntity
  8
0
100
AcDbBlockBegin
  2
*D32
 70
     1
 10
0.0
 20
0.0
 30
0.0
  3
*D32
  1

  0
LINE
  5
CEB
330
C08
100
AcDbEntity
  8
D-STR-DIM
370
    -2
100
AcDbLine
 10
2406.169255025202
 20
4312.100570987133
 30
0.0
 11
2722.011004084787
 21
4312.100570987133
 31
0.0
  0
LINE
  5
CEC
330
C08
100
AcDbEntity
  8
D-STR-DIM
370
    -2
100
AcDbLine
 10
2654.363735221684
 20
4063.906090790647
 30
0.0
 11
2722.011004084787
 21
4063.906090790647
 31
0.0
  0
LINE
  5
CED
330
C08
100
AcDbEntity
  8
D-STR-DIM
370
    -2
100
AcDbLine
 10
2702.011004084787
 20
4292.100570987133
 30
0.0
 11
2702.011004084787
 21
4083.906090790647
 31
0.0
  0
INSERT
  5
CEE
330
C08
100
AcDbEntity
  8
D-STR-DIM
370
    -2
100
AcDbBlockReference
  2
_OPEN30
 10
2702.011004084787
 20
4312.100570987133
 30
0.0
 41
20.0
 42
20.0
 43
20.0
 50
90.0
  0
INSERT
  5
CEF
330
C08
100
AcDbEntity
  8
D-STR-DIM
370
    -2
100
AcDbBlockReference
  2
_OPEN30
 10
2702.011004084787
 20
4063.906090790647
 30
0.0
 41
20.0
 42
20.0
 43
20.0
 50
270.0
  0
MTEXT
  5
CF0
330
C08
100
AcDbEntity
  8
D-STR-DIM
100
AcDbMText
 10
2677.011004084787
 20
4188.003330888889
 30
0.0
 40
30.0
 41
0.0
 71
     5
 72
     1
  1
\A1;496
 11
0.0000000000000001
 21
1.0
 31
0.0
 73
     1
 44
1.0
  0
POINT
  5
CF1
330
C08
100
AcDbEntity
  8
DEFPOINTS
 62
     0
100
AcDbPoint
 10
2396.169255025204
 20
4312.100570987133
 30
0.0
  0
POINT
  5
CF2
330
C08
100
AcDbEntity
  8
DEFPOINTS
 62
     0
100
AcDbPoint
 10
2644.363735221684
 20
4063.906090790647
 30
0.0
  0
POINT
  5
CF3
330
C08
100
AcDbEntity
  8
DEFPOINTS
 62
     0
100
AcDbPoint
 10
2702.011004084787
 20
4063.906090790647
 30
0.0
  0
ENDBLK
  5
C13
330
C08
100
AcDbEntity
  8
0
100
AcDbBlockEnd
  0
BLOCK
  5
C33
330
C29
100
AcDbEntity
  8
0
100
AcDbBlockBegin
  2
*D33
 70
     1
 10
0.0
 20
0.0
 30
0.0
  3
*D33
  1

  0
LINE
  5
CC1
330
C29
100
AcDbEntity
  8
D-STR-DIM
370
    -2
100
AcDbLine
 10
3381.423655745257
 20
4259.600570987126
 30
0.0
 11
3507.923455894952
 21
4259.600570987126
 31
0.0
  0
LINE
  5
CC2
330
C29
100
AcDbEntity
  8
D-STR-DIM
370
    -2
100
AcDbLine
 10
3381.423655745257
 20
4134.600570987126
 30
0.0
 11
3507.923455894952
 21
4134.600570987126
 31
0.0
  0
LINE
  5
CC3
330
C29
100
AcDbEntity
  8
D-STR-DIM
370
    -2
100
AcDbLine
 10
3487.923455894952
 20
4239.600570987126
 30
0.0
 11
3487.923455894952
 21
4154.600570987126
 31
0.0
  0
INSERT
  5
CC4
330
C29
100
AcDbEntity
  8
D-STR-DIM
370
    -2
100
AcDbBlockReference
  2
_OPEN30
 10
3487.923455894952
 20
4259.600570987126
 30
0.0
 41
20.0
 42
20.0
 43
20.0
 50
90.0
  0
INSERT
  5
CC5
330
C29
100
AcDbEntity
  8
D-STR-DIM
370
    -2
100
AcDbBlockReference
  2
_OPEN30
 10
3487.923455894952
 20
4134.600570987126
 30
0.0
 41
20.0
 42
20.0
 43
20.0
 50
270.0
  0
MTEXT
  5
CC6
330
C29
100
AcDbEntity
  8
D-STR-DIM
100
AcDbMText
 10
3462.923455894951
 20
4197.100570987127
 30
0.0
 40
30.0
 41
0.0
 71
     5
 72
     1
  1
\A1;250
 11
0.0000000000000001
 21
1.0
 31
0.0
 73
     1
 44
1.0
  0
POINT
  5
CC7
330
C29
100
AcDbEntity
  8
DEFPOINTS
 62
     0
100
AcDbPoint
 10
3371.423655745255
 20
4259.600570987126
 30
0.0
  0
POINT
  5
CC8
330
C29
100
AcDbEntity
  8
DEFPOINTS
 62
     0
100
AcDbPoint
 10
3371.423655745255
 20
4134.600570987126
 30
0.0
  0
POINT
  5
CC9
330
C29
100
AcDbEntity
  8
DEFPOINTS
 62
     0
100
AcDbPoint
 10
3487.923455894952
 20
4134.600570987126
 30
0.0
  0
ENDBLK
  5
C34
330
C29
100
AcDbEntity
  8
0
100
AcDbBlockEnd
  0
BLOCK
  5
C41
330
C35
100
AcDbEntity
  8
0
100
AcDbBlockBegin
  2
*D34
 70
     1
 10
0.0
 20
0.0
 30
0.0
  3
*D34
  1

  0
LINE
  5
CB6
330
C35
100
AcDbEntity
  8
D-STR-DIM
370
    -2
100
AcDbLine
 10
3381.423655745256
 20
4312.100570987126
 30
0.0
 11
3507.923455894952
 21
4312.100570987126
 31
0.0
  0
LINE
  5
CB7
330
C35
100
AcDbEntity
  8
D-STR-DIM
370
    -2
100
AcDbLine
 10
3381.423655745257
 20
4259.600570987126
 30
0.0
 11
3507.923455894952
 21
4259.600570987126
 31
0.0
  0
LINE
  5
CB8
330
C35
100
AcDbEntity
  8
D-STR-DIM
370
    -2
100
AcDbLine
 10
3487.923455894952
 20
4332.100570987125
 30
0.0
 11
3487.923455894952
 21
4352.100570987126
 31
0.0
  0
LINE
  5
CB9
330
C35
100
AcDbEntity
  8
D-STR-DIM
370
    -2
100
AcDbLine
 10
3487.923455894952
 20
4239.600570987126
 30
0.0
 11
3487.923455894952
 21
4219.600570987124
 31
0.0
  0
MTEXT
  5
CBA
330
C35
100
AcDbEntity
  8
D-STR-DIM
100
AcDbMText
 10
3462.923455894951
 20
4284.600570987126
 30
0.0
 40
30.0
 41
0.0
 71
     5
 72
     1
  1
\A1;105
 11
0.0000000000000001
 21
1.0
 31
0.0
 73
     1
 44
1.0
  0
LINE
  5
CBB
330
C35
100
AcDbEntity
  8
D-STR-DIM
370
    -2
100
AcDbLine
 10
3487.923455894952
 20
4312.100570987126
 30
0.0
 11
3487.923455894952
 21
4259.600570987126
 31
0.0
  0
INSERT
  5
CBC
330
C35
100
AcDbEntity
  8
D-STR-DIM
370
    -2
100
AcDbBlockReference
  2
_OPEN30
 10
3487.923455894952
 20
4312.100570987126
 30
0.0
 41
20.0
 42
20.0
 43
20.0
 50
270.0
  0
INSERT
  5
CBD
330
C35
100
AcDbEntity
  8
D-STR-DIM
370
    -2
100
AcDbBlockReference
  2
_OPEN30
 10
3487.923455894952
 20
4259.600570987126
 30
0.0
 41
20.0
 42
20.0
 43
20.0
 50
90.0
  0
POINT
  5
CBE
330
C35
100
AcDbEntity
  8
DEFPOINTS
 62
     0
100
AcDbPoint
 10
3371.423655745255
 20
4312.100570987126
 30
0.0
  0
POINT
  5
CBF
330
C35
100
AcDbEntity
  8
DEFPOINTS
 62
     0
100
AcDbPoint
 10
3371.423655745255
 20
4259.600570987126
 30
0.0
  0
POINT
  5
CC0
330
C35
100
AcDbEntity
  8
DEFPOINTS
 62
     0
100
AcDbPoint
 10
3487.923455894952
 20
4259.600570987126
 30
0.0
  0
ENDBLK
  5
C42
330
C35
100
AcDbEntity
  8
0
100
AcDbBlockEnd
  0
BLOCK
  5
C4F
330
C43
100
AcDbEntity
  8
0
100
AcDbBlockBegin
  2
*D35
 70
     1
 10
0.0
 20
0.0
 30
0.0
  3
*D35
  1

  0
LINE
  5
CAB
330
C43
100
AcDbEntity
  8
D-STR-DIM
370
    -2
100
AcDbLine
 10
3381.423655745257
 20
4134.600570987126
 30
0.0
 11
3507.923455894952
 21
4134.600570987126
 31
0.0
  0
LINE
  5
CAC
330
C43
100
AcDbEntity
  8
D-STR-DIM
370
    -2
100
AcDbLine
 10
3381.423655745258
 20
4082.100570987125
 30
0.0
 11
3507.923455894952
 21
4082.100570987125
 31
0.0
  0
LINE
  5
CAD
330
C43
100
AcDbEntity
  8
D-STR-DIM
370
    -2
100
AcDbLine
 10
3487.923455894952
 20
4154.600570987126
 30
0.0
 11
3487.923455894952
 21
4174.600570987126
 31
0.0
  0
LINE
  5
CAE
330
C43
100
AcDbEntity
  8
D-STR-DIM
370
    -2
100
AcDbLine
 10
3487.923455894952
 20
4062.100570987126
 30
0.0
 11
3487.923455894952
 21
4042.100570987125
 31
0.0
  0
MTEXT
  5
CAF
330
C43
100
AcDbEntity
  8
D-STR-DIM
100
AcDbMText
 10
3462.923455894951
 20
4108.350570987126
 30
0.0
 40
30.0
 41
0.0
 71
     5
 72
     1
  1
\A1;105
 11
0.0000000000000001
 21
1.0
 31
0.0
 73
     1
 44
1.0
  0
LINE
  5
CB0
330
C43
100
AcDbEntity
  8
D-STR-DIM
370
    -2
100
AcDbLine
 10
3487.923455894952
 20
4134.600570987126
 30
0.0
 11
3487.923455894952
 21
4082.100570987125
 31
0.0
  0
INSERT
  5
CB1
330
C43
100
AcDbEntity
  8
D-STR-DIM
370
    -2
100
AcDbBlockReference
  2
_OPEN30
 10
3487.923455894952
 20
4134.600570987126
 30
0.0
 41
20.0
 42
20.0
 43
20.0
 50
270.0
  0
INSERT
  5
CB2
330
C43
100
AcDbEntity
  8
D-STR-DIM
370
    -2
100
AcDbBlockReference
  2
_OPEN30
 10
3487.923455894952
 20
4082.100570987125
 30
0.0
 41
20.0
 42
20.0
 43
20.0
 50
90.0
  0
POINT
  5
CB3
330
C43
100
AcDbEntity
  8
DEFPOINTS
 62
     0
100
AcDbPoint
 10
3371.423655745255
 20
4134.600570987126
 30
0.0
  0
POINT
  5
CB4
330
C43
100
AcDbEntity
  8
DEFPOINTS
 62
     0
100
AcDbPoint
 10
3371.423655745259
 20
4082.100570987125
 30
0.0
  0
POINT
  5
CB5
330
C43
100
AcDbEntity
  8
DEFPOINTS
 62
     0
100
AcDbPoint
 10
3487.923455894952
 20
4082.100570987125
 30
0.0
  0
ENDBLK
  5
C50
330
C43
100
AcDbEntity
  8
0
100
AcDbBlockEnd
  0
BLOCK
  5
C5B
330
C51
100
AcDbEntity
  8
0
100
AcDbBlockBegin
  2
*D36
 70
     1
 10
0.0
 20
0.0
 30
0.0
  3
*D36
  1

  0
LINE
  5
CA2
330
C51
100
AcDbEntity
  8
D-STR-DIM
370
    -2
100
AcDbLine
 10
3381.423655745256
 20
4312.100570987126
 30
0.0
 11
3613.023101480745
 21
4312.100570987126
 31
0.0
  0
LINE
  5
CA3
330
C51
100
AcDbEntity
  8
D-STR-DIM
370
    -2
100
AcDbLine
 10
3381.423655745258
 20
4082.100570987122
 30
0.0
 11
3613.023101480745
 21
4082.100570987122
 31
0.0
  0
LINE
  5
CA4
330
C51
100
AcDbEntity
  8
D-STR-DIM
370
    -2
100
AcDbLine
 10
3593.023101480745
 20
4292.100570987126
 30
0.0
 11
3593.023101480745
 21
4102.100570987122
 31
0.0
  0
INSERT
  5
CA5
330
C51
100
AcDbEntity
  8
D-STR-DIM
370
    -2
100
AcDbBlockReference
  2
_OPEN30
 10
3593.023101480745
 20
4312.100570987126
 30
0.0
 41
20.0
 42
20.0
 43
20.0
 50
90.0
  0
INSERT
  5
CA6
330
C51
100
AcDbEntity
  8
D-STR-DIM
370
    -2
100
AcDbBlockReference
  2
_OPEN30
 10
3593.023101480745
 20
4082.100570987122
 30
0.0
 41
20.0
 42
20.0
 43
20.0
 50
270.0
  0
MTEXT
  5
CA7
330
C51
100
AcDbEntity
  8
D-STR-DIM
100
AcDbMText
 10
3568.023101480743
 20
4197.100570987124
 30
0.0
 40
30.0
 41
0.0
 71
     5
 72
     1
  1
\A1;460
 11
0.0000000000000001
 21
1.0
 31
0.0
 73
     1
 44
1.0
  0
POINT
  5
CA8
330
C51
100
AcDbEntity
  8
DEFPOINTS
 62
     0
100
AcDbPoint
 10
3371.423655745255
 20
4312.100570987126
 30
0.0
  0
POINT
  5
CA9
330
C51
100
AcDbEntity
  8
DEFPOINTS
 62
     0
100
AcDbPoint
 10
3371.423655745258
 20
4082.100570987122
 30
0.0
  0
POINT
  5
CAA
330
C51
100
AcDbEntity
  8
DEFPOINTS
 62
     0
100
AcDbPoint
 10
3593.023101480745
 20
4082.100570987122
 30
0.0
  0
ENDBLK
  5
C5C
330
C51
100
AcDbEntity
  8
0
100
AcDbBlockEnd
  0
BLOCK
  5
CD7
330
CCD
100
AcDbEntity
  8
0
100
AcDbBlockBegin
  2
*D37
 70
     1
 10
0.0
 20
0.0
 30
0.0
  3
*D37
  1

  0
LINE
  5
CD9
330
CCD
100
AcDbEntity
  8
D-STR-DIM
370
    -2
100
AcDbLine
 10
2173.034695352304
 20
4072.100570987127
 30
0.0
 11
2173.034695352304
 21
3630.757792026624
 31
0.0
  0
LINE
  5
CDA
330
CCD
100
AcDbEntity
  8
D-STR-DIM
370
    -2
100
AcDbLine
 10
3371.423655745275
 20
4072.100570987127
 30
0.0
 11
3371.423655745275
 21
3630.757792026624
 31
0.0
  0
LINE
  5
CDB
330
CCD
100
AcDbEntity
  8
D-STR-DIM
370
    -2
100
AcDbLine
 10
2193.034695352304
 20
3650.757792026624
 30
0.0
 11
3351.423655745276
 21
3650.757792026624
 31
0.0
  0
INSERT
  5
CDC
330
CCD
100
AcDbEntity
  8
D-STR-DIM
370
    -2
100
AcDbBlockReference
  2
_OPEN30
 10
2173.034695352304
 20
3650.757792026624
 30
0.0
 41
20.0
 42
20.0
 43
20.0
 50
180.0
  0
INSERT
  5
CDD
330
CCD
100
AcDbEntity
  8
D-STR-DIM
370
    -2
100
AcDbBlockReference
  2
_OPEN30
 10
3371.423655745275
 20
3650.757792026624
 30
0.0
 41
20.0
 42
20.0
 43
20.0
  0
MTEXT
  5
CDE
330
CCD
100
AcDbEntity
  8
D-STR-DIM
100
AcDbMText
 10
2772.229175548789
 20
3675.757792026624
 30
0.0
 40
30.0
 41
0.0
 71
     5
 72
     1
  1
\A1;2397
 73
     1
 44
1.0
  0
POINT
  5
CDF
330
CCD
100
AcDbEntity
  8
DEFPOINTS
 62
     0
100
AcDbPoint
 10
2173.034695352304
 20
4082.100570987129
 30
0.0
  0
POINT
  5
CE0
330
CCD
100
AcDbEntity
  8
DEFPOINTS
 62
     0
100
AcDbPoint
 10
3371.423655745275
 20
4082.100570987129
 30
0.0
  0
POINT
  5
CE1
330
CCD
100
AcDbEntity
  8
DEFPOINTS
 62
     0
100
AcDbPoint
 10
3371.423655745275
 20
3650.757792026624
 30
0.0
  0
ENDBLK
  5
CD8
330
CCD
100
AcDbEntity
  8
0
100
AcDbBlockEnd
  0
BLOCK
  5
DED
330
DE3
100
AcDbEntity
  8
0
100
AcDbBlockBegin
  2
*D38
 70
     1
 10
0.0
 20
0.0
 30
0.0
  3
*D38
  1

  0
LINE
  5
11CB
330
DE3
100
AcDbEntity
  8
D-STR-DIM
370
    -2
100
AcDbLine
 10
4660.756270097778
 20
4841.892276685793
 30
0.0
 11
4790.756270097779
 21
4841.892276685793
 31
0.0
  0
LINE
  5
11CC
330
DE3
100
AcDbEntity
  8
D-STR-DIM
370
    -2
100
AcDbLine
 10
4660.756270097778
 20
4490.892276685792
 30
0.0
 11
4790.756270097779
 21
4490.892276685792
 31
0.0
  0
LINE
  5
11CD
330
DE3
100
AcDbEntity
  8
D-STR-DIM
370
    -2
100
AcDbLine
 10
4770.75627009778
 20
4821.892276685792
 30
0.0
 11
4770.75627009778
 21
4510.892276685792
 31
0.0
  0
INSERT
  5
11CE
330
DE3
100
AcDbEntity
  8
D-STR-DIM
370
    -2
100
AcDbBlockReference
  2
_OPEN30
 10
4770.75627009778
 20
4841.892276685793
 30
0.0
 41
20.0
 42
20.0
 43
20.0
 50
90.0
  0
INSERT
  5
11CF
330
DE3
100
AcDbEntity
  8
D-STR-DIM
370
    -2
100
AcDbBlockReference
  2
_OPEN30
 10
4770.75627009778
 20
4490.892276685792
 30
0.0
 41
20.0
 42
20.0
 43
20.0
 50
270.0
  0
MTEXT
  5
11D0
330
DE3
100
AcDbEntity
  8
D-STR-DIM
100
AcDbMText
 10
4745.756270097778
 20
4666.392276685793
 30
0.0
 40
30.0
 41
0.0
 71
     5
 72
     1
  1
\A1;351
 11
0.0000000000000001
 21
1.0
 31
0.0
 73
     1
 44
1.0
  0
POINT
  5
11D1
330
DE3
100
AcDbEntity
  8
DEFPOINTS
 62
     0
100
AcDbPoint
 10
4650.75627009778
 20
4841.892276685793
 30
0.0
  0
POINT
  5
11D2
330
DE3
100
AcDbEntity
  8
DEFPOINTS
 62
     0
100
AcDbPoint
 10
4650.75627009778
 20
4490.892276685792
 30
0.0
  0
POINT
  5
11D3
330
DE3
100
AcDbEntity
  8
DEFPOINTS
 62
     0
100
AcDbPoint
 10
4770.75627009778
 20
4490.892276685792
 30
0.0
  0
ENDBLK
  5
DEE
330
DE3
100
AcDbEntity
  8
0
100
AcDbBlockEnd
  0
BLOCK
  5
DF9
330
DEF
100
AcDbEntity
  8
0
100
AcDbBlockBegin
  2
*D39
 70
     1
 10
0.0
 20
0.0
 30
0.0
  3
*D39
  1

  0
LINE
  5
11A7
330
DEF
100
AcDbEntity
  8
D-STR-DIM
370
    -2
100
AcDbLine
 10
4840.75627009778
 20
4490.892276685792
 30
0.0
 11
5050.75627009778
 21
4490.892276685792
 31
0.0
  0
LINE
  5
11A8
330
DEF
100
AcDbEntity
  8
D-STR-DIM
370
    -2
100
AcDbLine
 10
4840.75627009778
 20
4916.892276685793
 30
0.0
 11
5050.75627009778
 21
4916.892276685793
 31
0.0
  0
LINE
  5
11A9
330
DEF
100
AcDbEntity
  8
D-STR-DIM
370
    -2
100
AcDbLine
 10
5030.756270097779
 20
4510.892276685792
 30
0.0
 11
5030.756270097779
 21
4896.892276685792
 31
0.0
  0
INSERT
  5
11AA
330
DEF
100
AcDbEntity
  8
D-STR-DIM
370
    -2
100
AcDbBlockReference
  2
_OPEN30
 10
5030.756270097779
 20
4490.892276685792
 30
0.0
 41
20.0
 42
20.0
 43
20.0
 50
270.0
  0
INSERT
  5
11AB
330
DEF
100
AcDbEntity
  8
D-STR-DIM
370
    -2
100
AcDbBlockReference
  2
_OPEN30
 10
5030.756270097779
 20
4916.892276685793
 30
0.0
 41
20.0
 42
20.0
 43
20.0
 50
90.0
  0
MTEXT
  5
11AC
330
DEF
100
AcDbEntity
  8
D-STR-DIM
100
AcDbMText
 10
5005.756270097779
 20
4703.892276685793
 30
0.0
 40
30.0
 41
0.0
 71
     5
 72
     1
  1
\A1;426
 11
0.0000000000000001
 21
1.0
 31
0.0
 73
     1
 44
1.0
  0
POINT
  5
11AD
330
DEF
100
AcDbEntity
  8
DEFPOINTS
 62
     0
100
AcDbPoint
 10
4830.756270097779
 20
4490.892276685792
 30
0.0
  0
POINT
  5
11AE
330
DEF
100
AcDbEntity
  8
DEFPOINTS
 62
     0
100
AcDbPoint
 10
4830.756270097779
 20
4916.892276685793
 30
0.0
  0
POINT
  5
11AF
330
DEF
100
AcDbEntity
  8
DEFPOINTS
 62
     0
100
AcDbPoint
 10
5030.756270097779
 20
4916.892276685793
 30
0.0
  0
ENDBLK
  5
DFA
330
DEF
100
AcDbEntity
  8
0
100
AcDbBlockEnd
  0
BLOCK
  5
E05
330
DFB
100
AcDbEntity
  8
0
100
AcDbBlockBegin
  2
*D40
 70
     1
 10
0.0
 20
0.0
 30
0.0
  3
*D40
  1

  0
LINE
  5
11B9
330
DFB
100
AcDbEntity
  8
D-STR-DIM
370
    -2
100
AcDbLine
 10
4660.948597942766
 20
3841.892276685792
 30
0.0
 11
4790.948597942766
 21
3841.892276685792
 31
0.0
  0
LINE
  5
11BA
330
DFB
100
AcDbEntity
  8
D-STR-DIM
370
    -2
100
AcDbLine
 10
4660.948597942766
 20
3490.892276685792
 30
0.0
 11
4790.948597942766
 21
3490.892276685792
 31
0.0
  0
LINE
  5
11BB
330
DFB
100
AcDbEntity
  8
D-STR-DIM
370
    -2
100
AcDbLine
 10
4770.948597942766
 20
3821.892276685792
 30
0.0
 11
4770.948597942766
 21
3510.892276685792
 31
0.0
  0
INSERT
  5
11BC
330
DFB
100
AcDbEntity
  8
D-STR-DIM
370
    -2
100
AcDbBlockReference
  2
_OPEN30
 10
4770.948597942766
 20
3841.892276685792
 30
0.0
 41
20.0
 42
20.0
 43
20.0
 50
90.0
  0
INSERT
  5
11BD
330
DFB
100
AcDbEntity
  8
D-STR-DIM
370
    -2
100
AcDbBlockReference
  2
_OPEN30
 10
4770.948597942766
 20
3490.892276685792
 30
0.0
 41
20.0
 42
20.0
 43
20.0
 50
270.0
  0
MTEXT
  5
11BE
330
DFB
100
AcDbEntity
  8
D-STR-DIM
100
AcDbMText
 10
4745.948597942764
 20
3666.392276685793
 30
0.0
 40
30.0
 41
0.0
 71
     5
 72
     1
  1
\A1;351
 11
0.0000000000000001
 21
1.0
 31
0.0
 73
     1
 44
1.0
  0
POINT
  5
11BF
330
DFB
100
AcDbEntity
  8
DEFPOINTS
 62
     0
100
AcDbPoint
 10
4650.948597942766
 20
3841.892276685792
 30
0.0
  0
POINT
  5
11C0
330
DFB
100
AcDbEntity
  8
DEFPOINTS
 62
     0
100
AcDbPoint
 10
4650.948597942766
 20
3490.892276685792
 30
0.0
  0
POINT
  5
11C1
330
DFB
100
AcDbEntity
  8
DEFPOINTS
 62
     0
100
AcDbPoint
 10
4770.948597942766
 20
3490.892276685792
 30
0.0
  0
ENDBLK
  5
E06
330
DFB
100
AcDbEntity
  8
0
100
AcDbBlockEnd
  0
BLOCK
  5
E11
330
E07
100
AcDbEntity
  8
0
100
AcDbBlockBegin
  2
*D41
 70
     1
 10
0.0
 20
0.0
 30
0.0
  3
*D41
  1

  0
LINE
  5
119E
330
E07
100
AcDbEntity
  8
D-STR-DIM
370
    -2
100
AcDbLine
 10
4840.948597942766
 20
3490.892276685792
 30
0.0
 11
5050.948597942767
 21
3490.892276685792
 31
0.0
  0
LINE
  5
119F
330
E07
100
AcDbEntity
  8
D-STR-DIM
370
    -2
100
AcDbLine
 10
4840.948597942766
 20
3766.892276685792
 30
0.0
 11
5050.948597942767
 21
3766.892276685792
 31
0.0
  0
LINE
  5
11A0
330
E07
100
AcDbEntity
  8
D-STR-DIM
370
    -2
100
AcDbLine
 10
5030.948597942766
 20
3510.892276685792
 30
0.0
 11
5030.948597942766
 21
3746.892276685792
 31
0.0
  0
INSERT
  5
11A1
330
E07
100
AcDbEntity
  8
D-STR-DIM
370
    -2
100
AcDbBlockReference
  2
_OPEN30
 10
5030.948597942766
 20
3490.892276685792
 30
0.0
 41
20.0
 42
20.0
 43
20.0
 50
270.0
  0
INSERT
  5
11A2
330
E07
100
AcDbEntity
  8
D-STR-DIM
370
    -2
100
AcDbBlockReference
  2
_OPEN30
 10
5030.948597942766
 20
3766.892276685792
 30
0.0
 41
20.0
 42
20.0
 43
20.0
 50
90.0
  0
MTEXT
  5
11A3
330
E07
100
AcDbEntity
  8
D-STR-DIM
100
AcDbMText
 10
5005.948597942765
 20
3628.892276685792
 30
0.0
 40
30.0
 41
0.0
 71
     5
 72
     1
  1
\A1;276
 11
0.0000000000000001
 21
1.0
 31
0.0
 73
     1
 44
1.0
  0
POINT
  5
11A4
330
E07
100
AcDbEntity
  8
DEFPOINTS
 62
     0
100
AcDbPoint
 10
4830.948597942766
 20
3490.892276685792
 30
0.0
  0
POINT
  5
11A5
330
E07
100
AcDbEntity
  8
DEFPOINTS
 62
     0
100
AcDbPoint
 10
4830.948597942766
 20
3766.892276685792
 30
0.0
  0
POINT
  5
11A6
330
E07
100
AcDbEntity
  8
DEFPOINTS
 62
     0
100
AcDbPoint
 10
5030.948597942766
 20
3766.892276685792
 30
0.0
  0
ENDBLK
  5
E12
330
E07
100
AcDbEntity
  8
0
100
AcDbBlockEnd
  0
BLOCK
  5
E1D
330
E13
100
AcDbEntity
  8
0
100
AcDbBlockBegin
  2
*D42
 70
     1
 10
0.0
 20
0.0
 30
0.0
  3
*D42
  1

  0
LINE
  5
1195
330
E13
100
AcDbEntity
  8
D-STR-DIM
370
    -2
100
AcDbLine
 10
4460.756270097778
 20
4490.892276685792
 30
0.0
 11
4250.75627009778
 21
4490.892276685792
 31
0.0
  0
LINE
  5
1196
330
E13
100
AcDbEntity
  8
D-STR-DIM
370
    -2
100
AcDbLine
 10
4460.756270097778
 20
4766.892276685792
 30
0.0
 11
4250.75627009778
 21
4766.892276685792
 31
0.0
  0
LINE
  5
1197
330
E13
100
AcDbEntity
  8
D-STR-DIM
370
    -2
100
AcDbLine
 10
4270.75627009778
 20
4510.892276685792
 30
0.0
 11
4270.75627009778
 21
4746.892276685792
 31
0.0
  0
INSERT
  5
1198
330
E13
100
AcDbEntity
  8
D-STR-DIM
370
    -2
100
AcDbBlockReference
  2
_OPEN30
 10
4270.75627009778
 20
4490.892276685792
 30
0.0
 41
20.0
 42
20.0
 43
20.0
 50
270.0
  0
INSERT
  5
1199
330
E13
100
AcDbEntity
  8
D-STR-DIM
370
    -2
100
AcDbBlockReference
  2
_OPEN30
 10
4270.75627009778
 20
4766.892276685792
 30
0.0
 41
20.0
 42
20.0
 43
20.0
 50
90.0
  0
MTEXT
  5
119A
330
E13
100
AcDbEntity
  8
D-STR-DIM
100
AcDbMText
 10
4245.756270097778
 20
4628.892276685792
 30
0.0
 40
30.0
 41
0.0
 71
     5
 72
     1
  1
\A1;276
 11
0.0000000000000001
 21
1.0
 31
0.0
 73
     1
 44
1.0
  0
POINT
  5
119B
330
E13
100
AcDbEntity
  8
DEFPOINTS
 62
     0
100
AcDbPoint
 10
4470.756270097779
 20
4490.892276685792
 30
0.0
  0
POINT
  5
119C
330
E13
100
AcDbEntity
  8
DEFPOINTS
 62
     0
100
AcDbPoint
 10
4470.756270097779
 20
4766.892276685792
 30
0.0
  0
POINT
  5
119D
330
E13
100
AcDbEntity
  8
DEFPOINTS
 62
     0
100
AcDbPoint
 10
4270.75627009778
 20
4766.892276685792
 30
0.0
  0
ENDBLK
  5
E1E
330
E13
100
AcDbEntity
  8
0
100
AcDbBlockEnd
  0
BLOCK
  5
E29
330
E1F
100
AcDbEntity
  8
0
100
AcDbBlockBegin
  2
*D43
 70
     1
 10
0.0
 20
0.0
 30
0.0
  3
*D43
  1

  0
LINE
  5
118C
330
E1F
100
AcDbEntity
  8
D-STR-DIM
370
    -2
100
AcDbLine
 10
4460.948597942766
 20
3490.892276685792
 30
0.0
 11
4250.75627009778
 21
3490.892276685792
 31
0.0
  0
LINE
  5
118D
330
E1F
100
AcDbEntity
  8
D-STR-DIM
370
    -2
100
AcDbLine
 10
4460.948597942766
 20
3916.892276685792
 30
0.0
 11
4250.75627009778
 21
3916.892276685792
 31
0.0
  0
LINE
  5
118E
330
E1F
100
AcDbEntity
  8
D-STR-DIM
370
    -2
100
AcDbLine
 10
4270.75627009778
 20
3510.892276685792
 30
0.0
 11
4270.75627009778
 21
3896.892276685792
 31
0.0
  0
INSERT
  5
118F
330
E1F
100
AcDbEntity
  8
D-STR-DIM
370
    -2
100
AcDbBlockReference
  2
_OPEN30
 10
4270.75627009778
 20
3490.892276685792
 30
0.0
 41
20.0
 42
20.0
 43
20.0
 50
270.0
  0
INSERT
  5
1190
330
E1F
100
AcDbEntity
  8
D-STR-DIM
370
    -2
100
AcDbBlockReference
  2
_OPEN30
 10
4270.75627009778
 20
3916.892276685792
 30
0.0
 41
20.0
 42
20.0
 43
20.0
 50
90.0
  0
MTEXT
  5
1191
330
E1F
100
AcDbEntity
  8
D-STR-DIM
100
AcDbMText
 10
4245.756270097778
 20
3703.892276685793
 30
0.0
 40
30.0
 41
0.0
 71
     5
 72
     1
  1
\A1;426
 11
0.0000000000000001
 21
1.0
 31
0.0
 73
     1
 44
1.0
  0
POINT
  5
1192
330
E1F
100
AcDbEntity
  8
DEFPOINTS
 62
     0
100
AcDbPoint
 10
4470.948597942766
 20
3490.892276685792
 30
0.0
  0
POINT
  5
1193
330
E1F
100
AcDbEntity
  8
DEFPOINTS
 62
     0
100
AcDbPoint
 10
4470.948597942766
 20
3916.892276685792
 30
0.0
  0
POINT
  5
1194
330
E1F
100
AcDbEntity
  8
DEFPOINTS
 62
     0
100
AcDbPoint
 10
4270.75627009778
 20
3916.892276685792
 30
0.0
  0
ENDBLK
  5
E2A
330
E1F
100
AcDbEntity
  8
0
100
AcDbBlockEnd
  0
BLOCK
  5
E35
330
E2B
100
AcDbEntity
  8
0
100
AcDbBlockBegin
  2
*D44
 70
     1
 10
0.0
 20
0.0
 30
0.0
  3
*D44
  1

  0
LINE
  5
11C2
330
E2B
100
AcDbEntity
  8
D-STR-DIM
370
    -2
100
AcDbLine
 10
4470.756270097779
 20
4480.892276685792
 30
0.0
 11
4470.756270097779
 21
4270.892276685792
 31
0.0
  0
LINE
  5
11C3
330
E2B
100
AcDbEntity
  8
D-STR-DIM
370
    -2
100
AcDbLine
 10
4830.756270097779
 20
4480.892276685792
 30
0.0
 11
4830.756270097779
 21
4270.892276685792
 31
0.0
  0
LINE
  5
11C4
330
E2B
100
AcDbEntity
  8
D-STR-DIM
370
    -2
100
AcDbLine
 10
4490.756270097779
 20
4290.892276685791
 30
0.0
 11
4810.75627009778
 21
4290.892276685791
 31
0.0
  0
INSERT
  5
11C5
330
E2B
100
AcDbEntity
  8
D-STR-DIM
370
    -2
100
AcDbBlockReference
  2
_OPEN30
 10
4470.756270097779
 20
4290.892276685791
 30
0.0
 41
20.0
 42
20.0
 43
20.0
 50
180.0
  0
INSERT
  5
11C6
330
E2B
100
AcDbEntity
  8
D-STR-DIM
370
    -2
100
AcDbBlockReference
  2
_OPEN30
 10
4830.756270097779
 20
4290.892276685791
 30
0.0
 41
20.0
 42
20.0
 43
20.0
  0
MTEXT
  5
11C7
330
E2B
100
AcDbEntity
  8
D-STR-DIM
100
AcDbMText
 10
4650.75627009778
 20
4315.892276685792
 30
0.0
 40
30.0
 41
0.0
 71
     5
 72
     1
  1
\A1;360
 73
     1
 44
1.0
  0
POINT
  5
11C8
330
E2B
100
AcDbEntity
  8
DEFPOINTS
 62
     0
100
AcDbPoint
 10
4470.756270097779
 20
4490.892276685792
 30
0.0
  0
POINT
  5
11C9
330
E2B
100
AcDbEntity
  8
DEFPOINTS
 62
     0
100
AcDbPoint
 10
4830.756270097779
 20
4490.892276685792
 30
0.0
  0
POINT
  5
11CA
330
E2B
100
AcDbEntity
  8
DEFPOINTS
 62
     0
100
AcDbPoint
 10
4830.756270097779
 20
4290.892276685791
 30
0.0
  0
ENDBLK
  5
E36
330
E2B
100
AcDbEntity
  8
0
100
AcDbBlockEnd
  0
BLOCK
  5
E41
330
E37
100
AcDbEntity
  8
0
100
AcDbBlockBegin
  2
*D45
 70
     1
 10
0.0
 20
0.0
 30
0.0
  3
*D45
  1

  0
LINE
  5
11B0
330
E37
100
AcDbEntity
  8
D-STR-DIM
370
    -2
100
AcDbLine
 10
4470.948597942766
 20
3480.892276685792
 30
0.0
 11
4470.948597942766
 21
3270.892276685792
 31
0.0
  0
LINE
  5
11B1
330
E37
100
AcDbEntity
  8
D-STR-DIM
370
    -2
100
AcDbLine
 10
4830.948597942766
 20
3480.892276685792
 30
0.0
 11
4830.948597942766
 21
3270.892276685792
 31
0.0
  0
LINE
  5
11B2
330
E37
100
AcDbEntity
  8
D-STR-DIM
370
    -2
100
AcDbLine
 10
4490.948597942766
 20
3290.892276685791
 30
0.0
 11
4810.948597942767
 21
3290.892276685791
 31
0.0
  0
INSERT
  5
11B3
330
E37
100
AcDbEntity
  8
D-STR-DIM
370
    -2
100
AcDbBlockReference
  2
_OPEN30
 10
4470.948597942766
 20
3290.892276685791
 30
0.0
 41
20.0
 42
20.0
 43
20.0
 50
180.0
  0
INSERT
  5
11B4
330
E37
100
AcDbEntity
  8
D-STR-DIM
370
    -2
100
AcDbBlockReference
  2
_OPEN30
 10
4830.948597942766
 20
3290.892276685791
 30
0.0
 41
20.0
 42
20.0
 43
20.0
  0
MTEXT
  5
11B5
330
E37
100
AcDbEntity
  8
D-STR-DIM
100
AcDbMText
 10
4650.948597942766
 20
3315.892276685792
 30
0.0
 40
30.0
 41
0.0
 71
     5
 72
     1
  1
\A1;360
 73
     1
 44
1.0
  0
POINT
  5
11B6
330
E37
100
AcDbEntity
  8
DEFPOINTS
 62
     0
100
AcDbPoint
 10
4470.948597942766
 20
3490.892276685792
 30
0.0
  0
POINT
  5
11B7
330
E37
100
AcDbEntity
  8
DEFPOINTS
 62
     0
100
AcDbPoint
 10
4830.948597942766
 20
3490.892276685792
 30
0.0
  0
POINT
  5
11B8
330
E37
100
AcDbEntity
  8
DEFPOINTS
 62
     0
100
AcDbPoint
 10
4830.948597942766
 20
3290.892276685791
 30
0.0
  0
ENDBLK
  5
E42
330
E37
100
AcDbEntity
  8
0
100
AcDbBlockEnd
  0
BLOCK
  5
F3D
330
F33
100
AcDbEntity
  8
0
100
AcDbBlockBegin
  2
*D46
 70
     1
 10
0.0
 20
0.0
 30
0.0
  3
*D46
  1

  0
LINE
  5
1156
330
F33
100
AcDbEntity
  8
D-STR-DIM
370
    -2
100
AcDbLine
 10
4660.94859794277
 20
1230.983467330879
 30
0.0
 11
4791.140925787757
 21
1230.983467330879
 31
0.0
  0
LINE
  5
1157
330
F33
100
AcDbEntity
  8
D-STR-DIM
370
    -2
100
AcDbLine
 10
4660.948597942772
 20
879.9834673308795
 30
0.0
 11
4791.140925787757
 21
879.9834673308795
 31
0.0
  0
LINE
  5
1158
330
F33
100
AcDbEntity
  8
D-STR-DIM
370
    -2
100
AcDbLine
 10
4771.140925787757
 20
1210.983467330879
 30
0.0
 11
4771.140925787757
 21
899.9834673308798
 31
0.0
  0
INSERT
  5
1159
330
F33
100
AcDbEntity
  8
D-STR-DIM
370
    -2
100
AcDbBlockReference
  2
_OPEN30
 10
4771.140925787757
 20
1230.983467330879
 30
0.0
 41
20.0
 42
20.0
 43
20.0
 50
90.0
  0
INSERT
  5
115A
330
F33
100
AcDbEntity
  8
D-STR-DIM
370
    -2
100
AcDbBlockReference
  2
_OPEN30
 10
4771.140925787757
 20
879.9834673308795
 30
0.0
 41
20.0
 42
20.0
 43
20.0
 50
270.0
  0
MTEXT
  5
115B
330
F33
100
AcDbEntity
  8
D-STR-DIM
100
AcDbMText
 10
4746.140925787757
 20
1055.48346733088
 30
0.0
 40
30.0
 41
0.0
 71
     5
 72
     1
  1
\A1;351
 11
0.0000000000000001
 21
1.0
 31
0.0
 73
     1
 44
1.0
  0
POINT
  5
115C
330
F33
100
AcDbEntity
  8
DEFPOINTS
 62
     0
100
AcDbPoint
 10
4650.94859794277
 20
1230.983467330879
 30
0.0
  0
POINT
  5
115D
330
F33
100
AcDbEntity
  8
DEFPOINTS
 62
     0
100
AcDbPoint
 10
4650.948597942774
 20
879.9834673308795
 30
0.0
  0
POINT
  5
115E
330
F33
100
AcDbEntity
  8
DEFPOINTS
 62
     0
100
AcDbPoint
 10
4771.140925787757
 20
879.9834673308795
 30
0.0
  0
ENDBLK
  5
F3E
330
F33
100
AcDbEntity
  8
0
100
AcDbBlockEnd
  0
BLOCK
  5
F49
330
F3F
100
AcDbEntity
  8
0
100
AcDbBlockBegin
  2
*D47
 70
     1
 10
0.0
 20
0.0
 30
0.0
  3
*D47
  1

  0
LINE
  5
1144
330
F3F
100
AcDbEntity
  8
D-STR-DIM
370
    -2
100
AcDbLine
 10
4865.948597942766
 20
1145.983467330878
 30
0.0
 11
5075.948597942766
 21
1145.983467330878
 31
0.0
  0
LINE
  5
1145
330
F3F
100
AcDbEntity
  8
D-STR-DIM
370
    -2
100
AcDbLine
 10
4865.94859794277
 20
879.9834673308795
 30
0.0
 11
5075.948597942766
 21
879.9834673308795
 31
0.0
  0
LINE
  5
1146
330
F3F
100
AcDbEntity
  8
D-STR-DIM
370
    -2
100
AcDbLine
 10
5055.948597942766
 20
1125.983467330879
 30
0.0
 11
5055.948597942766
 21
899.9834673308795
 31
0.0
  0
INSERT
  5
1147
330
F3F
100
AcDbEntity
  8
D-STR-DIM
370
    -2
100
AcDbBlockReference
  2
_OPEN30
 10
5055.948597942766
 20
1145.983467330878
 30
0.0
 41
20.0
 42
20.0
 43
20.0
 50
90.0
  0
INSERT
  5
1148
330
F3F
100
AcDbEntity
  8
D-STR-DIM
370
    -2
100
AcDbBlockReference
  2
_OPEN30
 10
5055.948597942766
 20
879.9834673308795
 30
0.0
 41
20.0
 42
20.0
 43
20.0
 50
270.0
  0
MTEXT
  5
1149
330
F3F
100
AcDbEntity
  8
D-STR-DIM
100
AcDbMText
 10
5030.948597942766
 20
1012.98346733088
 30
0.0
 40
30.0
 41
0.0
 71
     5
 72
     1
  1
\A1;266
 11
0.0000000000000001
 21
1.0
 31
0.0
 73
     1
 44
1.0
  0
POINT
  5
114A
330
F3F
100
AcDbEntity
  8
DEFPOINTS
 62
     0
100
AcDbPoint
 10
4855.948597942767
 20
1145.983467330878
 30
0.0
  0
POINT
  5
114B
330
F3F
100
AcDbEntity
  8
DEFPOINTS
 62
     0
100
AcDbPoint
 10
4855.94859794277
 20
879.9834673308795
 30
0.0
  0
POINT
  5
114C
330
F3F
100
AcDbEntity
  8
DEFPOINTS
 62
     0
100
AcDbPoint
 10
5055.948597942766
 20
879.9834673308795
 30
0.0
  0
ENDBLK
  5
F4A
330
F3F
100
AcDbEntity
  8
0
100
AcDbBlockEnd
  0
BLOCK
  5
F55
330
F4B
100
AcDbEntity
  8
0
100
AcDbBlockBegin
  2
*D48
 70
     1
 10
0.0
 20
0.0
 30
0.0
  3
*D48
  1

  0
LINE
  5
1171
330
F4B
100
AcDbEntity
  8
D-STR-DIM
370
    -2
100
AcDbLine
 10
4660.756270097778
 20
2230.983467330879
 30
0.0
 11
4790.948597942766
 21
2230.983467330879
 31
0.0
  0
LINE
  5
1172
330
F4B
100
AcDbEntity
  8
D-STR-DIM
370
    -2
100
AcDbLine
 10
4660.756270097783
 20
1879.983467330879
 30
0.0
 11
4790.948597942766
 21
1879.983467330879
 31
0.0
  0
LINE
  5
1173
330
F4B
100
AcDbEntity
  8
D-STR-DIM
370
    -2
100
AcDbLine
 10
4770.948597942766
 20
2210.983467330879
 30
0.0
 11
4770.948597942766
 21
1899.983467330878
 31
0.0
  0
INSERT
  5
1174
330
F4B
100
AcDbEntity
  8
D-STR-DIM
370
    -2
100
AcDbBlockReference
  2
_OPEN30
 10
4770.948597942766
 20
2230.983467330879
 30
0.0
 41
20.0
 42
20.0
 43
20.0
 50
90.0
  0
INSERT
  5
1175
330
F4B
100
AcDbEntity
  8
D-STR-DIM
370
    -2
100
AcDbBlockReference
  2
_OPEN30
 10
4770.948597942766
 20
1879.983467330879
 30
0.0
 41
20.0
 42
20.0
 43
20.0
 50
270.0
  0
MTEXT
  5
1176
330
F4B
100
AcDbEntity
  8
D-STR-DIM
100
AcDbMText
 10
4745.948597942766
 20
2055.483467330878
 30
0.0
 40
30.0
 41
0.0
 71
     5
 72
     1
  1
\A1;351
 11
0.0000000000000001
 21
1.0
 31
0.0
 73
     1
 44
1.0
  0
POINT
  5
1177
330
F4B
100
AcDbEntity
  8
DEFPOINTS
 62
     0
100
AcDbPoint
 10
4650.75627009778
 20
2230.983467330879
 30
0.0
  0
POINT
  5
1178
330
F4B
100
AcDbEntity
  8
DEFPOINTS
 62
     0
100
AcDbPoint
 10
4650.756270097783
 20
1879.983467330879
 30
0.0
  0
POINT
  5
1179
330
F4B
100
AcDbEntity
  8
DEFPOINTS
 62
     0
100
AcDbPoint
 10
4770.948597942766
 20
1879.983467330879
 30
0.0
  0
ENDBLK
  5
F56
330
F4B
100
AcDbEntity
  8
0
100
AcDbBlockEnd
  0
BLOCK
  5
F61
330
F57
100
AcDbEntity
  8
0
100
AcDbBlockBegin
  2
*D49
 70
     1
 10
0.0
 20
0.0
 30
0.0
  3
*D49
  1

  0
LINE
  5
114D
330
F57
100
AcDbEntity
  8
D-STR-DIM
370
    -2
100
AcDbLine
 10
4865.948597942766
 20
2315.983467330878
 30
0.0
 11
5075.948597942766
 21
2315.983467330878
 31
0.0
  0
LINE
  5
114E
330
F57
100
AcDbEntity
  8
D-STR-DIM
370
    -2
100
AcDbLine
 10
4865.756270097783
 20
1879.983467330879
 30
0.0
 11
5075.948597942766
 21
1879.983467330879
 31
0.0
  0
LINE
  5
114F
330
F57
100
AcDbEntity
  8
D-STR-DIM
370
    -2
100
AcDbLine
 10
5055.948597942768
 20
2295.983467330878
 30
0.0
 11
5055.948597942766
 21
1899.983467330878
 31
0.0
  0
INSERT
  5
1150
330
F57
100
AcDbEntity
  8
D-STR-DIM
370
    -2
100
AcDbBlockReference
  2
_OPEN30
 10
5055.948597942768
 20
2315.983467330878
 30
0.0
 41
20.0
 42
20.0
 43
20.0
 50
90.0
  0
INSERT
  5
1151
330
F57
100
AcDbEntity
  8
D-STR-DIM
370
    -2
100
AcDbBlockReference
  2
_OPEN30
 10
5055.948597942766
 20
1879.983467330879
 30
0.0
 41
20.0
 42
20.0
 43
20.0
 50
270.0
  0
MTEXT
  5
1152
330
F57
100
AcDbEntity
  8
D-STR-DIM
100
AcDbMText
 10
5030.948597942766
 20
2097.98346733088
 30
0.0
 40
30.0
 41
0.0
 71
     5
 72
     1
  1
\A1;436
 11
0.0000000000000001
 21
1.0
 31
0.0
 73
     1
 44
1.0
  0
POINT
  5
1153
330
F57
100
AcDbEntity
  8
DEFPOINTS
 62
     0
100
AcDbPoint
 10
4855.948597942767
 20
2315.983467330878
 30
0.0
  0
POINT
  5
1154
330
F57
100
AcDbEntity
  8
DEFPOINTS
 62
     0
100
AcDbPoint
 10
4855.756270097783
 20
1879.983467330879
 30
0.0
  0
POINT
  5
1155
330
F57
100
AcDbEntity
  8
DEFPOINTS
 62
     0
100
AcDbPoint
 10
5055.948597942766
 20
1879.983467330879
 30
0.0
  0
ENDBLK
  5
F62
330
F57
100
AcDbEntity
  8
0
100
AcDbBlockEnd
  0
BLOCK
  5
F6D
330
F63
100
AcDbEntity
  8
0
100
AcDbBlockBegin
  2
*D50
 70
     1
 10
0.0
 20
0.0
 30
0.0
  3
*D50
  1

  0
LINE
  5
115F
330
F63
100
AcDbEntity
  8
D-STR-DIM
370
    -2
100
AcDbLine
 10
4435.948597942767
 20
879.983467330876
 30
0.0
 11
4225.948597942767
 21
879.9834673308764
 31
0.0
  0
LINE
  5
1160
330
F63
100
AcDbEntity
  8
D-STR-DIM
370
    -2
100
AcDbLine
 10
4435.948597942767
 20
1315.983467330879
 30
0.0
 11
4225.948597942767
 21
1315.983467330879
 31
0.0
  0
LINE
  5
1161
330
F63
100
AcDbEntity
  8
D-STR-DIM
370
    -2
100
AcDbLine
 10
4245.948597942766
 20
899.9834673308761
 30
0.0
 11
4245.948597942766
 21
1295.983467330879
 31
0.0
  0
INSERT
  5
1162
330
F63
100
AcDbEntity
  8
D-STR-DIM
370
    -2
100
AcDbBlockReference
  2
_OPEN30
 10
4245.948597942766
 20
879.9834673308764
 30
0.0
 41
20.0
 42
20.0
 43
20.0
 50
270.0
  0
INSERT
  5
1163
330
F63
100
AcDbEntity
  8
D-STR-DIM
370
    -2
100
AcDbBlockReference
  2
_OPEN30
 10
4245.948597942766
 20
1315.983467330879
 30
0.0
 41
20.0
 42
20.0
 43
20.0
 50
90.0
  0
MTEXT
  5
1164
330
F63
100
AcDbEntity
  8
D-STR-DIM
100
AcDbMText
 10
4220.948597942766
 20
1097.983467330878
 30
0.0
 40
30.0
 41
0.0
 71
     5
 72
     1
  1
\A1;436
 11
0.0000000000000001
 21
1.0
 31
0.0
 73
     1
 44
1.0
  0
POINT
  5
1165
330
F63
100
AcDbEntity
  8
DEFPOINTS
 62
     0
100
AcDbPoint
 10
4445.948597942765
 20
879.983467330876
 30
0.0
  0
POINT
  5
1166
330
F63
100
AcDbEntity
  8
DEFPOINTS
 62
     0
100
AcDbPoint
 10
4445.948597942765
 20
1315.983467330879
 30
0.0
  0
POINT
  5
1167
330
F63
100
AcDbEntity
  8
DEFPOINTS
 62
     0
100
AcDbPoint
 10
4245.948597942766
 20
1315.983467330879
 30
0.0
  0
ENDBLK
  5
F6E
330
F63
100
AcDbEntity
  8
0
100
AcDbBlockEnd
  0
BLOCK
  5
F79
330
F6F
100
AcDbEntity
  8
0
100
AcDbBlockBegin
  2
*D51
 70
     1
 10
0.0
 20
0.0
 30
0.0
  3
*D51
  1

  0
LINE
  5
1168
330
F6F
100
AcDbEntity
  8
D-STR-DIM
370
    -2
100
AcDbLine
 10
4435.756270097782
 20
2145.983467330878
 30
0.0
 11
4225.948597942767
 21
2145.983467330878
 31
0.0
  0
LINE
  5
1169
330
F6F
100
AcDbEntity
  8
D-STR-DIM
370
    -2
100
AcDbLine
 10
4435.756270097782
 20
1879.983467330879
 30
0.0
 11
4225.948597942767
 21
1879.983467330879
 31
0.0
  0
LINE
  5
116A
330
F6F
100
AcDbEntity
  8
D-STR-DIM
370
    -2
100
AcDbLine
 10
4245.948597942766
 20
2125.983467330879
 30
0.0
 11
4245.948597942766
 21
1899.983467330878
 31
0.0
  0
INSERT
  5
116B
330
F6F
100
AcDbEntity
  8
D-STR-DIM
370
    -2
100
AcDbBlockReference
  2
_OPEN30
 10
4245.948597942766
 20
2145.983467330878
 30
0.0
 41
20.0
 42
20.0
 43
20.0
 50
90.0
  0
INSERT
  5
116C
330
F6F
100
AcDbEntity
  8
D-STR-DIM
370
    -2
100
AcDbBlockReference
  2
_OPEN30
 10
4245.948597942766
 20
1879.983467330879
 30
0.0
 41
20.0
 42
20.0
 43
20.0
 50
270.0
  0
MTEXT
  5
116D
330
F6F
100
AcDbEntity
  8
D-STR-DIM
100
AcDbMText
 10
4220.948597942766
 20
2012.98346733088
 30
0.0
 40
30.0
 41
0.0
 71
     5
 72
     1
  1
\A1;266
 11
0.0000000000000001
 21
1.0
 31
0.0
 73
     1
 44
1.0
  0
POINT
  5
116E
330
F6F
100
AcDbEntity
  8
DEFPOINTS
 62
     0
100
AcDbPoint
 10
4445.756270097783
 20
2145.983467330878
 30
0.0
  0
POINT
  5
116F
330
F6F
100
AcDbEntity
  8
DEFPOINTS
 62
     0
100
AcDbPoint
 10
4445.756270097783
 20
1879.983467330879
 30
0.0
  0
POINT
  5
1170
330
F6F
100
AcDbEntity
  8
DEFPOINTS
 62
     0
100
AcDbPoint
 10
4245.948597942766
 20
1879.983467330879
 30
0.0
  0
ENDBLK
  5
F7A
330
F6F
100
AcDbEntity
  8
0
100
AcDbBlockEnd
  0
BLOCK
  5
F85
330
F7B
100
AcDbEntity
  8
0
100
AcDbBlockBegin
  2
*D52
 70
     1
 10
0.0
 20
0.0
 30
0.0
  3
*D52
  1

  0
LINE
  5
1183
330
F7B
100
AcDbEntity
  8
D-STR-DIM
370
    -2
100
AcDbLine
 10
4445.948597942765
 20
869.9834673308796
 30
0.0
 11
4445.948597942765
 21
659.9834673308796
 31
0.0
  0
LINE
  5
1184
330
F7B
100
AcDbEntity
  8
D-STR-DIM
370
    -2
100
AcDbLine
 10
4855.948597942767
 20
869.9834673308796
 30
0.0
 11
4855.948597942767
 21
659.9834673308796
 31
0.0
  0
LINE
  5
1185
330
F7B
100
AcDbEntity
  8
D-STR-DIM
370
    -2
100
AcDbLine
 10
4465.948597942766
 20
679.9834673308796
 30
0.0
 11
4835.948597942767
 21
679.9834673308796
 31
0.0
  0
INSERT
  5
1186
330
F7B
100
AcDbEntity
  8
D-STR-DIM
370
    -2
100
AcDbBlockReference
  2
_OPEN30
 10
4445.948597942765
 20
679.9834673308796
 30
0.0
 41
20.0
 42
20.0
 43
20.0
 50
180.0
  0
INSERT
  5
1187
330
F7B
100
AcDbEntity
  8
D-STR-DIM
370
    -2
100
AcDbBlockReference
  2
_OPEN30
 10
4855.948597942767
 20
679.9834673308796
 30
0.0
 41
20.0
 42
20.0
 43
20.0
  0
MTEXT
  5
1188
330
F7B
100
AcDbEntity
  8
D-STR-DIM
100
AcDbMText
 10
4650.948597942766
 20
704.9834673308796
 30
0.0
 40
30.0
 41
0.0
 71
     5
 72
     1
  1
\A1;410
 73
     1
 44
1.0
  0
POINT
  5
1189
330
F7B
100
AcDbEntity
  8
DEFPOINTS
 62
     0
100
AcDbPoint
 10
4445.948597942765
 20
879.9834673308795
 30
0.0
  0
POINT
  5
118A
330
F7B
100
AcDbEntity
  8
DEFPOINTS
 62
     0
100
AcDbPoint
 10
4855.948597942767
 20
879.9834673308795
 30
0.0
  0
POINT
  5
118B
330
F7B
100
AcDbEntity
  8
DEFPOINTS
 62
     0
100
AcDbPoint
 10
4855.948597942767
 20
679.9834673308796
 30
0.0
  0
ENDBLK
  5
F86
330
F7B
100
AcDbEntity
  8
0
100
AcDbBlockEnd
  0
BLOCK
  5
F91
330
F87
100
AcDbEntity
  8
0
100
AcDbBlockBegin
  2
*D53
 70
     1
 10
0.0
 20
0.0
 30
0.0
  3
*D53
  1

  0
LINE
  5
117A
330
F87
100
AcDbEntity
  8
D-STR-DIM
370
    -2
100
AcDbLine
 10
4445.756270097783
 20
1869.983467330879
 30
0.0
 11
4445.756270097783
 21
1659.98346733088
 31
0.0
  0
LINE
  5
117B
330
F87
100
AcDbEntity
  8
D-STR-DIM
370
    -2
100
AcDbLine
 10
4855.756270097783
 20
1869.983467330879
 30
0.0
 11
4855.756270097783
 21
1659.98346733088
 31
0.0
  0
LINE
  5
117C
330
F87
100
AcDbEntity
  8
D-STR-DIM
370
    -2
100
AcDbLine
 10
4465.756270097783
 20
1679.983467330879
 30
0.0
 11
4835.756270097784
 21
1679.983467330879
 31
0.0
  0
INSERT
  5
117D
330
F87
100
AcDbEntity
  8
D-STR-DIM
370
    -2
100
AcDbBlockReference
  2
_OPEN30
 10
4445.756270097783
 20
1679.983467330879
 30
0.0
 41
20.0
 42
20.0
 43
20.0
 50
180.0
  0
INSERT
  5
117E
330
F87
100
AcDbEntity
  8
D-STR-DIM
370
    -2
100
AcDbBlockReference
  2
_OPEN30
 10
4855.756270097783
 20
1679.983467330879
 30
0.0
 41
20.0
 42
20.0
 43
20.0
  0
MTEXT
  5
117F
330
F87
100
AcDbEntity
  8
D-STR-DIM
100
AcDbMText
 10
4650.756270097783
 20
1704.983467330879
 30
0.0
 40
30.0
 41
0.0
 71
     5
 72
     1
  1
\A1;410
 73
     1
 44
1.0
  0
POINT
  5
1180
330
F87
100
AcDbEntity
  8
DEFPOINTS
 62
     0
100
AcDbPoint
 10
4445.756270097783
 20
1879.983467330879
 30
0.0
  0
POINT
  5
1181
330
F87
100
AcDbEntity
  8
DEFPOINTS
 62
     0
100
AcDbPoint
 10
4855.756270097783
 20
1879.983467330879
 30
0.0
  0
POINT
  5
1182
330
F87
100
AcDbEntity
  8
DEFPOINTS
 62
     0
100
AcDbPoint
 10
4855.756270097783
 20
1679.983467330879
 30
0.0
  0
ENDBLK
  5
F92
330
F87
100
AcDbEntity
  8
0
100
AcDbBlockEnd
  0
ENDSEC
  0
SECTION
  2
ENTITIES
  0
LINE
  5
1F2
330
1F
100
AcDbEntity
  8
D-STR
100
AcDbLine
 10
2553.949215286992
 20
4154.32061072534
 30
0.0
 11
2391.3146556141
 21
3991.686051052433
 31
0.0
  0
LINE
  5
1F3
330
1F
100
AcDbEntity
  8
D-STR
100
AcDbLine
 10
2549.09461587587
 20
3833.906090790647
 30
0.0
 11
2300.900135679395
 21
4082.100570987129
 31
0.0
  0
LINE
  5
1F4
330
1F
100
AcDbEntity
  8
D-STR
100
AcDbLine
 10
2622.617523197096
 20
4011.406090790647
 30
0.0
 11
2374.423043000621
 21
4259.600570987127
 31
0.0
  0
LINE
  5
1F5
330
1F
100
AcDbEntity
  8
D-STR
100
AcDbLine
 10
2570.840827900459
 20
3886.406090790647
 30
0.0
 11
2322.646347703982
 21
4134.600570987127
 31
0.0
  0
LINE
  5
1F6
330
1F
100
AcDbEntity
  8
D-STR
100
AcDbLine
 10
2644.363735221684
 20
4063.906090790647
 30
0.0
 11
2396.169255025208
 21
4312.100570987126
 31
0.0
  0
LINE
  5
1F7
330
1F
100
AcDbEntity
  8
D-STR
100
AcDbLine
 10
2173.034695352304
 20
4312.100570987129
 30
0.0
 11
2173.034695352304
 21
4082.10057098713
 31
0.0
  0
LINE
  5
1F8
330
1F
100
AcDbEntity
  8
D-STR
100
AcDbLine
 10
2173.034695352304
 20
4134.600570987133
 30
0.0
 11
2322.646347703979
 21
4134.600570987133
 31
0.0
  0
LINE
  5
1F9
330
1F
100
AcDbEntity
  8
D-STR
100
AcDbLine
 10
2173.034695352304
 20
4082.100570987133
 30
0.0
 11
2300.900135679391
 21
4082.100570987133
 31
0.0
  0
LINE
  5
1FA
330
1F
100
AcDbEntity
  8
D-STR
100
AcDbLine
 10
2173.034695352304
 20
4259.600570987133
 30
0.0
 11
2374.423043000616
 21
4259.600570987133
 31
0.0
  0
LINE
  5
1FB
330
1F
100
AcDbEntity
  8
D-STR
100
AcDbLine
 10
2173.034695352304
 20
4312.100570987133
 30
0.0
 11
2396.169255025204
 21
4312.100570987133
 31
0.0
  0
LINE
  5
1FC
330
1F
100
AcDbEntity
  8
D-STR
100
AcDbLine
 10
3371.423655745255
 20
4312.100570987126
 30
0.0
 11
3371.423655745258
 21
4082.100570987125
 31
0.0
  0
LINE
  5
1FD
330
1F
100
AcDbEntity
  8
D-STR
100
AcDbLine
 10
3170.035308096934
 20
4259.600570987124
 30
0.0
 11
2921.840827900458
 21
4011.406090790645
 31
0.0
  0
LINE
  5
1FE
330
1F
100
AcDbEntity
  8
D-STR
100
AcDbLine
 10
3148.289096072346
 20
4312.100570987126
 30
0.0
 11
2900.09461587587
 21
4063.906090790645
 31
0.0
  0
LINE
  5
1FF
330
1F
100
AcDbEntity
  8
D-STR
100
AcDbLine
 10
2990.509135810557
 20
4154.320610725334
 30
0.0
 11
3153.143695483465
 21
3991.686051052429
 31
0.0
  0
LINE
  5
200
330
1F
100
AcDbEntity
  8
D-STR
100
AcDbLine
 10
3221.812003393573
 20
4134.600570987124
 30
0.0
 11
2973.617523197095
 21
3886.406090790645
 31
0.0
  0
LINE
  5
201
330
1F
100
AcDbEntity
  8
D-STR
100
AcDbLine
 10
3243.55821541816
 20
4082.100570987125
 30
0.0
 11
2995.363735221683
 21
3833.906090790645
 31
0.0
  0
LINE
  5
202
330
1F
100
AcDbEntity
  8
D-STR
100
AcDbLine
 10
2772.229175548779
 20
4063.906090790647
 30
0.0
 11
2772.229175548781
 21
3833.906090790647
 31
0.0
  0
LINE
  5
203
330
1F
100
AcDbEntity
  8
D-STR
100
AcDbLine
 10
2973.6175231971
 20
3886.406090790647
 30
0.0
 11
2570.840827900462
 21
3886.406090790646
 31
0.0
  0
LINE
  5
204
330
1F
100
AcDbEntity
  8
D-STR
100
AcDbLine
 10
2995.363735221688
 20
3833.906090790647
 30
0.0
 11
2549.094615875874
 21
3833.906090790647
 31
0.0
  0
LINE
  5
205
330
1F
100
AcDbEntity
  8
D-STR
100
AcDbLine
 10
2921.840827900463
 20
4011.406090790647
 30
0.0
 11
2622.6175231971
 21
4011.406090790647
 31
0.0
  0
LINE
  5
206
330
1F
100
AcDbEntity
  8
D-STR
100
AcDbLine
 10
2900.094615875875
 20
4063.906090790647
 30
0.0
 11
2644.363735221688
 21
4063.906090790647
 31
0.0
  0
LINE
  5
207
330
1F
100
AcDbEntity
  8
D-STR
100
AcDbLine
 10
3221.812003393576
 20
4134.600570987124
 30
0.0
 11
3371.423655745255
 21
4134.600570987126
 31
0.0
  0
LINE
  5
208
330
1F
100
AcDbEntity
  8
D-STR
100
AcDbLine
 10
3243.558215418163
 20
4082.100570987125
 30
0.0
 11
3371.423655745259
 21
4082.100570987125
 31
0.0
  0
LINE
  5
209
330
1F
100
AcDbEntity
  8
D-STR
100
AcDbLine
 10
3170.035308096938
 20
4259.600570987124
 30
0.0
 11
3371.423655745255
 21
4259.600570987126
 31
0.0
  0
LINE
  5
20A
330
1F
100
AcDbEntity
  8
D-STR
100
AcDbLine
 10
3148.28909607235
 20
4312.100570987124
 30
0.0
 11
3371.423655745255
 21
4312.100570987126
 31
0.0
  0
LINE
  5
20B
330
1F
100
AcDbEntity
  8
D-STR
  6
Continuous
100
AcDbLine
 10
1160.227002109066
 20
4013.647034531207
 30
0.0
 11
966.2177673931983
 21
3819.637799815442
 31
0.0
  0
LINE
  5
20C
330
1F
100
AcDbEntity
  8
D-STR
  6
Continuous
100
AcDbLine
 10
1135.37418836669
 20
4073.647034531211
 30
0.0
 11
923.7913605220168
 21
3862.064206686646
 31
0.0
  0
LINE
  5
20D
330
1F
100
AcDbEntity
  8
D-STR
  6
Continuous
100
AcDbLine
 10
736.4080635076353
 20
4063.589639324862
 30
0.0
 11
948.5400978635427
 21
3851.457604968842
 31
0.0
  0
DIMENSION
  5
20E
330
1F
100
AcDbEntity
  8
D-STR-DIM
100
AcDbDimension
  2
*D2
 10
1534.597493069798
 20
4013.647034531207
 30
0.0
 11
1534.597493069798
 21
3991.147034531209
 31
0.0
 70
   160
 71
     5
 42
45.0
  3
S10
100
AcDbAlignedDimension
 13
1434.597493069797
 23
3968.647034531208
 33
0.0
 14
1434.597493069797
 24
4013.647034531207
 34
0.0
 50
90.0
100
AcDbRotatedDimension
1001
ACAD
1000
DSTYLE
1002
{
1070
   279
1070
     1
1002
}
  0
DIMENSION
  5
20F
330
1F
100
AcDbEntity
  8
D-STR-DIM
100
AcDbDimension
  2
*D3
 10
1534.597493069798
 20
4073.647034531208
 30
0.0
 11
1534.597493069798
 21
4043.647034531209
 31
0.0
 70
   160
  1
<>
 71
     5
 42
60.0
  3
S10
100
AcDbAlignedDimension
 13
1434.597493069797
 23
4013.647034531207
 33
0.0
 14
1434.597493069797
 24
4073.647034531208
 34
0.0
 50
90.0
100
AcDbRotatedDimension
1001
ACAD
1000
DSTYLE
1002
{
1070
   279
1070
     1
1002
}
  0
DIMENSION
  5
210
330
1F
100
AcDbEntity
  8
D-STR-DIM
100
AcDbDimension
  2
*D4
 10
1634.597493069797
 20
3968.647034531208
 30
0.0
 11
1609.597493069797
 21
4198.647034531208
 31
0.0
 70
    32
 71
     5
 42
459.999999999999
  3
S10
100
AcDbAlignedDimension
 13
1434.597493069797
 23
4428.647034531208
 33
0.0
 14
1434.597493069797
 24
3968.647034531208
 34
0.0
 50
90.0
100
AcDbRotatedDimension
  0
DIMENSION
  5
211
330
1F
100
AcDbEntity
  8
D-STR-DIM
100
AcDbDimension
  2
*D5
 10
800.047673814404
 20
3985.807893394319
 30
0.0
 11
906.4672443829174
 21
4127.582803022099
 31
0.0
 70
    33
 71
     5
 42
350.999999999727
  3
S10
100
AcDbAlignedDimension
 13
1083.597493070068
 23
4198.647034531208
 33
0.0
 14
835.4030128737234
 24
3950.452554334983
 34
0.0
  0
LINE
  5
212
330
1F
100
AcDbEntity
  8
D-STR-DIM
  6
CENTER
100
AcDbLine
 10
946.9070174869941
 20
4528.647034531208
 30
0.0
 11
1218.216900841278
 21
3873.647034531208
 31
0.0
  0
LINE
  5
213
330
1F
100
AcDbEntity
  8
D-STR-DIM
  6
CENTER
100
AcDbLine
 10
800.0476738144481
 20
3915.097215275728
 30
0.0
 11
1083.597493070068
 21
4198.647034531208
 31
0.0
  0
LINE
  5
214
330
1F
100
AcDbEntity
  8
D-STR
  6
Continuous
100
AcDbLine
 10
672.7684532008573
 20
4113.087114007929
 30
0.0
 11
998.0375725465894
 21
3787.817994662037
 31
0.0
  0
LINE
  5
215
330
1F
100
AcDbEntity
  8
D-STR
  6
Continuous
100
AcDbLine
 10
1434.597493069797
 20
4428.647034531208
 30
0.0
 11
1434.597493069797
 21
3968.647034531208
 31
0.0
  0
DIMENSION
  5
218
330
1F
100
AcDbEntity
  8
D-STR-DIM
100
AcDbDimension
  2
*D6
 10
1068.748250665225
 20
3717.107316543369
 30
0.0
 11
1141.485101070194
 21
3825.199506007622
 31
0.0
 70
    33
 71
     5
 42
255.730880653948
  3
S10
100
AcDbAlignedDimension
 13
1178.866612415847
 23
3968.647034531208
 33
0.0
 14
998.0375725465894
 24
3787.817994662038
 34
0.0
  0
DIMENSION
  5
219
330
1F
100
AcDbEntity
  8
D-STR-DIM
100
AcDbDimension
  2
*D7
 10
1434.597493069797
 20
3868.647034531209
 30
0.0
 11
1306.732052742823
 21
3893.647034531209
 31
0.0
 70
    32
 71
     5
 42
255.7308806539495
  3
S10
100
AcDbAlignedDimension
 13
1178.866612415847
 23
3968.647034531208
 33
0.0
 14
1434.597493069797
 24
3968.647034531208
 34
0.0
100
AcDbRotatedDimension
  0
LINE
  5
21A
330
1F
100
AcDbEntity
  8
D-STR
  6
Continuous
100
AcDbLine
 10
1434.597493069797
 20
3968.647034531208
 30
0.0
 11
1178.866612415847
 21
3968.647034531208
 31
0.0
  0
LINE
  5
21B
330
1F
100
AcDbEntity
  8
D-STR
  6
Continuous
100
AcDbLine
 10
998.0375725465894
 20
3787.817994662037
 30
0.0
 11
1178.866612415847
 21
3968.647034531208
 31
0.0
  0
LINE
  5
21C
330
1F
100
AcDbEntity
  8
D-STR
  6
HIDDEN
100
AcDbLine
 10
948.5400978635427
 20
3851.457604968842
 30
0.0
 11
941.469030051676
 21
3844.386537156978
 31
0.0
  0
LINE
  5
21D
330
1F
100
AcDbEntity
  8
D-STR
  6
Continuous
100
AcDbLine
 10
1006.967984031078
 20
4383.647034531212
 30
0.0
 11
704.5882583542445
 21
4081.267308854534
 31
0.0
  0
LINE
  5
21E
330
1F
100
AcDbEntity
  8
D-STR
  6
Continuous
100
AcDbLine
 10
1031.820797773453
 20
4323.647034531208
 30
0.0
 11
747.0146652254261
 21
4038.84090198333
 31
0.0
  0
DIMENSION
  5
21F
330
1F
100
AcDbEntity
  8
D-STR-DIM
100
AcDbDimension
  2
*D8
 10
602.0577750822127
 20
4183.797792126608
 30
0.0
 11
742.1600658142706
 21
4359.255421917914
 31
0.0
 70
    33
 71
     5
 42
446.2691193455071
  3
S10
100
AcDbAlignedDimension
 13
988.3283737242912
 23
4428.647034531208
 33
0.0
 14
672.7684532008573
 24
4113.087114007929
 34
0.0
  0
LINE
  5
220
330
1F
100
AcDbEntity
  8
D-STR
  6
Continuous
100
AcDbLine
 10
988.3283737242912
 20
4428.647034531208
 30
0.0
 11
672.7684532008573
 21
4113.087114007929
 31
0.0
  0
LINE
  5
221
330
1F
100
AcDbEntity
  8
D-STR
  6
HIDDEN
100
AcDbLine
 10
729.3369956957688
 20
4056.518571512998
 30
0.0
 11
736.4080635076353
 21
4063.589639324862
 31
0.0
  0
DIMENSION
  5
222
330
1F
100
AcDbEntity
  8
D-STR-DIM
100
AcDbDimension
  2
*D9
 10
1534.597493069798
 20
4428.647034531208
 30
0.0
 11
1534.597493069798
 21
4406.147034531207
 31
0.0
 70
   160
 71
     5
 42
45.0
  3
S10
100
AcDbAlignedDimension
 13
1434.597493069797
 23
4383.647034531207
 33
0.0
 14
1434.597493069797
 24
4428.647034531208
 34
0.0
 50
90.0
100
AcDbRotatedDimension
1001
ACAD
1000
DSTYLE
1002
{
1070
   279
1070
     1
1002
}
  0
DIMENSION
  5
223
330
1F
100
AcDbEntity
  8
D-STR-DIM
100
AcDbDimension
  2
*D10
 10
1534.597493069798
 20
4383.647034531207
 30
0.0
 11
1534.597493069798
 21
4353.647034531208
 31
0.0
 70
   160
  1
<>
 71
     5
 42
60.0
  3
S10
100
AcDbAlignedDimension
 13
1434.597493069797
 23
4323.647034531208
 33
0.0
 14
1434.597493069797
 24
4383.647034531207
 34
0.0
 50
90.0
100
AcDbRotatedDimension
1001
ACAD
1000
DSTYLE
1002
{
1070
   279
1070
     1
1002
}
  0
DIMENSION
  5
224
330
1F
100
AcDbEntity
  8
D-STR-DIM
100
AcDbDimension
  2
*D11
 10
1534.597493069797
 20
4073.647034531208
 30
0.0
 11
1509.597493069797
 21
4198.647034531208
 31
0.0
 70
    32
 71
     5
 42
249.9999999999991
  3
S10
100
AcDbAlignedDimension
 13
1434.597493069797
 23
4323.647034531208
 33
0.0
 14
1434.597493069797
 24
4073.647034531208
 34
0.0
 50
90.0
100
AcDbRotatedDimension
  0
LINE
  5
225
330
1F
100
AcDbEntity
  8
D-STR
  6
Continuous
100
AcDbLine
 10
1424.597493069795
 20
4348.647034531208
 30
0.0
 11
1424.597493069797
 21
4048.647034531207
 31
0.0
  0
LINE
  5
226
330
1F
100
AcDbEntity
  8
D-STR
  6
Continuous
100
AcDbLine
 10
1160.227002109063
 20
4013.647034531207
 30
0.0
 11
1434.597493069797
 21
4013.647034531207
 31
0.0
  0
LINE
  5
227
330
1F
100
AcDbEntity
  8
D-STR
  6
Continuous
100
AcDbLine
 10
1135.374188366688
 20
4073.647034531211
 30
0.0
 11
1434.597493069797
 21
4073.647034531208
 31
0.0
  0
LINE
  5
228
330
1F
100
AcDbEntity
  8
D-STR
  6
Continuous
100
AcDbLine
 10
1135.374188366688
 20
4073.647034531211
 30
0.0
 11
1160.227002109063
 21
4013.647034531207
 31
0.0
  0
LINE
  5
229
330
1F
100
AcDbEntity
  8
D-STR
  6
HIDDEN
100
AcDbLine
 10
1424.597493069797
 20
4048.647034531207
 30
0.0
 11
1434.597493069797
 21
4048.647034531207
 31
0.0
  0
DIMENSION
  5
22A
330
1F
100
AcDbEntity
  8
D-STR-DIM
100
AcDbDimension
  2
*D12
 10
1083.597493070068
 20
4248.647034531209
 30
0.0
 11
1259.097493069933
 21
4273.647034531208
 31
0.0
 70
    32
 71
     5
 42
350.9999999997288
  3
S10
100
AcDbAlignedDimension
 13
1434.597493069797
 23
4198.647034531208
 33
0.0
 14
1083.597493070068
 24
4198.647034531208
 34
0.0
100
AcDbRotatedDimension
  0
LINE
  5
22B
330
1F
100
AcDbEntity
  8
D-STR-DIM
  6
CENTER
100
AcDbLine
 10
1083.597493070068
 20
4198.647034531208
 30
0.0
 11
1484.597493069797
 21
4198.647034531208
 31
0.0
  0
LINE
  5
22C
330
1F
100
AcDbEntity
  8
D-STR
  6
Continuous
100
AcDbLine
 10
1031.820797773453
 20
4323.647034531208
 30
0.0
 11
1434.597493069797
 21
4323.647034531208
 31
0.0
  0
LINE
  5
22D
330
1F
100
AcDbEntity
  8
D-STR
  6
Continuous
100
AcDbLine
 10
1006.967984031073
 20
4383.647034531209
 30
0.0
 11
1434.597493069797
 21
4383.647034531207
 31
0.0
  0
LINE
  5
22E
330
1F
100
AcDbEntity
  8
D-STR
  6
Continuous
100
AcDbLine
 10
1006.967984031073
 20
4383.647034531209
 30
0.0
 11
1031.820797773453
 21
4323.647034531208
 31
0.0
  0
LINE
  5
22F
330
1F
100
AcDbEntity
  8
D-STR
  6
HIDDEN
100
AcDbLine
 10
1434.597493069797
 20
4348.647034531208
 30
0.0
 11
1424.597493069795
 21
4348.647034531208
 31
0.0
  0
DIMENSION
  5
230
330
1F
100
AcDbEntity
  8
D-STR-DIM
100
AcDbDimension
  2
*D13
 10
1434.597493069797
 20
4528.647034531208
 30
0.0
 11
1211.462933397044
 21
4553.647034531208
 31
0.0
 70
    32
 71
     5
 42
446.2691193455065
  3
S10
100
AcDbAlignedDimension
 13
988.3283737242912
 23
4428.647034531208
 33
0.0
 14
1434.597493069797
 24
4428.647034531208
 34
0.0
100
AcDbRotatedDimension
  0
LINE
  5
231
330
1F
100
AcDbEntity
  8
D-STR
  6
Continuous
100
AcDbLine
 10
988.3283737242912
 20
4428.647034531208
 30
0.0
 11
1434.597493069797
 21
4428.647034531208
 31
0.0
  0
DIMENSION
  5
232
330
1F
100
AcDbEntity
  8
D-STR-DIM
100
AcDbDimension
  2
*D14
 10
800.0476738143648
 20
1382.337364917757
 30
0.0
 11
906.4672443828779
 21
1524.112274545538
 31
0.0
 70
    33
 71
     5
 42
350.999999999727
  3
S10
100
AcDbAlignedDimension
 13
1083.597493070028
 23
1595.176506054648
 33
0.0
 14
835.4030128736834
 24
1346.982025858422
 34
0.0
  0
DIMENSION
  5
234
330
1F
100
AcDbEntity
  8
D-STR-DIM
100
AcDbDimension
  2
*D15
 10
580.8445716465215
 20
1601.540467085612
 30
0.0
 11
725.3402606608009
 21
1781.391495159137
 31
0.0
 70
    33
 71
     5
 42
458.6955262167524
  3
S10
100
AcDbAlignedDimension
 13
975.9019668530456
 23
1855.176506054648
 33
0.0
 14
651.5552497651681
 24
1530.829788966929
 34
0.0
  0
LINE
  5
235
330
1F
100
AcDbEntity
  8
D-STR
  6
Continuous
100
AcDbLine
 10
718.7303939778778
 20
1477.796780377921
 30
0.0
 11
966.2177673931093
 21
1230.30940696257
 31
0.0
  0
LINE
  5
236
330
1F
100
AcDbEntity
  8
D-STR
  6
Continuous
100
AcDbLine
 10
651.5552497651681
 20
1530.829788966929
 30
0.0
 11
1019.250775982082
 21
1163.134262749834
 31
0.0
  0
LINE
  5
237
330
1F
100
AcDbEntity
  8
D-STR-DIM
  6
CENTER
100
AcDbLine
 10
1083.597493070027
 20
1595.176506054647
 30
0.0
 11
800.0476738143536
 21
1311.626686799115
 31
0.0
  0
LINE
  5
238
330
1F
100
AcDbEntity
  8
D-STR
  6
Continuous
100
AcDbLine
 10
1021.465458714071
 20
1745.176506054649
 30
0.0
 11
729.3369956956687
 21
1453.048043036391
 31
0.0
  0
LINE
  5
239
330
1F
100
AcDbEntity
  8
D-STR
  6
Continuous
100
AcDbLine
 10
996.6126449716924
 20
1805.176506054648
 30
0.0
 11
686.9105888244868
 21
1495.474449907593
 31
0.0
  0
LINE
  5
23A
330
1F
100
AcDbEntity
  8
D-STR
  6
Continuous
100
AcDbLine
 10
975.9019668530456
 20
1855.176506054648
 30
0.0
 11
651.5552497651681
 21
1530.829788966929
 31
0.0
  0
LINE
  5
23C
330
1F
100
AcDbEntity
  8
D-STR
  6
HIDDEN
100
AcDbLine
 10
711.6593261660112
 20
1470.725712566058
 30
0.0
 11
718.7303939778778
 21
1477.796780377921
 31
0.0
  0
DIMENSION
  5
23D
330
1F
100
AcDbEntity
  8
D-STR-DIM
100
AcDbDimension
  2
*D16
 10
1534.597493069798
 20
1445.176506054877
 30
0.0
 11
1534.597493069798
 21
1415.176506054877
 31
0.0
 70
   160
  1
<>
 71
     5
 42
60.0
  3
S10
100
AcDbAlignedDimension
 13
1434.597493069797
 23
1385.176506054877
 33
0.0
 14
1434.597493069797
 24
1445.176506054877
 34
0.0
 50
90.0
100
AcDbRotatedDimension
1001
ACAD
1000
DSTYLE
1002
{
1070
   279
1070
     1
1002
}
  0
DIMENSION
  5
23E
330
1F
100
AcDbEntity
  8
D-STR-DIM
100
AcDbDimension
  2
*D17
 10
1534.597493069797
 20
1445.176506054877
 30
0.0
 11
1509.597493069797
 21
1595.176506054763
 31
0.0
 70
    32
 71
     5
 42
299.9999999997708
  3
S10
100
AcDbAlignedDimension
 13
1434.597493069797
 23
1745.176506054648
 33
0.0
 14
1434.597493069797
 24
1445.176506054877
 34
0.0
 50
90.0
100
AcDbRotatedDimension
  0
DIMENSION
  5
23F
330
1F
100
AcDbEntity
  8
D-STR-DIM
100
AcDbDimension
  2
*D18
 10
1634.597493069797
 20
1335.176506054648
 30
0.0
 11
1609.597493069797
 21
1595.176506054648
 31
0.0
 70
    32
 71
     5
 42
520.0
  3
S10
100
AcDbAlignedDimension
 13
1434.597493069797
 23
1855.176506054648
 33
0.0
 14
1434.597493069797
 24
1335.176506054648
 34
0.0
 50
90.0
100
AcDbRotatedDimension
  0
LINE
  5
240
330
1F
100
AcDbEntity
  8
D-STR-DIM
  6
CENTER
100
AcDbLine
 10
934.4806106157486
 20
1955.176506054648
 30
0.0
 11
1225.063514074214
 21
1253.647319531207
 31
0.0
  0
LINE
  5
241
330
1F
100
AcDbEntity
  8
D-STR
  6
Continuous
100
AcDbLine
 10
1434.597493069797
 20
1855.176506054648
 30
0.0
 11
1434.597493069797
 21
1335.176506054648
 31
0.0
  0
LINE
  5
242
330
1F
100
AcDbEntity
  8
D-STR
  6
Continuous
100
AcDbLine
 10
1424.597493069797
 20
1770.176506054648
 30
0.0
 11
1424.597493069797
 21
1420.176506054648
 31
0.0
  0
DIMENSION
  5
243
330
1F
100
AcDbEntity
  8
D-STR-DIM
100
AcDbDimension
  2
*D19
 10
1534.597493069798
 20
1385.176506054877
 30
0.0
 11
1534.597493069798
 21
1360.176506054762
 31
0.0
 70
   160
 71
     5
 42
50.00000000022918
  3
S10
100
AcDbAlignedDimension
 13
1434.597493069797
 23
1335.176506054648
 33
0.0
 14
1434.597493069797
 24
1385.176506054877
 34
0.0
 50
90.0
100
AcDbRotatedDimension
1001
ACAD
1000
DSTYLE
1002
{
1070
   279
1070
     1
1002
}
  0
DIMENSION
  5
244
330
1F
100
AcDbEntity
  8
D-STR-DIM
100
AcDbDimension
  2
*D20
 10
1434.597493069797
 20
1235.176506054647
 30
0.0
 11
1312.945256178388
 21
1260.176506054647
 31
0.0
 70
    32
 71
     5
 42
243.3044737828168
  3
S10
100
AcDbAlignedDimension
 13
1191.293019286981
 23
1335.176506054646
 33
0.0
 14
1434.597493069797
 24
1335.176506054648
 34
0.0
100
AcDbRotatedDimension
  0
DIMENSION
  5
245
330
1F
100
AcDbEntity
  8
D-STR-DIM
100
AcDbDimension
  2
*D21
 10
1089.961454100714
 20
1092.423584631165
 30
0.0
 11
1158.304906223506
 21
1196.12237581324
 31
0.0
 70
    33
 71
     5
 42
243.3044737828186
  3
S10
100
AcDbAlignedDimension
 13
1191.293019286981
 23
1335.176506054646
 33
0.0
 14
1019.250775982082
 24
1163.134262749834
 34
0.0
  0
LINE
  5
246
330
1F
100
AcDbEntity
  8
D-STR
  6
Continuous
100
AcDbLine
 10
1170.582341167986
 20
1385.176506055482
 30
0.0
 11
983.8954369229433
 21
1198.489601809675
 31
0.0
  0
LINE
  5
247
330
1F
100
AcDbEntity
  8
D-STR
  6
Continuous
100
AcDbLine
 10
1145.729527425584
 20
1445.176506055544
 30
0.0
 11
941.4690300516634
 21
1240.916008680781
 31
0.0
  0
LINE
  5
248
330
1F
100
AcDbEntity
  8
D-STR
  6
Continuous
100
AcDbLine
 10
1019.250775982082
 20
1163.134262749834
 30
0.0
 11
1191.293019286981
 21
1335.176506054648
 31
0.0
  0
LINE
  5
249
330
1F
100
AcDbEntity
  8
D-STR
  6
HIDDEN
100
AcDbLine
 10
959.1466995812407
 20
1223.238339150706
 30
0.0
 11
966.2177673931093
 21
1230.30940696257
 31
0.0
  0
LINE
  5
24A
330
1F
100
AcDbEntity
  8
D-STR
  6
Continuous
100
AcDbLine
 10
1158.155934296779
 20
1415.176506055514
 30
0.0
 11
1434.597493069382
 21
1415.176506054877
 31
0.0
  0
LINE
  5
24B
330
1F
100
AcDbEntity
  8
D-STR
  6
Continuous
100
AcDbLine
 10
1145.729527425583
 20
1445.176506055543
 30
0.0
 11
1434.597493069452
 21
1445.176506054877
 31
0.0
  0
LINE
  5
24C
330
1F
100
AcDbEntity
  8
D-STR
  6
Continuous
100
AcDbLine
 10
1170.582341167984
 20
1385.176506055485
 30
0.0
 11
1434.597493069314
 21
1385.176506054877
 31
0.0
  0
LINE
  5
24D
330
1F
100
AcDbEntity
  8
D-STR
  6
Continuous
100
AcDbLine
 10
1434.597493069797
 20
1335.176506054648
 30
0.0
 11
1191.293019286981
 21
1335.176506054648
 31
0.0
  0
LINE
  5
24E
330
1F
100
AcDbEntity
  8
D-STR
  6
Continuous
100
AcDbLine
 10
1145.729527425584
 20
1445.176506055544
 30
0.0
 11
1170.582341167986
 21
1385.176506055482
 31
0.0
  0
LINE
  5
24F
330
1F
100
AcDbEntity
  8
D-STR
  6
HIDDEN
100
AcDbLine
 10
1434.597493069797
 20
1420.176506054648
 30
0.0
 11
1424.597493069797
 21
1420.176506054648
 31
0.0
  0
DIMENSION
  5
250
330
1F
100
AcDbEntity
  8
D-STR-DIM
100
AcDbDimension
  2
*D22
 10
1434.597493069797
 20
1955.176506054648
 30
0.0
 11
1205.249729961421
 21
1980.176506054648
 31
0.0
 70
    32
 71
     5
 42
458.6955262167521
  3
S10
100
AcDbAlignedDimension
 13
975.9019668530456
 23
1855.176506054648
 33
0.0
 14
1434.597493069797
 24
1855.176506054648
 34
0.0
100
AcDbRotatedDimension
  0
DIMENSION
  5
251
330
1F
100
AcDbEntity
  8
D-STR-DIM
100
AcDbDimension
  2
*D23
 10
1534.597493069798
 20
1855.176506054648
 30
0.0
 11
1534.597493069798
 21
1830.176506054648
 31
0.0
 70
   160
 71
     5
 42
50.0
  3
S10
100
AcDbAlignedDimension
 13
1434.597493069797
 23
1805.176506054648
 33
0.0
 14
1434.597493069797
 24
1855.176506054648
 34
0.0
 50
90.0
100
AcDbRotatedDimension
1001
ACAD
1000
DSTYLE
1002
{
1070
   279
1070
     1
1002
}
  0
DIMENSION
  5
252
330
1F
100
AcDbEntity
  8
D-STR-DIM
100
AcDbDimension
  2
*D24
 10
1534.597493069798
 20
1805.176506054648
 30
0.0
 11
1534.597493069798
 21
1775.176506054648
 31
0.0
 70
   160
  1
<>
 71
     5
 42
60.0
  3
S10
100
AcDbAlignedDimension
 13
1434.597493069797
 23
1745.176506054648
 33
0.0
 14
1434.597493069797
 24
1805.176506054648
 34
0.0
 50
90.0
100
AcDbRotatedDimension
1001
ACAD
1000
DSTYLE
1002
{
1070
   279
1070
     1
1002
}
  0
DIMENSION
  5
253
330
1F
100
AcDbEntity
  8
D-STR-DIM
100
AcDbDimension
  2
*D25
 10
1083.597493070028
 20
1645.176506054648
 30
0.0
 11
1259.097493069893
 21
1670.176506054648
 31
0.0
 70
    32
 71
     5
 42
350.9999999997288
  3
S10
100
AcDbAlignedDimension
 13
1434.597493069757
 23
1595.176506054648
 33
0.0
 14
1083.597493070028
 24
1595.176506054648
 34
0.0
100
AcDbRotatedDimension
  0
LINE
  5
254
330
1F
100
AcDbEntity
  8
D-STR-DIM
  6
CENTER
100
AcDbLine
 10
1083.597493070027
 20
1595.176506054648
 30
0.0
 11
1484.597493069797
 21
1595.176506054648
 31
0.0
  0
LINE
  5
255
330
1F
100
AcDbEntity
  8
D-STR
  6
Continuous
100
AcDbLine
 10
975.9019668530456
 20
1855.176506054648
 30
0.0
 11
1434.597493069797
 21
1855.176506054648
 31
0.0
  0
LINE
  5
256
330
1F
100
AcDbEntity
  8
D-STR
  6
Continuous
100
AcDbLine
 10
996.6126449716924
 20
1805.176506054648
 30
0.0
 11
1434.597493069797
 21
1805.176506054648
 31
0.0
  0
LINE
  5
257
330
1F
100
AcDbEntity
  8
D-STR
  6
Continuous
100
AcDbLine
 10
1021.46545871407
 20
1745.176506054648
 30
0.0
 11
1434.597493069797
 21
1745.176506054648
 31
0.0
  0
LINE
  5
258
330
1F
100
AcDbEntity
  8
D-STR
  6
Continuous
100
AcDbLine
 10
996.6126449716924
 20
1805.176506054648
 30
0.0
 11
1021.465458714071
 21
1745.176506054649
 31
0.0
  0
LINE
  5
259
330
1F
100
AcDbEntity
  8
D-STR
  6
HIDDEN
100
AcDbLine
 10
1434.597493069797
 20
1770.176506054648
 30
0.0
 11
1424.597493069797
 21
1770.176506054648
 31
0.0
  0
LINE
  5
25A
330
1F
100
AcDbEntity
  8
D-STR
100
AcDbLine
 10
2565.663158370793
 20
1198.906375790641
 30
0.0
 11
2317.468678174316
 21
1447.100855987119
 31
0.0
  0
LINE
  5
25B
330
1F
100
AcDbEntity
  8
D-STR
100
AcDbLine
 10
2542.881412440273
 20
1143.906375790641
 30
0.0
 11
2294.686932243795
 21
1392.100855987119
 31
0.0
  0
LINE
  5
25C
330
1F
100
AcDbEntity
  8
D-STR
100
AcDbLine
 10
2627.795192726757
 20
1348.906375790641
 30
0.0
 11
2379.600712530279
 21
1597.100855987119
 31
0.0
  0
LINE
  5
25D
102
{ACAD_REACTORS
330
C04
102
}
330
1F
100
AcDbEntity
  8
D-STR
100
AcDbLine
 10
2650.576938657278
 20
1403.90637579064
 30
0.0
 11
2402.3824584608
 21
1652.10085598712
 31
0.0
  0
LINE
  5
25E
330
1F
100
AcDbEntity
  8
D-STR
100
AcDbLine
 10
2564.555817004784
 20
1489.927497443131
 30
0.0
 11
2380.708053896281
 21
1306.079734334629
 31
0.0
  0
LINE
  5
25F
102
{ACAD_REACTORS
330
BEC
102
}
330
1F
100
AcDbEntity
  8
D-STR
100
AcDbLine
 10
2173.034695352286
 20
1652.100855987121
 30
0.0
 11
2173.034695352286
 21
1392.100855987121
 31
0.0
  0
LINE
  5
260
330
1F
100
AcDbEntity
  8
D-STR
100
AcDbLine
 10
2173.034695352286
 20
1447.100855987119
 30
0.0
 11
2317.468678174314
 21
1447.100855987119
 31
0.0
  0
LINE
  5
261
102
{ACAD_REACTORS
330
BEC
102
}
330
1F
100
AcDbEntity
  8
D-STR
100
AcDbLine
 10
2173.034695352284
 20
1392.100855987119
 30
0.0
 11
2294.686932243793
 21
1392.100855987119
 31
0.0
  0
LINE
  5
262
102
{ACAD_REACTORS
330
C04
102
}
330
1F
100
AcDbEntity
  8
D-STR
100
AcDbLine
 10
2173.034695352287
 20
1652.100855987119
 30
0.0
 11
2402.382458460798
 21
1652.100855987119
 31
0.0
  0
LINE
  5
263
330
1F
100
AcDbEntity
  8
D-STR
100
AcDbLine
 10
2173.034695352286
 20
1597.100855987119
 30
0.0
 11
2379.600712530277
 21
1597.100855987119
 31
0.0
  0
LINE
  5
264
330
1F
100
AcDbEntity
  8
D-STR
100
AcDbLine
 10
3249.77141885376
 20
1392.100855987119
 30
0.0
 11
3001.576938657283
 21
1143.90637579064
 31
0.0
  0
LINE
  5
265
330
1F
100
AcDbEntity
  8
D-STR
100
AcDbLine
 10
3226.98967292324
 20
1447.100855987119
 30
0.0
 11
2978.795192726762
 21
1198.90637579064
 31
0.0
  0
LINE
  5
266
330
1F
100
AcDbEntity
  8
D-STR
100
AcDbLine
 10
2772.229175548771
 20
1403.90637579064
 30
0.0
 11
2772.229175548771
 21
1143.906375790641
 31
0.0
  0
LINE
  5
267
330
1F
100
AcDbEntity
  8
D-STR
100
AcDbLine
 10
2978.795192726754
 20
1198.906375790641
 30
0.0
 11
2565.663158370789
 21
1198.906375790641
 31
0.0
  0
LINE
  5
268
330
1F
100
AcDbEntity
  8
D-STR
100
AcDbLine
 10
3001.576938657274
 20
1143.906375790641
 30
0.0
 11
2542.881412440268
 21
1143.906375790641
 31
0.0
  0
LINE
  5
269
330
1F
100
AcDbEntity
  8
D-STR
100
AcDbLine
 10
3164.857638567275
 20
1597.100855987119
 30
0.0
 11
2916.663158370798
 21
1348.90637579064
 31
0.0
  0
LINE
  5
26A
330
1F
100
AcDbEntity
  8
D-STR
100
AcDbLine
 10
3142.075892636754
 20
1652.100855987119
 30
0.0
 11
2893.881412440277
 21
1403.90637579064
 31
0.0
  0
LINE
  5
26B
330
1F
100
AcDbEntity
  8
D-STR
100
AcDbLine
 10
2979.90253409276
 20
1489.927497443131
 30
0.0
 11
3163.750297201262
 21
1306.079734334629
 31
0.0
  0
LINE
  5
26C
330
1F
100
AcDbEntity
  8
D-STR
100
AcDbLine
 10
2893.881412440269
 20
1403.90637579064
 30
0.0
 11
2650.576938657275
 21
1403.90637579064
 31
0.0
  0
LINE
  5
26D
330
1F
100
AcDbEntity
  8
D-STR
100
AcDbLine
 10
2916.66315837079
 20
1348.906375790641
 30
0.0
 11
2627.795192726754
 21
1348.906375790641
 31
0.0
  0
LINE
  5
26E
102
{ACAD_REACTORS
330
A70
102
}
330
1F
100
AcDbEntity
  8
D-STR
100
AcDbLine
 10
3371.423655745258
 20
1652.100855987121
 30
0.0
 11
3371.423655745258
 21
1392.100855987121
 31
0.0
  0
LINE
  5
26F
102
{ACAD_REACTORS
330
A2F
330
A70
102
}
330
1F
100
AcDbEntity
  8
D-STR
100
AcDbLine
 10
3226.989672923237
 20
1447.100855987119
 30
0.0
 11
3371.423655745258
 21
1447.100855987119
 31
0.0
  0
LINE
  5
270
102
{ACAD_REACTORS
330
AD0
102
}
330
1F
100
AcDbEntity
  8
D-STR
100
AcDbLine
 10
3249.771418853756
 20
1392.100855987119
 30
0.0
 11
3371.423655745255
 21
1392.100855987119
 31
0.0
  0
LINE
  5
271
102
{ACAD_REACTORS
330
A54
330
AD0
102
}
330
1F
100
AcDbEntity
  8
D-STR
100
AcDbLine
 10
3142.075892636751
 20
1652.100855987119
 30
0.0
 11
3371.423655745258
 21
1652.100855987119
 31
0.0
  0
LINE
  5
272
102
{ACAD_REACTORS
330
A2F
330
A54
102
}
330
1F
100
AcDbEntity
  8
D-STR
100
AcDbLine
 10
3164.857638567271
 20
1597.100855987119
 30
0.0
 11
3371.423655745258
 21
1597.100855987119
 31
0.0
  0
LINE
  5
495
330
1F
100
AcDbEntity
  8
D-TTL
100
AcDbLine
 10
-722.5364966062073
 20
5576.678164908861
 30
0.0
 11
7677.46350339379
 21
5576.678164908861
 31
0.0
  0
LINE
  5
496
330
1F
100
AcDbEntity
  8
D-TTL
100
AcDbLine
 10
-722.5364966062073
 20
5576.678164908861
 30
0.0
 11
-722.5364966062073
 21
-363.3218350911397
 31
0.0
  0
LINE
  5
497
330
1F
100
AcDbEntity
  8
D-TTL
100
AcDbLine
 10
-722.5364966062073
 20
-363.3218350911397
 30
0.0
 11
7677.46350339379
 21
-363.3218350911397
 31
0.0
  0
LINE
  5
498
330
1F
100
AcDbEntity
  8
D-TTL
100
AcDbLine
 10
7677.46350339379
 20
5576.678164908861
 30
0.0
 11
7677.46350339379
 21
-363.3218350911397
 31
0.0
  0
MTEXT
  5
4A0
330
1F
100
AcDbEntity
  8
D-STR-TXT
370
    -3
100
AcDbMText
 10
2911.161229417297
 20
5088.971742594129
 30
0.0
 40
50.0
 41
0.0
 71
     5
 72
     1
  1
S=1/10
 73
     1
 44
1.0
  0
MTEXT
  5
4A1
330
1F
100
AcDbEntity
  8
D-STR-TXT
370
    -3
100
AcDbMText
 10
2814.208028730858
 20
5162.053086136143
 30
0.0
 40
50.0
 41
0.0
 71
     5
 72
     1
  1
{\Lリボーン側溝電柱避け250A}
 73
     1
 44
1.0
  0
MTEXT
  5
4A3
330
1F
100
AcDbEntity
  8
D-STR-TXT
370
    -3
100
AcDbMText
 10
2814.208028730858
 20
2588.582557659584
 30
0.0
 40
50.0
 41
0.0
 71
     5
 72
     1
  1
{\Lリボーン側溝電柱避け300A}
 73
     1
 44
1.0
  0
MTEXT
  5
4A4
330
1F
100
AcDbEntity
  8
D-STR-TXT
370
    -3
100
AcDbMText
 10
2911.161229417297
 20
2515.501214117568
 30
0.0
 40
50.0
 41
0.0
 71
     5
 72
     1
  1
S=1/10
 73
     1
 44
1.0
  0
LEADER
  5
931
330
1F
100
AcDbEntity
  8
D-STR-DIM
100
AcDbLeader
  3
S10
 73
     0
 40
35.02538071065989
 41
87.4720812182741
 76
     3
 10
882.8861978065686
 20
3909.746849442164
 30
0.0
 10
783.1319524584069
 20
3761.649973550984
 30
0.0
 10
772.177401912777
 20
3761.649973550984
 30
0.0
340
932
1001
ACAD
1000
DSTYLE
1002
{
1070
   147
1040
1.0
1070
    77
1070
     1
1002
}
  0
MTEXT
  5
932
102
{ACAD_REACTORS
330
931
102
}
330
1F
100
AcDbEntity
  8
D-STR-DIM
100
AcDbMText
 10
762.1774019127769
 20
3771.649973550983
 30
0.0
 40
30.0
 41
0.0
 71
     9
 72
     1
  1
\A1;目地部
 73
     1
 44
1.0
  0
LEADER
  5
933
330
1F
100
AcDbEntity
  8
D-STR-DIM
100
AcDbLeader
  3
S10
 73
     0
 40
35.02538071065989
 41
87.4720812182741
 76
     3
 10
882.8861978064741
 20
1306.276320965552
 30
0.0
 10
783.1319524583122
 20
1158.17944507437
 30
0.0
 10
772.1774019126821
 20
1158.179445074371
 30
0.0
340
934
1001
ACAD
1000
DSTYLE
1002
{
1070
   147
1040
1.0
1070
    77
1070
     1
1002
}
  0
MTEXT
  5
934
102
{ACAD_REACTORS
330
933
102
}
330
1F
100
AcDbEntity
  8
D-STR-DIM
100
AcDbMText
 10
762.1774019126822
 20
1168.179445074372
 30
0.0
 40
30.0
 41
0.0
 71
     9
 72
     1
  1
\A1;目地部
 73
     1
 44
1.0
  0
MTEXT
  5
935
330
1F
100
AcDbEntity
  8
D-STR-TXT
370
    -3
100
AcDbMText
 10
2772.229175548782
 20
4519.698872692931
 30
0.0
 40
50.0
 41
0.0
 71
     5
 72
     1
  1
（平面展開図）\PS=1/5
 73
     1
 44
1.0
  0
MTEXT
  5
936
330
1F
100
AcDbEntity
  8
D-STR-TXT
370
    -3
100
AcDbMText
 10
2772.229175548771
 20
1859.699157692925
 30
0.0
 40
50.0
 41
0.0
 71
     5
 72
     1
  1
（平面展開図）\PS=1/5
 73
     1
 44
1.0
  0
DIMENSION
  5
A18
102
{ACAD_XDICTIONARY
360
A25
102
}
102
{ACAD_REACTORS
330
A2F
102
}
330
1F
100
AcDbEntity
  8
D-STR-DIM
100
AcDbDimension
  2
*D26
 10
3487.923455894954
 20
1447.100855987119
 30
0.0
 11
3462.923455894952
 21
1522.100855987119
 31
0.0
 70
    32
 71
     5
 42
300.0
  3
S5
100
AcDbAlignedDimension
 13
3371.423655745258
 23
1597.100855987119
 33
0.0
 14
3371.423655745258
 24
1447.100855987119
 34
0.0
 50
90.0
100
AcDbRotatedDimension
  0
DIMENSION
  5
A39
102
{ACAD_XDICTIONARY
360
A48
102
}
102
{ACAD_REACTORS
330
A54
102
}
330
1F
100
AcDbEntity
  8
D-STR-DIM
100
AcDbDimension
  2
*D27
 10
3487.923455894954
 20
1597.100855987119
 30
0.0
 11
3487.923455894954
 21
1624.600855987119
 31
0.0
 70
   160
 71
     5
 42
110.0
  3
S5
100
AcDbAlignedDimension
 13
3371.423655745258
 23
1652.100855987119
 33
0.0
 14
3371.423655745258
 24
1597.100855987119
 34
0.0
 50
90.0
100
AcDbRotatedDimension
1001
ACAD
1000
DSTYLE
1002
{
1070
   279
1070
     1
1002
}
  0
DIMENSION
  5
A55
102
{ACAD_XDICTIONARY
360
A64
102
}
102
{ACAD_REACTORS
330
A70
102
}
330
1F
100
AcDbEntity
  8
D-STR-DIM
100
AcDbDimension
  2
*D28
 10
3487.923455894954
 20
1392.100855987121
 30
0.0
 11
3487.923455894954
 21
1419.60085598712
 31
0.0
 70
   160
 71
     5
 42
109.9999999999945
  3
S5
100
AcDbAlignedDimension
 13
3371.423655745258
 23
1447.100855987119
 33
0.0
 14
3371.423655745258
 24
1392.100855987121
 34
0.0
 50
90.0
100
AcDbRotatedDimension
1001
ACAD
1000
DSTYLE
1002
{
1070
   279
1070
     1
1002
}
  0
DIMENSION
  5
AB9
102
{ACAD_XDICTIONARY
360
AC6
102
}
102
{ACAD_REACTORS
330
AD0
102
}
330
1F
100
AcDbEntity
  8
D-STR-DIM
100
AcDbDimension
  2
*D29
 10
3593.023101480746
 20
1392.100855987119
 30
0.0
 11
3568.023101480747
 21
1522.100855987119
 31
0.0
 70
    32
 71
     5
 42
520.0
  3
S5
100
AcDbAlignedDimension
 13
3371.423655745258
 23
1652.100855987119
 33
0.0
 14
3371.423655745255
 24
1392.100855987119
 34
0.0
 50
90.0
100
AcDbRotatedDimension
  0
DIMENSION
  5
BD5
102
{ACAD_XDICTIONARY
360
BE2
102
}
102
{ACAD_REACTORS
330
BEC
102
}
330
1F
100
AcDbEntity
  8
D-STR-DIM
100
AcDbDimension
  2
*D30
 10
3371.423655745255
 20
960.7580770266157
 30
0.0
 11
2772.229175548771
 21
985.7580770266157
 31
0.0
 70
    32
 71
     5
 42
2396.777920785939
  3
S5
100
AcDbAlignedDimension
 13
2173.034695352286
 23
1392.100855987119
 33
0.0
 14
3371.423655745255
 24
1392.100855987119
 34
0.0
100
AcDbRotatedDimension
  0
DIMENSION
  5
BED
102
{ACAD_XDICTIONARY
360
BFA
102
}
102
{ACAD_REACTORS
330
C04
102
}
330
1F
100
AcDbEntity
  8
D-STR-DIM
100
AcDbDimension
  2
*D31
 10
2708.224207520383
 20
1403.90637579064
 30
0.0
 11
2683.224207520382
 21
1528.00361588888
 31
0.0
 70
    32
 71
     5
 42
496.3889603929559
  3
S5
100
AcDbAlignedDimension
 13
2402.382458460798
 23
1652.100855987119
 33
0.0
 14
2650.576938657278
 24
1403.90637579064
 34
0.0
 50
90.0
100
AcDbRotatedDimension
  0
DIMENSION
  5
C05
330
1F
100
AcDbEntity
  8
D-STR-DIM
100
AcDbDimension
  2
*D32
 10
2702.011004084787
 20
4063.906090790647
 30
0.0
 11
2677.011004084787
 21
4188.003330888889
 31
0.0
 70
    32
 71
     5
 42
496.3889603929738
  3
S5
100
AcDbAlignedDimension
 13
2396.169255025204
 23
4312.100570987133
 33
0.0
 14
2644.363735221684
 24
4063.906090790647
 34
0.0
 50
90.0
100
AcDbRotatedDimension
  0
DIMENSION
  5
C1D
330
1F
100
AcDbEntity
  8
D-STR-DIM
100
AcDbDimension
  2
*D36
 10
3593.023101480745
 20
4082.100570987122
 30
0.0
 11
3568.023101480743
 21
4197.100570987124
 31
0.0
 70
    32
 71
     5
 42
460.0000000000071
  3
S5
100
AcDbAlignedDimension
 13
3371.423655745255
 23
4312.100570987126
 33
0.0
 14
3371.423655745258
 24
4082.100570987122
 34
0.0
 50
90.0
100
AcDbRotatedDimension
  0
DIMENSION
  5
C20
330
1F
100
AcDbEntity
  8
D-STR-DIM
100
AcDbDimension
  2
*D35
 10
3487.923455894952
 20
4082.100570987125
 30
0.0
 11
3487.923455894952
 21
4108.350570987126
 31
0.0
 70
   160
 71
     5
 42
105.0000000000018
  3
S5
100
AcDbAlignedDimension
 13
3371.423655745255
 23
4134.600570987126
 33
0.0
 14
3371.423655745259
 24
4082.100570987125
 34
0.0
 50
90.0
100
AcDbRotatedDimension
1001
ACAD
1000
DSTYLE
1002
{
1070
   279
1070
     1
1002
}
  0
DIMENSION
  5
C23
330
1F
100
AcDbEntity
  8
D-STR-DIM
100
AcDbDimension
  2
*D34
 10
3487.923455894952
 20
4259.600570987126
 30
0.0
 11
3487.923455894952
 21
4284.600570987126
 31
0.0
 70
   160
 71
     5
 42
105.0
  3
S5
100
AcDbAlignedDimension
 13
3371.423655745255
 23
4312.100570987126
 33
0.0
 14
3371.423655745255
 24
4259.600570987126
 34
0.0
 50
90.0
100
AcDbRotatedDimension
1001
ACAD
1000
DSTYLE
1002
{
1070
   279
1070
     1
1002
}
  0
DIMENSION
  5
C26
330
1F
100
AcDbEntity
  8
D-STR-DIM
100
AcDbDimension
  2
*D33
 10
3487.923455894952
 20
4134.600570987126
 30
0.0
 11
3462.923455894951
 21
4197.100570987127
 31
0.0
 70
    32
 71
     5
 42
250.0
  3
S5
100
AcDbAlignedDimension
 13
3371.423655745255
 23
4259.600570987126
 33
0.0
 14
3371.423655745255
 24
4134.600570987126
 34
0.0
 50
90.0
100
AcDbRotatedDimension
  0
DIMENSION
  5
CCA
330
1F
100
AcDbEntity
  8
D-STR-DIM
100
AcDbDimension
  2
*D37
 10
3371.423655745275
 20
3650.757792026624
 30
0.0
 11
2772.229175548789
 21
3675.757792026624
 31
0.0
 70
    32
 71
     5
 42
2396.777920785939
  3
S5
100
AcDbAlignedDimension
 13
2173.034695352304
 23
4082.100570987129
 33
0.0
 14
3371.423655745275
 24
4082.100570987129
 34
0.0
100
AcDbRotatedDimension
  0
LINE
  5
DC1
330
1F
100
AcDbEntity
  8
D-STR
100
AcDbLine
 10
4830.756270097779
 20
4916.892276685793
 30
0.0
 11
4825.75627009778
 21
4909.406339851359
 31
0.0
  0
LINE
  5
DC2
330
1F
100
AcDbEntity
  8
D-STR
100
AcDbLine
 10
4830.756270097779
 20
4490.892276685792
 30
0.0
 11
4825.75627009778
 21
4495.892276685792
 31
0.0
  0
DIMENSION
  5
DC3
330
1F
100
AcDbEntity
  8
D-STR-DIM
100
AcDbDimension
  2
*D38
 10
4770.75627009778
 20
4490.892276685792
 30
0.0
 11
4745.756270097778
 21
4666.392276685793
 31
0.0
 70
    32
 71
     5
 42
351.0
  3
S10
100
AcDbAlignedDimension
 13
4650.75627009778
 23
4841.892276685793
 33
0.0
 14
4650.75627009778
 24
4490.892276685792
 34
0.0
 50
90.0
100
AcDbRotatedDimension
  0
LINE
  5
DC4
330
1F
100
AcDbEntity
  8
D-STR-DIM
  6
CENTER
100
AcDbLine
 10
4650.75627009778
 20
4926.892276685792
 30
0.0
 11
4650.75627009778
 21
4450.892276685792
 31
0.0
  0
LINE
  5
DC5
330
1F
100
AcDbEntity
  8
D-STR
100
AcDbLine
 10
4825.75627009778
 20
4495.892276685792
 30
0.0
 11
4825.75627009778
 21
4909.406339851359
 31
0.0
  0
LINE
  5
DC6
330
1F
100
AcDbEntity
  8
D-STR
100
AcDbLine
 10
4830.756270097779
 20
4490.892276685792
 30
0.0
 11
4830.756270097779
 21
4916.892276685793
 31
0.0
  0
DIMENSION
  5
DC7
330
1F
100
AcDbEntity
  8
D-STR-DIM
100
AcDbDimension
  2
*D39
 10
5030.756270097779
 20
4916.892276685793
 30
0.0
 11
5005.756270097779
 21
4703.892276685793
 31
0.0
 70
    32
 71
     5
 42
426.0
  3
S10
100
AcDbAlignedDimension
 13
4830.756270097779
 23
4490.892276685792
 33
0.0
 14
4830.756270097779
 24
4916.892276685793
 34
0.0
 50
90.0
100
AcDbRotatedDimension
  0
LINE
  5
DC8
330
1F
100
AcDbEntity
  8
D-STR
100
AcDbLine
 10
4830.948597942766
 20
3766.892276685792
 30
0.0
 11
4825.948597942766
 21
3763.552681314779
 31
0.0
  0
LINE
  5
DC9
330
1F
100
AcDbEntity
  8
D-STR
100
AcDbLine
 10
4830.948597942766
 20
3490.892276685792
 30
0.0
 11
4825.948597942766
 21
3495.892276685792
 31
0.0
  0
LINE
  5
DCA
330
1F
100
AcDbEntity
  8
D-STR-DIM
  6
CENTER
100
AcDbLine
 10
4650.75627009778
 20
3926.892276685792
 30
0.0
 11
4650.75627009778
 21
3450.892276685792
 31
0.0
  0
LINE
  5
DCB
330
1F
100
AcDbEntity
  8
D-STR
100
AcDbLine
 10
4830.948597942766
 20
3490.892276685792
 30
0.0
 11
4830.948597942766
 21
3766.892276685792
 31
0.0
  0
LINE
  5
DCC
330
1F
100
AcDbEntity
  8
D-STR
100
AcDbLine
 10
4825.948597942766
 20
3495.892276685792
 30
0.0
 11
4825.948597942766
 21
3763.552681314779
 31
0.0
  0
DIMENSION
  5
DCD
330
1F
100
AcDbEntity
  8
D-STR-DIM
100
AcDbDimension
  2
*D40
 10
4770.948597942766
 20
3490.892276685792
 30
0.0
 11
4745.948597942764
 21
3666.392276685793
 31
0.0
 70
    32
 71
     5
 42
351.0
  3
S10
100
AcDbAlignedDimension
 13
4650.948597942766
 23
3841.892276685792
 33
0.0
 14
4650.948597942766
 24
3490.892276685792
 34
0.0
 50
90.0
100
AcDbRotatedDimension
  0
DIMENSION
  5
DCE
330
1F
100
AcDbEntity
  8
D-STR-DIM
100
AcDbDimension
  2
*D41
 10
5030.948597942766
 20
3766.892276685792
 30
0.0
 11
5005.948597942765
 21
3628.892276685792
 31
0.0
 70
    32
 71
     5
 42
276.0
  3
S10
100
AcDbAlignedDimension
 13
4830.948597942766
 23
3490.892276685792
 33
0.0
 14
4830.948597942766
 24
3766.892276685792
 34
0.0
 50
90.0
100
AcDbRotatedDimension
  0
LINE
  5
DCF
330
1F
100
AcDbEntity
  8
D-STR
100
AcDbLine
 10
4470.756270097779
 20
4766.892276685792
 30
0.0
 11
4475.75627009778
 21
4763.552681314772
 31
0.0
  0
LINE
  5
DD0
330
1F
100
AcDbEntity
  8
D-STR
100
AcDbLine
 10
4470.756270097779
 20
4490.892276685792
 30
0.0
 11
4475.75627009778
 21
4495.892276685792
 31
0.0
  0
LINE
  5
DD1
330
1F
100
AcDbEntity
  8
D-STR
100
AcDbLine
 10
4475.75627009778
 20
4495.892276685792
 30
0.0
 11
4475.75627009778
 21
4763.552681314772
 31
0.0
  0
LINE
  5
DD2
330
1F
100
AcDbEntity
  8
D-STR
100
AcDbLine
 10
4470.756270097779
 20
4490.892276685792
 30
0.0
 11
4470.756270097779
 21
4766.892276685792
 31
0.0
  0
DIMENSION
  5
DD3
330
1F
100
AcDbEntity
  8
D-STR-DIM
100
AcDbDimension
  2
*D42
 10
4270.75627009778
 20
4766.892276685792
 30
0.0
 11
4245.756270097778
 21
4628.892276685792
 31
0.0
 70
    32
 71
     5
 42
276.0
  3
S10
100
AcDbAlignedDimension
 13
4470.756270097779
 23
4490.892276685792
 33
0.0
 14
4470.756270097779
 24
4766.892276685792
 34
0.0
 50
90.0
100
AcDbRotatedDimension
  0
LINE
  5
DD4
330
1F
100
AcDbEntity
  8
D-STR
100
AcDbLine
 10
4470.948597942766
 20
3916.892276685792
 30
0.0
 11
4475.948597942767
 21
3909.40633985136
 31
0.0
  0
LINE
  5
DD5
330
1F
100
AcDbEntity
  8
D-STR
100
AcDbLine
 10
4470.948597942766
 20
3490.892276685792
 30
0.0
 11
4475.948597942767
 21
3495.892276685792
 31
0.0
  0
LINE
  5
DD6
330
1F
100
AcDbEntity
  8
D-STR
100
AcDbLine
 10
4470.948597942766
 20
3490.892276685792
 30
0.0
 11
4470.948597942766
 21
3916.892276685792
 31
0.0
  0
LINE
  5
DD7
330
1F
100
AcDbEntity
  8
D-STR
100
AcDbLine
 10
4475.948597942767
 20
3495.892276685792
 30
0.0
 11
4475.948597942767
 21
3909.40633985136
 31
0.0
  0
DIMENSION
  5
DD8
330
1F
100
AcDbEntity
  8
D-STR-DIM
100
AcDbDimension
  2
*D43
 10
4270.75627009778
 20
3916.892276685792
 30
0.0
 11
4245.756270097778
 21
3703.892276685793
 31
0.0
 70
    32
 71
     5
 42
426.0
  3
S10
100
AcDbAlignedDimension
 13
4470.948597942766
 23
3490.892276685792
 33
0.0
 14
4470.948597942766
 24
3916.892276685792
 34
0.0
 50
90.0
100
AcDbRotatedDimension
  0
DIMENSION
  5
DD9
330
1F
100
AcDbEntity
  8
D-STR-DIM
100
AcDbDimension
  2
*D44
 10
4830.756270097779
 20
4290.892276685791
 30
0.0
 11
4650.75627009778
 21
4315.892276685792
 31
0.0
 70
    32
 71
     5
 42
360.0
  3
S10
100
AcDbAlignedDimension
 13
4470.756270097779
 23
4490.892276685792
 33
0.0
 14
4830.756270097779
 24
4490.892276685792
 34
0.0
100
AcDbRotatedDimension
  0
LINE
  5
DDA
330
1F
100
AcDbEntity
  8
D-STR
100
AcDbLine
 10
4825.948597942766
 20
3495.892276685792
 30
0.0
 11
4475.948597942767
 21
3495.892276685792
 31
0.0
  0
LINE
  5
DDB
330
1F
100
AcDbEntity
  8
D-STR
100
AcDbLine
 10
4830.948597942766
 20
3490.892276685792
 30
0.0
 11
4470.948597942766
 21
3490.892276685792
 31
0.0
  0
DIMENSION
  5
DDC
330
1F
100
AcDbEntity
  8
D-STR-DIM
100
AcDbDimension
  2
*D45
 10
4830.948597942766
 20
3290.892276685791
 30
0.0
 11
4650.948597942766
 21
3315.892276685792
 31
0.0
 70
    32
 71
     5
 42
360.0
  3
S10
100
AcDbAlignedDimension
 13
4470.948597942766
 23
3490.892276685792
 33
0.0
 14
4830.948597942766
 24
3490.892276685792
 34
0.0
100
AcDbRotatedDimension
  0
LINE
  5
DDD
330
1F
100
AcDbEntity
  8
D-STR
100
AcDbLine
 10
4825.948597942766
 20
3763.552681314779
 30
0.0
 11
4475.948597942767
 21
3909.40633985136
 31
0.0
  0
LINE
  5
DDE
330
1F
100
AcDbEntity
  8
D-STR
100
AcDbLine
 10
4830.948597942766
 20
3766.892276685792
 30
0.0
 11
4470.948597942766
 21
3916.892276685792
 31
0.0
  0
LINE
  5
DDF
330
1F
100
AcDbEntity
  8
D-STR
100
AcDbLine
 10
4470.756270097779
 20
4490.892276685792
 30
0.0
 11
4830.756270097779
 21
4490.892276685792
 31
0.0
  0
LINE
  5
DE0
330
1F
100
AcDbEntity
  8
D-STR
100
AcDbLine
 10
4475.75627009778
 20
4495.892276685792
 30
0.0
 11
4825.75627009778
 21
4495.892276685792
 31
0.0
  0
LINE
  5
DE1
330
1F
100
AcDbEntity
  8
D-STR
100
AcDbLine
 10
4470.756270097779
 20
4766.892276685792
 30
0.0
 11
4830.756270097779
 21
4916.892276685793
 31
0.0
  0
LINE
  5
DE2
330
1F
100
AcDbEntity
  8
D-STR
100
AcDbLine
 10
4475.75627009778
 20
4763.552681314772
 30
0.0
 11
4825.75627009778
 21
4909.406339851359
 31
0.0
  0
LINE
  5
F11
330
1F
100
AcDbEntity
  8
D-STR
100
AcDbLine
 10
4855.756270097783
 20
2315.983467330878
 30
0.0
 11
4850.756270097783
 21
2308.497530496445
 31
0.0
  0
LINE
  5
F12
330
1F
100
AcDbEntity
  8
D-STR
100
AcDbLine
 10
4855.756270097783
 20
1879.983467330879
 30
0.0
 11
4850.756270097783
 21
1884.983467330879
 31
0.0
  0
LINE
  5
F13
330
1F
100
AcDbEntity
  8
D-STR
100
AcDbLine
 10
4855.948597942767
 20
1145.983467330878
 30
0.0
 11
4850.948597942767
 21
1142.643871959861
 31
0.0
  0
LINE
  5
F14
330
1F
100
AcDbEntity
  8
D-STR
100
AcDbLine
 10
4855.94859794277
 20
879.9834673308795
 30
0.0
 11
4850.94859794277
 21
884.9834673308796
 31
0.0
  0
DIMENSION
  5
F15
330
1F
100
AcDbEntity
  8
D-STR-DIM
100
AcDbDimension
  2
*D46
 10
4771.140925787757
 20
879.9834673308795
 30
0.0
 11
4746.140925787757
 21
1055.48346733088
 31
0.0
 70
    32
 71
     5
 42
351.0000000000001
  3
S10
100
AcDbAlignedDimension
 13
4650.94859794277
 23
1230.983467330879
 33
0.0
 14
4650.948597942774
 24
879.9834673308795
 34
0.0
 50
90.0
100
AcDbRotatedDimension
  0
LINE
  5
F16
330
1F
100
AcDbEntity
  8
D-STR
100
AcDbLine
 10
4850.94859794277
 20
884.9834673308796
 30
0.0
 11
4850.948597942767
 21
1142.643871959861
 31
0.0
  0
LINE
  5
F17
330
1F
100
AcDbEntity
  8
D-STR
100
AcDbLine
 10
4855.94859794277
 20
879.9834673308795
 30
0.0
 11
4855.948597942767
 21
1145.983467330878
 31
0.0
  0
DIMENSION
  5
F18
330
1F
100
AcDbEntity
  8
D-STR-DIM
100
AcDbDimension
  2
*D47
 10
5055.948597942766
 20
879.9834673308795
 30
0.0
 11
5030.948597942766
 21
1012.98346733088
 31
0.0
 70
    32
 71
     5
 42
266.0
  3
S10
100
AcDbAlignedDimension
 13
4855.948597942767
 23
1145.983467330878
 33
0.0
 14
4855.94859794277
 24
879.9834673308795
 34
0.0
 50
90.0
100
AcDbRotatedDimension
  0
LINE
  5
F19
330
1F
100
AcDbEntity
  8
D-STR-DIM
  6
CENTER
100
AcDbLine
 10
4650.756270097783
 20
1315.983467330879
 30
0.0
 11
4650.756270097783
 21
839.9834673308799
 31
0.0
  0
LINE
  5
F1A
330
1F
100
AcDbEntity
  8
D-STR-DIM
  6
CENTER
100
AcDbLine
 10
4650.75627009778
 20
2315.983467330878
 30
0.0
 11
4650.756270097783
 21
1839.983467330879
 31
0.0
  0
LINE
  5
F1B
330
1F
100
AcDbEntity
  8
D-STR
100
AcDbLine
 10
4855.756270097783
 20
1879.983467330879
 30
0.0
 11
4855.756270097783
 21
2315.983467330878
 31
0.0
  0
LINE
  5
F1C
330
1F
100
AcDbEntity
  8
D-STR
100
AcDbLine
 10
4850.756270097783
 20
1884.983467330879
 30
0.0
 11
4850.756270097783
 21
2308.497530496445
 31
0.0
  0
DIMENSION
  5
F1D
330
1F
100
AcDbEntity
  8
D-STR-DIM
100
AcDbDimension
  2
*D48
 10
4770.948597942766
 20
1879.983467330879
 30
0.0
 11
4745.948597942766
 21
2055.483467330878
 31
0.0
 70
    32
 71
     5
 42
350.9999999999998
  3
S10
100
AcDbAlignedDimension
 13
4650.75627009778
 23
2230.983467330879
 33
0.0
 14
4650.756270097783
 24
1879.983467330879
 34
0.0
 50
90.0
100
AcDbRotatedDimension
  0
DIMENSION
  5
F1E
330
1F
100
AcDbEntity
  8
D-STR-DIM
100
AcDbDimension
  2
*D49
 10
5055.948597942766
 20
1879.983467330879
 30
0.0
 11
5030.948597942766
 21
2097.98346733088
 31
0.0
 70
    32
 71
     5
 42
435.9999999999997
  3
S10
100
AcDbAlignedDimension
 13
4855.948597942767
 23
2315.983467330878
 33
0.0
 14
4855.756270097783
 24
1879.983467330879
 34
0.0
 50
90.0
100
AcDbRotatedDimension
  0
LINE
  5
F1F
330
1F
100
AcDbEntity
  8
D-STR
100
AcDbLine
 10
4445.756270097783
 20
2145.983467330878
 30
0.0
 11
4450.756270097783
 21
2142.643871959863
 31
0.0
  0
LINE
  5
F20
330
1F
100
AcDbEntity
  8
D-STR
100
AcDbLine
 10
4445.756270097783
 20
1879.983467330879
 30
0.0
 11
4450.756270097783
 21
1884.983467330879
 31
0.0
  0
LINE
  5
F21
330
1F
100
AcDbEntity
  8
D-STR
100
AcDbLine
 10
4445.948597942765
 20
1315.983467330879
 30
0.0
 11
4450.948597942766
 21
1308.497530496446
 31
0.0
  0
LINE
  5
F22
330
1F
100
AcDbEntity
  8
D-STR
100
AcDbLine
 10
4445.94859794277
 20
879.9834673308795
 30
0.0
 11
4450.94859794277
 21
884.9834673308796
 31
0.0
  0
LINE
  5
F23
330
1F
100
AcDbEntity
  8
D-STR
100
AcDbLine
 10
4450.94859794277
 20
884.9834673308796
 30
0.0
 11
4450.948597942766
 21
1308.497530496446
 31
0.0
  0
LINE
  5
F24
330
1F
100
AcDbEntity
  8
D-STR
100
AcDbLine
 10
4445.94859794277
 20
879.9834673308795
 30
0.0
 11
4445.948597942765
 21
1315.983467330879
 31
0.0
  0
DIMENSION
  5
F25
330
1F
100
AcDbEntity
  8
D-STR-DIM
100
AcDbDimension
  2
*D50
 10
4245.948597942766
 20
1315.983467330879
 30
0.0
 11
4220.948597942766
 21
1097.983467330878
 31
0.0
 70
    32
 71
     5
 42
436.0000000000034
  3
S10
100
AcDbAlignedDimension
 13
4445.948597942765
 23
879.983467330876
 33
0.0
 14
4445.948597942765
 24
1315.983467330879
 34
0.0
 50
90.0
100
AcDbRotatedDimension
  0
LINE
  5
F26
330
1F
100
AcDbEntity
  8
D-STR
100
AcDbLine
 10
4445.756270097783
 20
1879.983467330879
 30
0.0
 11
4445.756270097783
 21
2145.983467330878
 31
0.0
  0
LINE
  5
F27
330
1F
100
AcDbEntity
  8
D-STR
100
AcDbLine
 10
4450.756270097783
 20
1884.983467330879
 30
0.0
 11
4450.756270097783
 21
2142.643871959863
 31
0.0
  0
DIMENSION
  5
F28
330
1F
100
AcDbEntity
  8
D-STR-DIM
100
AcDbDimension
  2
*D51
 10
4245.948597942766
 20
1879.983467330879
 30
0.0
 11
4220.948597942766
 21
2012.98346733088
 31
0.0
 70
    32
 71
     5
 42
266.0
  3
S10
100
AcDbAlignedDimension
 13
4445.756270097783
 23
2145.983467330878
 33
0.0
 14
4445.756270097783
 24
1879.983467330879
 34
0.0
 50
90.0
100
AcDbRotatedDimension
  0
LINE
  5
F29
330
1F
100
AcDbEntity
  8
D-STR
100
AcDbLine
 10
4855.948597942767
 20
1145.983467330878
 30
0.0
 11
4445.948597942765
 21
1315.983467330879
 31
0.0
  0
LINE
  5
F2A
330
1F
100
AcDbEntity
  8
D-STR
100
AcDbLine
 10
4850.948597942767
 20
1142.643871959861
 30
0.0
 11
4450.948597942766
 21
1308.497530496446
 31
0.0
  0
LINE
  5
F2B
330
1F
100
AcDbEntity
  8
D-STR
100
AcDbLine
 10
4855.94859794277
 20
879.9834673308795
 30
0.0
 11
4445.94859794277
 21
879.9834673308795
 31
0.0
  0
LINE
  5
F2C
330
1F
100
AcDbEntity
  8
D-STR
100
AcDbLine
 10
4850.94859794277
 20
884.9834673308796
 30
0.0
 11
4450.94859794277
 21
884.9834673308796
 31
0.0
  0
DIMENSION
  5
F2D
330
1F
100
AcDbEntity
  8
D-STR-DIM
100
AcDbDimension
  2
*D52
 10
4855.948597942767
 20
679.9834673308796
 30
0.0
 11
4650.948597942766
 21
704.9834673308796
 31
0.0
 70
    32
 71
     5
 42
410.0
  3
S10
100
AcDbAlignedDimension
 13
4445.948597942765
 23
879.9834673308795
 33
0.0
 14
4855.948597942767
 24
879.9834673308795
 34
0.0
100
AcDbRotatedDimension
  0
LINE
  5
F2E
330
1F
100
AcDbEntity
  8
D-STR
100
AcDbLine
 10
4445.756270097783
 20
1879.983467330879
 30
0.0
 11
4855.756270097783
 21
1879.983467330879
 31
0.0
  0
LINE
  5
F2F
330
1F
100
AcDbEntity
  8
D-STR
100
AcDbLine
 10
4450.756270097783
 20
1884.983467330879
 30
0.0
 11
4850.756270097783
 21
1884.983467330879
 31
0.0
  0
DIMENSION
  5
F30
330
1F
100
AcDbEntity
  8
D-STR-DIM
100
AcDbDimension
  2
*D53
 10
4855.756270097783
 20
1679.983467330879
 30
0.0
 11
4650.756270097783
 21
1704.983467330879
 31
0.0
 70
    32
 71
     5
 42
410.0
  3
S10
100
AcDbAlignedDimension
 13
4445.756270097783
 23
1879.983467330879
 33
0.0
 14
4855.756270097783
 24
1879.983467330879
 34
0.0
100
AcDbRotatedDimension
  0
LINE
  5
F31
330
1F
100
AcDbEntity
  8
D-STR
100
AcDbLine
 10
4445.756270097783
 20
2145.983467330878
 30
0.0
 11
4855.756270097783
 21
2315.983467330878
 31
0.0
  0
LINE
  5
F32
330
1F
100
AcDbEntity
  8
D-STR
100
AcDbLine
 10
4450.756270097783
 20
2142.643871959863
 30
0.0
 11
4850.756270097783
 21
2308.497530496445
 31
0.0
  0
ENDSEC
  0
SECTION
  2
OBJECTS
  0
DICTIONARY
  5
C
330
0
100
AcDbDictionary
281
     1
  3
ACAD_GROUP
350
D
  3
ACAD_LAYOUT
350
1A
  3
ACAD_MLINESTYLE
350
17
  3
ACAD_PLOTSETTINGS
350
19
  3
ACAD_PLOTSTYLENAME
350
E
  3
AcadDim
350
930
  3
AcDbVariableDictionary
350
11D5
  3
ASE_INDEX_DICTIONARY
350
11E2
  0
DICTIONARY
  5
A25
330
A18
100
AcDbDictionary
280
     1
281
     1
  3
ACAD_DIMASSOC
360
A2F
  0
DICTIONARY
  5
A48
330
A39
100
AcDbDictionary
280
     1
281
     1
  3
ACAD_DIMASSOC
360
A54
  0
DICTIONARY
  5
A64
330
A55
100
AcDbDictionary
280
     1
281
     1
  3
ACAD_DIMASSOC
360
A70
  0
DICTIONARY
  5
AC6
330
AB9
100
AcDbDictionary
280
     1
281
     1
  3
ACAD_DIMASSOC
360
AD0
  0
DICTIONARY
  5
BE2
330
BD5
100
AcDbDictionary
280
     1
281
     1
  3
ACAD_DIMASSOC
360
BEC
  0
DICTIONARY
  5
BFA
330
BED
100
AcDbDictionary
280
     1
281
     1
  3
ACAD_DIMASSOC
360
C04
  0
DICTIONARY
  5
D
102
{ACAD_REACTORS
330
C
102
}
330
C
100
AcDbDictionary
281
     1
  0
DICTIONARY
  5
1A
102
{ACAD_REACTORS
330
C
102
}
330
C
100
AcDbDictionary
281
     1
  3
Model
350
22
  3
ﾚｲｱｳﾄ1
350
1E
  3
ﾚｲｱｳﾄ2
350
26
  0
DICTIONARY
  5
17
102
{ACAD_REACTORS
330
C
102
}
330
C
100
AcDbDictionary
281
     1
  3
Standard
350
18
  0
DICTIONARY
  5
19
102
{ACAD_REACTORS
330
C
102
}
330
C
100
AcDbDictionary
281
     1
  0
ACDBDICTIONARYWDFLT
  5
E
102
{ACAD_REACTORS
330
C
102
}
330
C
100
AcDbDictionary
281
     1
  3
Normal
350
F
100
AcDbDictionaryWithDefault
340
F
  0
XRECORD
  5
930
102
{ACAD_REACTORS
330
C
102
}
330
C
100
AcDbXrecord
280
     1
 90
   990106
  3
OPEN30
 60
     0
 61
     0
 62
     1
 63
     3
 64
     1
 65
     0
 66
     0
 67
     3
 68
     1
 69
     0
 70
     0
 71
     0
 72
     0
 40
0.0
170
     2
340
932
  0
DICTIONARY
  5
11D5
102
{ACAD_REACTORS
330
C
102
}
330
C
100
AcDbDictionary
281
     1
  3
DIMASSOC
350
11D7
  3
HIDETEXT
350
11D6
  0
DICTIONARY
  5
11E2
102
{ACAD_REACTORS
330
C
102
}
330
C
100
AcDbDictionary
281
     1
  3
ASEBlockHierarchyIndexRecord
350
11E4
1001
DCO15
1040
1594528710.769
  0
DIMASSOC
  5
A2F
102
{ACAD_REACTORS
330
A25
102
}
330
A25
100
AcDbDimAssoc
330
A18
 90
        3
 70
     0
 71
     0
  1
AcDbOsnapPointRef
 72
     1
331
272
 73
     2
 91
        0
 40
1.0
 10
3371.423655745258
 20
1597.100855987119
 30
0.0
 75
     0
  1
AcDbOsnapPointRef
 72
     1
331
26F
 73
     2
 91
        0
 40
1.0
 10
3371.423655745258
 20
1447.100855987119
 30
0.0
 75
     0
  0
DIMASSOC
  5
A54
102
{ACAD_REACTORS
330
A48
102
}
330
A48
100
AcDbDimAssoc
330
A39
 90
        3
 70
     0
 71
     0
  1
AcDbOsnapPointRef
 72
     1
331
271
 73
     2
 91
        0
 40
1.0
 10
3371.423655745258
 20
1652.100855987119
 30
0.0
 75
     0
  1
AcDbOsnapPointRef
 72
     1
331
272
 73
     2
 91
        0
 40
1.0
 10
3371.423655745258
 20
1597.100855987119
 30
0.0
 75
     0
  0
DIMASSOC
  5
A70
102
{ACAD_REACTORS
330
A64
102
}
330
A64
100
AcDbDimAssoc
330
A55
 90
        3
 70
     0
 71
     0
  1
AcDbOsnapPointRef
 72
     1
331
26F
 73
     2
 91
        0
 40
1.0
 10
3371.423655745258
 20
1447.100855987119
 30
0.0
 75
     0
  1
AcDbOsnapPointRef
 72
     1
331
26E
 73
     2
 91
        0
 40
1.0
 10
3371.423655745258
 20
1392.100855987121
 30
0.0
 75
     0
  0
DIMASSOC
  5
AD0
102
{ACAD_REACTORS
330
AC6
102
}
330
AC6
100
AcDbDimAssoc
330
AB9
 90
        3
 70
     0
 71
     0
  1
AcDbOsnapPointRef
 72
     1
331
271
 73
     2
 91
        0
 40
1.0
 10
3371.423655745258
 20
1652.100855987119
 30
0.0
 75
     0
  1
AcDbOsnapPointRef
 72
     1
331
270
 73
     2
 91
        0
 40
1.0
 10
3371.423655745255
 20
1392.100855987119
 30
0.0
 75
     0
  0
DIMASSOC
  5
BEC
102
{ACAD_REACTORS
330
BE2
102
}
330
BE2
100
AcDbDimAssoc
330
BD5
 90
        1
 70
     0
 71
     0
  1
AcDbOsnapPointRef
 72
     6
331
25F
 73
     2
 91
        0
 40
1.0
 10
2173.034695352286
 20
1392.100855987119
 30
0.0
332
261
 74
     2
 92
        0
 75
     0
  0
DIMASSOC
  5
C04
102
{ACAD_REACTORS
330
BFA
102
}
330
BFA
100
AcDbDimAssoc
330
BED
 90
        3
 70
     0
 71
     0
  1
AcDbOsnapPointRef
 72
     1
331
262
 73
     2
 91
        0
 40
1.0
 10
2402.382458460798
 20
1652.100855987119
 30
0.0
 75
     0
  1
AcDbOsnapPointRef
 72
    13
331
25D
 73
     2
 91
        0
 40
0.0
 10
2650.576938657278
 20
1403.90637579064
 30
0.0
 75
     0
  0
LAYOUT
  5
22
102
{ACAD_REACTORS
330
1A
102
}
330
1A
100
AcDbPlotSettings
  1

  2
RICOH IPSiO NX620 RPCS
  4

  6

 40
0.0
 41
0.0
 42
0.0
 43
0.0
 44
0.0
 45
0.0
 46
0.0
 47
0.0
 48
0.0
 49
0.0
140
0.0
141
0.0
142
1.0
143
1.0
 70
  1712
 72
     0
 73
     0
 74
     0
  7
monochrome.ctb
 75
     0
147
1.0
148
0.0
149
0.0
100
AcDbLayout
  1
Model
 70
     1
 71
     0
 10
0.0
 20
0.0
 11
12.0
 21
9.0
 12
0.0
 22
0.0
 32
0.0
 14
0.0
 24
0.0
 34
0.0
 15
0.0
 25
0.0
 35
0.0
146
0.0
 13
0.0
 23
0.0
 33
0.0
 16
1.0
 26
0.0
 36
0.0
 17
0.0
 27
1.0
 37
0.0
 76
     0
330
1F
  0
LAYOUT
  5
1E
102
{ACAD_REACTORS
330
1A
102
}
330
1A
100
AcDbPlotSettings
  1

  2
RICOH IPSiO NX620 RPCS
  4

  6

 40
0.0
 41
0.0
 42
0.0
 43
0.0
 44
0.0
 45
0.0
 46
0.0
 47
0.0
 48
0.0
 49
0.0
140
0.0
141
0.0
142
1.0
143
1.0
 70
   688
 72
     0
 73
     0
 74
     5
  7
monochrome.ctb
 75
    16
147
1.0
148
0.0
149
0.0
100
AcDbLayout
  1
ﾚｲｱｳﾄ1
 70
     1
 71
     1
 10
0.0
 20
0.0
 11
420.0
 21
297.0
 12
0.0
 22
0.0
 32
0.0
 14
1.000000000000000E+20
 24
1.000000000000000E+20
 34
1.000000000000000E+20
 15
-1.000000000000000E+20
 25
-1.000000000000000E+20
 35
-1.000000000000000E+20
146
0.0
 13
0.0
 23
0.0
 33
0.0
 16
1.0
 26
0.0
 36
0.0
 17
0.0
 27
1.0
 37
0.0
 76
     0
330
1B
  0
LAYOUT
  5
26
102
{ACAD_REACTORS
330
1A
102
}
330
1A
100
AcDbPlotSettings
  1

  2
RICOH IPSiO NX620 RPCS
  4

  6

 40
0.0
 41
0.0
 42
0.0
 43
0.0
 44
0.0
 45
0.0
 46
0.0
 47
0.0
 48
0.0
 49
0.0
140
0.0
141
0.0
142
1.0
143
1.0
 70
   688
 72
     0
 73
     0
 74
     5
  7
monochrome.ctb
 75
    16
147
1.0
148
0.0
149
0.0
100
AcDbLayout
  1
ﾚｲｱｳﾄ2
 70
     1
 71
     2
 10
0.0
 20
0.0
 11
12.0
 21
9.0
 12
0.0
 22
0.0
 32
0.0
 14
0.0
 24
0.0
 34
0.0
 15
0.0
 25
0.0
 35
0.0
146
0.0
 13
0.0
 23
0.0
 33
0.0
 16
1.0
 26
0.0
 36
0.0
 17
0.0
 27
1.0
 37
0.0
 76
     0
330
23
  0
MLINESTYLE
  5
18
102
{ACAD_REACTORS
330
17
102
}
330
17
100
AcDbMlineStyle
  2
STANDARD
 70
     0
  3

 62
   256
 51
90.0
 52
90.0
 71
     2
 49
0.5
 62
   256
  6
BYLAYER
 49
-0.5
 62
   256
  6
BYLAYER
  0
ACDBPLACEHOLDER
  5
F
102
{ACAD_REACTORS
330
E
102
}
330
E
  0
DICTIONARYVAR
  5
11D7
102
{ACAD_REACTORS
330
11D5
102
}
330
11D5
100
DictionaryVariables
280
     0
  1
2
  0
DICTIONARYVAR
  5
11D6
102
{ACAD_REACTORS
330
11D5
102
}
330
11D5
100
DictionaryVariables
280
     0
  1
1
  0
XRECORD
  5
11E4
102
{ACAD_REACTORS
330
11E2
102
}
330
11E2
100
AcDbXrecord
280
     1
330
BD0
330
BD1
330
BAC
330
BAD
330
957
330
958
330
97D
330
97E
330
98F
330
990
330
986
330
987
330
998
330
999
330
B72
330
B73
330
B8F
330
B90
330
945
330
946
330
974
330
975
330
9A1
330
9A2
330
9BC
330
9BD
330
9AA
330
9AB
330
B2A
330
B2B
330
9E0
330
9E1
330
9E9
330
9EA
330
B4E
330
B4F
330
9D7
330
9D8
330
9CE
330
9CF
330
9B3
330
9B4
330
AF0
330
AF1
330
B0D
330
B0E
330
9C5
330
9C6
330
A33
330
A34
330
A90
330
A91
330
AB4
330
AB5
330
ACA
330
ACB
330
BE6
330
BE7
330
BFE
330
BFF
330
CEE
330
CEF
330
CC4
330
CC5
330
CBC
330
CBD
330
CB1
330
CB2
330
CA5
330
CA6
330
CDC
330
CDD
330
11CE
330
11CF
330
11AA
330
11AB
330
11BC
330
11BD
330
11A1
330
11A2
330
1198
330
1199
330
118F
330
1190
330
11C5
330
11C6
330
11B3
330
11B4
330
1159
330
115A
330
1147
330
1148
330
1174
330
1175
330
1150
330
1151
330
1162
330
1163
330
116B
330
116C
330
1186
330
1187
330
117D
330
117E
  0
ENDSEC
  0
EOF
