  0
SECTION
  2
HEADER
  9
$ACADVER
  1
AC1015
  9
$ACADMAINTVER
 70
    14
  9
$DWGCODEPAGE
  3
ANSI_932
  9
$INSBASE
 10
0.0
 20
0.0
 30
0.0
  9
$EXTMIN
 10
144.7018676530932
 20
380.8288745360845
 30
0.0
  9
$EXTMAX
 10
3431.676997223815
 20
2018.418016085145
 30
0.0
  9
$LIMMIN
 10
0.0
 20
0.0
  9
$LIMMAX
 10
420.0
 20
297.0
  9
$ORTHOMODE
 70
     1
  9
$REGENMODE
 70
     1
  9
$FILLMODE
 70
     1
  9
$QTEXTMODE
 70
     0
  9
$MIRRTEXT
 70
     1
  9
$LTSCALE
 40
1.0
  9
$ATTMODE
 70
     1
  9
$TEXTSIZE
 40
2.5
  9
$TRACEWID
 40
1.0
  9
$TEXTSTYLE
  7
Standard
  9
$CLAYER
  8
D-STR-DIM
  9
$CELTYPE
  6
ByLayer
  9
$CECOLOR
 62
   256
  9
$CELTSCALE
 40
1.0
  9
$DISPSILH
 70
     0
  9
$DIMSCALE
 40
10.0
  9
$DIMASZ
 40
2.5
  9
$DIMEXO
 40
1.0
  9
$DIMDLI
 40
10.0
  9
$DIMRND
 40
0.0
  9
$DIMDLE
 40
0.0
  9
$DIMEXE
 40
2.0
  9
$DIMTP
 40
0.0
  9
$DIMTM
 40
0.0
  9
$DIMTXT
 40
3.0
  9
$DIMCEN
 40
2.5
  9
$DIMTSZ
 40
0.0
  9
$DIMTOL
 70
     0
  9
$DIMLIM
 70
     0
  9
$DIMTIH
 70
     0
  9
$DIMTOH
 70
     0
  9
$DIMSE1
 70
     0
  9
$DIMSE2
 70
     0
  9
$DIMTAD
 70
     1
  9
$DIMZIN
 70
     8
  9
$DIMBLK
  1
OPEN30
  9
$DIMASO
 70
     1
  9
$DIMSHO
 70
     1
  9
$DIMPOST
  1

  9
$DIMAPOST
  1

  9
$DIMALT
 70
     0
  9
$DIMALTD
 70
     3
  9
$DIMALTF
 40
0.03937007874016
  9
$DIMLFAC
 40
2.0
  9
$DIMTOFL
 70
     1
  9
$DIMTVP
 40
0.0
  9
$DIMTIX
 70
     0
  9
$DIMSOXD
 70
     0
  9
$DIMSAH
 70
     0
  9
$DIMBLK1
  1

  9
$DIMBLK2
  1

  9
$DIMSTYLE
  2
Standard2
  9
$DIMCLRD
 70
   256
  9
$DIMCLRE
 70
   256
  9
$DIMCLRT
 70
   256
  9
$DIMTFAC
 40
1.0
  9
$DIMGAP
 40
1.0
  9
$DIMJUST
 70
     0
  9
$DIMSD1
 70
     0
  9
$DIMSD2
 70
     0
  9
$DIMTOLJ
 70
     0
  9
$DIMTZIN
 70
     8
  9
$DIMALTZ
 70
     0
  9
$DIMALTTZ
 70
     0
  9
$DIMUPT
 70
     0
  9
$DIMDEC
 70
     0
  9
$DIMTDEC
 70
     0
  9
$DIMALTU
 70
     2
  9
$DIMALTTD
 70
     3
  9
$DIMTXSTY
  7
Standard
  9
$DIMAUNIT
 70
     0
  9
$DIMADEC
 70
     0
  9
$DIMALTRND
 40
0.0
  9
$DIMAZIN
 70
     0
  9
$DIMDSEP
 70
    46
  9
$DIMATFIT
 70
     3
  9
$DIMFRAC
 70
     0
  9
$DIMLDRBLK
  1
OPEN30
  9
$DIMLUNIT
 70
     2
  9
$DIMLWD
 70
    -2
  9
$DIMLWE
 70
    -2
  9
$DIMTMOVE
 70
     0
  9
$LUNITS
 70
     2
  9
$LUPREC
 70
     4
  9
$SKETCHINC
 40
1.0
  9
$FILLETRAD
 40
10.0
  9
$AUNITS
 70
     0
  9
$AUPREC
 70
     0
  9
$MENU
  1
.
  9
$ELEVATION
 40
0.0
  9
$PELEVATION
 40
0.0
  9
$THICKNESS
 40
0.0
  9
$LIMCHECK
 70
     0
  9
$CHAMFERA
 40
10.0
  9
$CHAMFERB
 40
10.0
  9
$CHAMFERC
 40
20.0
  9
$CHAMFERD
 40
0.0
  9
$SKPOLY
 70
     0
  9
$TDCREATE
 40
2454638.702397557
  9
$TDUCREATE
 40
2454638.327397558
  9
$TDUPDATE
 40
2454642.414795011
  9
$TDUUPDATE
 40
2454642.039795011
  9
$TDINDWG
 40
0.0206683449
  9
$TDUSRTIMER
 40
0.0206683449
  9
$USRTIMER
 70
     1
  9
$ANGBASE
 50
0.0
  9
$ANGDIR
 70
     0
  9
$PDMODE
 70
     0
  9
$PDSIZE
 40
0.0
  9
$PLINEWID
 40
0.0
  9
$SPLFRAME
 70
     0
  9
$SPLINETYPE
 70
     6
  9
$SPLINESEGS
 70
     8
  9
$HANDSEED
  5
B7D
  9
$SURFTAB1
 70
     6
  9
$SURFTAB2
 70
     6
  9
$SURFTYPE
 70
     6
  9
$SURFU
 70
     6
  9
$SURFV
 70
     6
  9
$UCSBASE
  2

  9
$UCSNAME
  2

  9
$UCSORG
 10
0.0
 20
0.0
 30
0.0
  9
$UCSXDIR
 10
1.0
 20
0.0
 30
0.0
  9
$UCSYDIR
 10
0.0
 20
1.0
 30
0.0
  9
$UCSORTHOREF
  2

  9
$UCSORTHOVIEW
 70
     0
  9
$UCSORGTOP
 10
0.0
 20
0.0
 30
0.0
  9
$UCSORGBOTTOM
 10
0.0
 20
0.0
 30
0.0
  9
$UCSORGLEFT
 10
0.0
 20
0.0
 30
0.0
  9
$UCSORGRIGHT
 10
0.0
 20
0.0
 30
0.0
  9
$UCSORGFRONT
 10
0.0
 20
0.0
 30
0.0
  9
$UCSORGBACK
 10
0.0
 20
0.0
 30
0.0
  9
$PUCSBASE
  2

  9
$PUCSNAME
  2

  9
$PUCSORG
 10
0.0
 20
0.0
 30
0.0
  9
$PUCSXDIR
 10
1.0
 20
0.0
 30
0.0
  9
$PUCSYDIR
 10
0.0
 20
1.0
 30
0.0
  9
$PUCSORTHOREF
  2

  9
$PUCSORTHOVIEW
 70
     0
  9
$PUCSORGTOP
 10
0.0
 20
0.0
 30
0.0
  9
$PUCSORGBOTTOM
 10
0.0
 20
0.0
 30
0.0
  9
$PUCSORGLEFT
 10
0.0
 20
0.0
 30
0.0
  9
$PUCSORGRIGHT
 10
0.0
 20
0.0
 30
0.0
  9
$PUCSORGFRONT
 10
0.0
 20
0.0
 30
0.0
  9
$PUCSORGBACK
 10
0.0
 20
0.0
 30
0.0
  9
$USERI1
 70
     0
  9
$USERI2
 70
     0
  9
$USERI3
 70
     0
  9
$USERI4
 70
     0
  9
$USERI5
 70
     0
  9
$USERR1
 40
0.0
  9
$USERR2
 40
0.0
  9
$USERR3
 40
0.0
  9
$USERR4
 40
0.0
  9
$USERR5
 40
0.0
  9
$WORLDVIEW
 70
     1
  9
$SHADEDGE
 70
     3
  9
$SHADEDIF
 70
    70
  9
$TILEMODE
 70
     1
  9
$MAXACTVP
 70
    64
  9
$PINSBASE
 10
0.0
 20
0.0
 30
0.0
  9
$PLIMCHECK
 70
     0
  9
$PEXTMIN
 10
28.51784982681273
 20
19.82258291244505
 30
0.0
  9
$PEXTMAX
 10
256.6606484413147
 20
178.4032462120056
 30
0.0
  9
$PLIMMIN
 10
-5.873748779296875
 20
-5.873749732971191
  9
$PLIMMAX
 10
291.05224609375
 20
204.0995779037475
  9
$UNITMODE
 70
     0
  9
$VISRETAIN
 70
     1
  9
$PLINEGEN
 70
     0
  9
$PSLTSCALE
 70
     1
  9
$TREEDEPTH
 70
  3020
  9
$CMLSTYLE
  2
Standard
  9
$CMLJUST
 70
     0
  9
$CMLSCALE
 40
20.0
  9
$PROXYGRAPHICS
 70
     1
  9
$MEASUREMENT
 70
     1
  9
$CELWEIGHT
370
    -1
  9
$ENDCAPS
280
     0
  9
$JOINSTYLE
280
     0
  9
$LWDISPLAY
290
     0
  9
$INSUNITS
 70
     4
  9
$HYPERLINKBASE
  1

  9
$STYLESHEET
  1
monochrome.ctb
  9
$XEDIT
290
     1
  9
$CEPSNTYPE
380
     0
  9
$PSTYLEMODE
290
     1
  9
$FINGERPRINTGUID
  2
{07CDAAF1-DA66-45F7-A80E-8801B27A917F}
  9
$VERSIONGUID
  2
{8C1AED11-F67C-4B0C-9034-947A9F68BFA1}
  9
$EXTNAMES
290
     1
  9
$PSVPSCALE
 40
0.0
  9
$OLESTARTUP
290
     0
  0
ENDSEC
  0
SECTION
  2
CLASSES
  0
CLASS
  1
ACDBDICTIONARYWDFLT
  2
AcDbDictionaryWithDefault
  3
AutoCAD 2000
 90
        0
280
     0
281
     0
  0
CLASS
  1
ACDBPLACEHOLDER
  2
AcDbPlaceHolder
  3
AutoCAD 2000
 90
        0
280
     0
281
     0
  0
CLASS
  1
LAYOUT
  2
AcDbLayout
  3
AutoCAD 2000
 90
        0
280
     0
281
     0
  0
CLASS
  1
DICTIONARYVAR
  2
AcDbDictionaryVar
  3
AutoCAD 2000
 90
        0
280
     0
281
     0
  0
CLASS
  1
DIMASSOC
  2
AcDbDimAssoc
  3
"AcDbDimAssoc|Product Desc:     AcDim ARX App For Dimension|Company:          Autodesk, Inc.|WEB Address:      www.autodesk.com"
 90
        0
280
     0
281
     0
  0
ENDSEC
  0
SECTION
  2
TABLES
  0
TABLE
  2
VPORT
  5
8
330
0
100
AcDbSymbolTable
 70
     2
  0
VPORT
  5
B7C
330
8
100
AcDbSymbolTableRecord
100
AcDbViewportTableRecord
  2
*Active
 70
     0
 10
0.0
 20
0.0
 11
1.0
 21
1.0
 12
2179.815250698835
 22
1009.250117089743
 13
0.0
 23
0.0
 14
10.0
 24
10.0
 15
10.0
 25
10.0
 16
0.0
 26
0.0
 36
1.0
 17
0.0
 27
0.0
 37
0.0
 40
2656.434555310551
 41
1.64931506849315
 42
50.0
 43
0.0
 44
0.0
 50
0.0
 51
0.0
 71
     0
 72
   100
 73
     1
 74
     3
 75
     0
 76
     0
 77
     0
 78
     0
281
     0
 65
     1
110
0.0
120
0.0
130
0.0
111
1.0
121
0.0
131
0.0
112
0.0
122
1.0
132
0.0
 79
     0
146
0.0
  0
ENDTAB
  0
TABLE
  2
LTYPE
  5
5
330
0
100
AcDbSymbolTable
 70
     2
  0
LTYPE
  5
14
330
5
100
AcDbSymbolTableRecord
100
AcDbLinetypeTableRecord
  2
ByBlock
 70
     0
  3

 72
    65
 73
     0
 40
0.0
  0
LTYPE
  5
15
330
5
100
AcDbSymbolTableRecord
100
AcDbLinetypeTableRecord
  2
ByLayer
 70
     0
  3

 72
    65
 73
     0
 40
0.0
  0
LTYPE
  5
16
330
5
100
AcDbSymbolTableRecord
100
AcDbLinetypeTableRecord
  2
Continuous
 70
     0
  3
Solid line
 72
    65
 73
     0
 40
0.0
  0
LTYPE
  5
D9
330
5
100
AcDbSymbolTableRecord
100
AcDbLinetypeTableRecord
  2
DASHED
 70
     0
  3
Dashed __ __ __ __ __ __ __ __ __ __ __ __ __ _
 72
    65
 73
     2
 40
0.75
 49
0.5
 74
     0
 49
-0.25
 74
     0
  0
ENDTAB
  0
TABLE
  2
LAYER
  5
2
330
0
100
AcDbSymbolTable
 70
     6
  0
LAYER
  5
10
330
2
100
AcDbSymbolTableRecord
100
AcDbLayerTableRecord
  2
0
 70
     0
 62
     7
  6
Continuous
370
    -3
390
F
  0
LAYER
  5
DA
330
2
100
AcDbSymbolTableRecord
100
AcDbLayerTableRecord
  2
DEFPOINTS
 70
     0
 62
     7
  6
Continuous
290
     0
370
    -3
390
F
  0
LAYER
  5
DB
330
2
100
AcDbSymbolTableRecord
100
AcDbLayerTableRecord
  2
D-STR
 70
     0
 62
     1
  6
Continuous
370
    -3
390
F
  0
LAYER
  5
DC
330
2
100
AcDbSymbolTableRecord
100
AcDbLayerTableRecord
  2
D-STR-TXT
 70
     0
 62
     7
  6
Continuous
370
    15
390
F
  0
LAYER
  5
DD
330
2
100
AcDbSymbolTableRecord
100
AcDbLayerTableRecord
  2
D-STR-DIM
 70
     0
 62
     7
  6
Continuous
370
    15
390
F
  0
LAYER
  5
DE
330
2
100
AcDbSymbolTableRecord
100
AcDbLayerTableRecord
  2
D-STR-STR1
 70
     0
 62
     4
  6
Continuous
370
    -3
390
F
  0
ENDTAB
  0
TABLE
  2
STYLE
  5
3
330
0
100
AcDbSymbolTable
 70
     1
  0
STYLE
  5
11
330
3
100
AcDbSymbolTableRecord
100
AcDbTextStyleTableRecord
  2
Standard
 70
     0
 40
0.0
 41
0.8
 50
0.0
 71
     0
 42
2.5
  3
MS Gothic.ttf
  4

1001
ACAD
1000
MS Gothic
1071
    32817
  0
ENDTAB
  0
TABLE
  2
VIEW
  5
6
330
0
100
AcDbSymbolTable
 70
     0
  0
ENDTAB
  0
TABLE
  2
UCS
  5
7
330
0
100
AcDbSymbolTable
 70
     0
  0
ENDTAB
  0
TABLE
  2
APPID
  5
9
330
0
100
AcDbSymbolTable
 70
     2
  0
APPID
  5
12
330
9
100
AcDbSymbolTableRecord
100
AcDbRegAppTableRecord
  2
ACAD
 70
     0
  0
APPID
  5
676
330
9
100
AcDbSymbolTableRecord
100
AcDbRegAppTableRecord
  2
DCO15
 70
     0
  0
ENDTAB
  0
TABLE
  2
DIMSTYLE
  5
A
330
0
100
AcDbSymbolTable
 70
     2
100
AcDbDimStyleTable
 71
     2
340
A3D
340
E0
  0
DIMSTYLE
105
E0
102
{ACAD_REACTORS
330
495
330
319
330
31A
330
31B
330
31C
330
31D
330
31E
330
31F
330
351
330
3BA
330
411
330
412
330
413
330
41A
102
}
330
A
100
AcDbSymbolTableRecord
100
AcDbDimStyleTableRecord
  2
Standard
 70
     0
 40
10.0
 41
2.5
 42
1.0
 43
10.0
 44
2.0
 73
     0
 74
     0
 77
     1
 78
     8
140
3.0
141
2.5
143
0.03937007874016
147
1.0
171
     3
172
     1
176
   256
177
   256
178
   256
271
     0
272
     0
274
     3
283
     0
284
     8
340
11
341
2B
342
2B
  0
DIMSTYLE
105
A3D
102
{ACAD_REACTORS
330
9D9
330
9B7
330
A74
330
AA5
330
B0F
102
}
330
A
100
AcDbSymbolTableRecord
100
AcDbDimStyleTableRecord
  2
Standard2
 70
     0
 40
10.0
 41
2.5
 42
1.0
 43
10.0
 44
2.0
 73
     0
 74
     0
 77
     1
 78
     8
140
3.0
141
2.5
143
0.03937007874016
144
2.0
147
1.0
171
     3
172
     1
176
   256
177
   256
178
   256
271
     0
272
     0
274
     3
283
     0
284
     8
340
11
341
2B
342
2B
  0
ENDTAB
  0
TABLE
  2
BLOCK_RECORD
  5
1
330
0
100
AcDbSymbolTable
 70
    21
  0
BLOCK_RECORD
  5
1F
330
1
100
AcDbSymbolTableRecord
100
AcDbBlockTableRecord
  2
*Model_Space
340
22
  0
BLOCK_RECORD
  5
1B
330
1
100
AcDbSymbolTableRecord
100
AcDbBlockTableRecord
  2
*Paper_Space
340
1E
  0
BLOCK_RECORD
  5
23
330
1
100
AcDbSymbolTableRecord
100
AcDbBlockTableRecord
  2
*Paper_Space0
340
26
  0
BLOCK_RECORD
  5
2B
330
1
100
AcDbSymbolTableRecord
100
AcDbBlockTableRecord
  2
_OPEN30
340
0
102
{BLKREFS
331
601
331
602
331
60A
331
60B
331
613
331
614
331
61C
331
61D
331
625
331
626
331
62E
331
62F
331
637
331
638
331
640
331
641
331
649
331
64A
331
652
331
653
331
65B
331
65C
331
664
331
665
331
66D
331
66E
331
B09
331
B0A
331
B4E
331
B4F
331
B57
331
B58
331
B60
331
B61
331
B69
331
B6A
331
B72
331
B73
102
}
  0
BLOCK_RECORD
  5
54D
330
1
100
AcDbSymbolTableRecord
100
AcDbBlockTableRecord
  2
*D2
340
0
  0
BLOCK_RECORD
  5
559
330
1
100
AcDbSymbolTableRecord
100
AcDbBlockTableRecord
  2
*D3
340
0
  0
BLOCK_RECORD
  5
565
330
1
100
AcDbSymbolTableRecord
100
AcDbBlockTableRecord
  2
*D4
340
0
  0
BLOCK_RECORD
  5
571
330
1
100
AcDbSymbolTableRecord
100
AcDbBlockTableRecord
  2
*D5
340
0
  0
BLOCK_RECORD
  5
57D
330
1
100
AcDbSymbolTableRecord
100
AcDbBlockTableRecord
  2
*D6
340
0
  0
BLOCK_RECORD
  5
589
330
1
100
AcDbSymbolTableRecord
100
AcDbBlockTableRecord
  2
*D7
340
0
  0
BLOCK_RECORD
  5
595
330
1
100
AcDbSymbolTableRecord
100
AcDbBlockTableRecord
  2
*D8
340
0
  0
BLOCK_RECORD
  5
5A1
330
1
100
AcDbSymbolTableRecord
100
AcDbBlockTableRecord
  2
*D9
340
0
  0
BLOCK_RECORD
  5
5AD
330
1
100
AcDbSymbolTableRecord
100
AcDbBlockTableRecord
  2
*D10
340
0
  0
BLOCK_RECORD
  5
5B9
330
1
100
AcDbSymbolTableRecord
100
AcDbBlockTableRecord
  2
*D11
340
0
  0
BLOCK_RECORD
  5
5C5
330
1
100
AcDbSymbolTableRecord
100
AcDbBlockTableRecord
  2
*D12
340
0
  0
BLOCK_RECORD
  5
5D1
330
1
100
AcDbSymbolTableRecord
100
AcDbBlockTableRecord
  2
*D13
340
0
  0
BLOCK_RECORD
  5
5DD
330
1
100
AcDbSymbolTableRecord
100
AcDbBlockTableRecord
  2
*D14
340
0
  0
BLOCK_RECORD
  5
5E9
330
1
100
AcDbSymbolTableRecord
100
AcDbBlockTableRecord
  2
*D15
340
0
  0
BLOCK_RECORD
  5
9B8
330
1
100
AcDbSymbolTableRecord
100
AcDbBlockTableRecord
  2
*D16
340
0
  0
BLOCK_RECORD
  5
A31
330
1
100
AcDbSymbolTableRecord
100
AcDbBlockTableRecord
  2
*D17
340
0
  0
BLOCK_RECORD
  5
A75
330
1
100
AcDbSymbolTableRecord
100
AcDbBlockTableRecord
  2
*D18
340
0
  0
BLOCK_RECORD
  5
AA6
330
1
100
AcDbSymbolTableRecord
100
AcDbBlockTableRecord
  2
*D19
340
0
  0
BLOCK_RECORD
  5
B10
330
1
100
AcDbSymbolTableRecord
100
AcDbBlockTableRecord
  2
*D20
340
0
  0
ENDTAB
  0
ENDSEC
  0
SECTION
  2
BLOCKS
  0
BLOCK
  5
20
330
1F
100
AcDbEntity
  8
0
100
AcDbBlockBegin
  2
*Model_Space
 70
     0
 10
0.0
 20
0.0
 30
0.0
  3
*Model_Space
  1

  0
ENDBLK
  5
21
330
1F
100
AcDbEntity
  8
0
100
AcDbBlockEnd
  0
BLOCK
  5
1C
330
1B
100
AcDbEntity
 67
     1
  8
0
100
AcDbBlockBegin
  2
*Paper_Space
 70
     0
 10
0.0
 20
0.0
 30
0.0
  3
*Paper_Space
  1

  0
ENDBLK
  5
1D
330
1B
100
AcDbEntity
 67
     1
  8
0
100
AcDbBlockEnd
  0
BLOCK
  5
24
330
23
100
AcDbEntity
  8
0
100
AcDbBlockBegin
  2
*Paper_Space0
 70
     0
 10
0.0
 20
0.0
 30
0.0
  3
*Paper_Space0
  1

  0
ENDBLK
  5
25
330
23
100
AcDbEntity
  8
0
100
AcDbBlockEnd
  0
BLOCK
  5
2F
330
2B
100
AcDbEntity
  8
0
100
AcDbBlockBegin
  2
_OPEN30
 70
     0
 10
0.0
 20
0.0
 30
0.0
  3
_OPEN30
  1

  0
LINE
  5
2C
330
2B
100
AcDbEntity
  8
0
  6
ByBlock
 62
     0
100
AcDbLine
 10
-1.0
 20
0.26794919
 30
0.0
 11
0.0
 21
0.0
 31
0.0
  0
LINE
  5
2D
330
2B
100
AcDbEntity
  8
0
  6
ByBlock
 62
     0
100
AcDbLine
 10
0.0
 20
0.0
 30
0.0
 11
-1.0
 21
-0.26794919
 31
0.0
  0
LINE
  5
2E
330
2B
100
AcDbEntity
  8
0
  6
ByBlock
 62
     0
100
AcDbLine
 10
0.0
 20
0.0
 30
0.0
 11
-1.0
 21
0.0
 31
0.0
  0
ENDBLK
  5
30
330
2B
100
AcDbEntity
  8
0
100
AcDbBlockEnd
  0
BLOCK
  5
557
330
54D
100
AcDbEntity
  8
0
100
AcDbBlockBegin
  2
*D2
 70
     1
 10
0.0
 20
0.0
 30
0.0
  3
*D2
  1

  0
LINE
  5
B06
330
54D
100
AcDbEntity
  8
D-STR-DIM
370
    -2
100
AcDbLine
 10
1778.712159459455
 20
1408.405125971386
 30
0.0
 11
1845.937344268871
 21
1408.405125971386
 31
0.0
  0
LINE
  5
B07
330
54D
100
AcDbEntity
  8
D-STR-DIM
370
    -2
100
AcDbLine
 10
1769.269126728056
 20
1310.821155968691
 30
0.0
 11
1845.937344268871
 21
1310.821155968691
 31
0.0
  0
LINE
  5
B08
330
54D
100
AcDbEntity
  8
D-STR-DIM
370
    -2
100
AcDbLine
 10
1825.937344268871
 20
1383.405125971385
 30
0.0
 11
1825.937344268871
 21
1335.821155968691
 31
0.0
  0
INSERT
  5
B09
330
54D
100
AcDbEntity
  8
D-STR-DIM
370
    -2
100
AcDbBlockReference
  2
_OPEN30
 10
1825.937344268871
 20
1408.405125971386
 30
0.0
 41
25.0
 42
25.0
 43
25.0
 50
90.0
  0
INSERT
  5
B0A
330
54D
100
AcDbEntity
  8
D-STR-DIM
370
    -2
100
AcDbBlockReference
  2
_OPEN30
 10
1825.937344268871
 20
1310.821155968691
 30
0.0
 41
25.0
 42
25.0
 43
25.0
 50
270.0
  0
MTEXT
  5
B0B
330
54D
100
AcDbEntity
  8
D-STR-DIM
100
AcDbMText
 10
1800.937344268871
 20
1359.613140970039
 30
0.0
 40
30.0
 41
0.0
 71
     5
 72
     1
  1
85
 11
0.0000000000000001
 21
1.0
 31
0.0
 73
     1
 44
1.0
  0
POINT
  5
B0C
330
54D
100
AcDbEntity
  8
DEFPOINTS
 62
     0
100
AcDbPoint
 10
1768.712159459456
 20
1408.405125971386
 30
0.0
  0
POINT
  5
B0D
330
54D
100
AcDbEntity
  8
DEFPOINTS
 62
     0
100
AcDbPoint
 10
1759.269126728056
 20
1310.821155968691
 30
0.0
  0
POINT
  5
B0E
330
54D
100
AcDbEntity
  8
DEFPOINTS
 62
     0
100
AcDbPoint
 10
1825.937344268871
 20
1310.821155968691
 30
0.0
  0
ENDBLK
  5
558
330
54D
100
AcDbEntity
  8
0
100
AcDbBlockEnd
  0
BLOCK
  5
563
330
559
100
AcDbEntity
  8
0
100
AcDbBlockBegin
  2
*D3
 70
     1
 10
0.0
 20
0.0
 30
0.0
  3
*D3
  1

  0
LINE
  5
5FE
330
559
100
AcDbEntity
  8
D-STR-DIM
370
    -2
100
AcDbLine
 10
751.2230695677248
 20
1558.07934418209
 30
0.0
 11
947.2230695677248
 21
1558.07934418209
 31
0.0
  0
LINE
  5
5FF
330
559
100
AcDbEntity
  8
D-STR-DIM
370
    -2
100
AcDbLine
 10
751.2230695677248
 20
1377.582301182092
 30
0.0
 11
947.2230695677248
 21
1377.582301182092
 31
0.0
  0
LINE
  5
600
330
559
100
AcDbEntity
  8
D-STR-DIM
370
    -2
100
AcDbLine
 10
927.2230695677249
 20
1533.07934418209
 30
0.0
 11
927.2230695677249
 21
1402.582301182092
 31
0.0
  0
INSERT
  5
601
330
559
100
AcDbEntity
  8
D-STR-DIM
370
    -2
100
AcDbBlockReference
  2
_OPEN30
 10
927.2230695677249
 20
1558.07934418209
 30
0.0
 41
25.0
 42
25.0
 43
25.0
 50
90.0
  0
INSERT
  5
602
330
559
100
AcDbEntity
  8
D-STR-DIM
370
    -2
100
AcDbBlockReference
  2
_OPEN30
 10
927.2230695677249
 20
1377.582301182092
 30
0.0
 41
25.0
 42
25.0
 43
25.0
 50
270.0
  0
MTEXT
  5
603
330
559
100
AcDbEntity
  8
D-STR-DIM
100
AcDbMText
 10
902.2230695677247
 20
1467.830822682091
 30
0.0
 40
30.0
 41
0.0
 71
     5
 72
     1
  1
180
 11
0.0000000000000001
 21
1.0
 31
0.0
 73
     1
 44
1.0
  0
POINT
  5
604
330
559
100
AcDbEntity
  8
DEFPOINTS
 62
     0
100
AcDbPoint
 10
741.2230695677249
 20
1558.07934418209
 30
0.0
  0
POINT
  5
605
330
559
100
AcDbEntity
  8
DEFPOINTS
 62
     0
100
AcDbPoint
 10
741.2230695677249
 20
1377.582301182092
 30
0.0
  0
POINT
  5
606
330
559
100
AcDbEntity
  8
DEFPOINTS
 62
     0
100
AcDbPoint
 10
927.2230695677249
 20
1377.582301182092
 30
0.0
  0
ENDBLK
  5
564
330
559
100
AcDbEntity
  8
0
100
AcDbBlockEnd
  0
BLOCK
  5
56F
330
565
100
AcDbEntity
  8
0
100
AcDbBlockBegin
  2
*D4
 70
     1
 10
0.0
 20
0.0
 30
0.0
  3
*D4
  1

  0
LINE
  5
607
330
565
100
AcDbEntity
  8
D-STR-DIM
370
    -2
100
AcDbLine
 10
757.2230695677249
 20
1457.77286618209
 30
0.0
 11
867.2230695677249
 21
1457.77286618209
 31
0.0
  0
LINE
  5
608
330
565
100
AcDbEntity
  8
D-STR-DIM
370
    -2
100
AcDbLine
 10
751.2230695677248
 20
1558.07934418209
 30
0.0
 11
867.2230695677249
 21
1558.07934418209
 31
0.0
  0
LINE
  5
609
330
565
100
AcDbEntity
  8
D-STR-DIM
370
    -2
100
AcDbLine
 10
847.2230695677248
 20
1482.77286618209
 30
0.0
 11
847.2230695677248
 21
1533.07934418209
 31
0.0
  0
INSERT
  5
60A
330
565
100
AcDbEntity
  8
D-STR-DIM
370
    -2
100
AcDbBlockReference
  2
_OPEN30
 10
847.2230695677248
 20
1457.77286618209
 30
0.0
 41
25.0
 42
25.0
 43
25.0
 50
270.0
  0
INSERT
  5
60B
330
565
100
AcDbEntity
  8
D-STR-DIM
370
    -2
100
AcDbBlockReference
  2
_OPEN30
 10
847.2230695677248
 20
1558.07934418209
 30
0.0
 41
25.0
 42
25.0
 43
25.0
 50
90.0
  0
MTEXT
  5
60C
330
565
100
AcDbEntity
  8
D-STR-DIM
100
AcDbMText
 10
822.2230695677247
 20
1507.92610518209
 30
0.0
 40
30.0
 41
0.0
 71
     5
 72
     1
  1
100
 11
0.0000000000000001
 21
1.0
 31
0.0
 73
     1
 44
1.0
  0
POINT
  5
60D
330
565
100
AcDbEntity
  8
DEFPOINTS
 62
     0
100
AcDbPoint
 10
747.2230695677248
 20
1457.77286618209
 30
0.0
  0
POINT
  5
60E
330
565
100
AcDbEntity
  8
DEFPOINTS
 62
     0
100
AcDbPoint
 10
741.2230695677249
 20
1558.07934418209
 30
0.0
  0
POINT
  5
60F
330
565
100
AcDbEntity
  8
DEFPOINTS
 62
     0
100
AcDbPoint
 10
847.2230695677248
 20
1558.07934418209
 30
0.0
  0
ENDBLK
  5
570
330
565
100
AcDbEntity
  8
0
100
AcDbBlockEnd
  0
BLOCK
  5
57B
330
571
100
AcDbEntity
  8
0
100
AcDbBlockBegin
  2
*D5
 70
     1
 10
0.0
 20
0.0
 30
0.0
  3
*D5
  1

  0
LINE
  5
610
330
571
100
AcDbEntity
  8
D-STR-DIM
370
    -2
100
AcDbLine
 10
751.2230695677248
 20
1377.582301182092
 30
0.0
 11
867.2230695677249
 21
1377.582301182092
 31
0.0
  0
LINE
  5
611
330
571
100
AcDbEntity
  8
D-STR-DIM
370
    -2
100
AcDbLine
 10
757.2230695677249
 20
1457.77286618209
 30
0.0
 11
867.2230695677249
 21
1457.77286618209
 31
0.0
  0
LINE
  5
612
330
571
100
AcDbEntity
  8
D-STR-DIM
370
    -2
100
AcDbLine
 10
847.2230695677248
 20
1402.582301182092
 30
0.0
 11
847.2230695677248
 21
1432.77286618209
 31
0.0
  0
INSERT
  5
613
330
571
100
AcDbEntity
  8
D-STR-DIM
370
    -2
100
AcDbBlockReference
  2
_OPEN30
 10
847.2230695677248
 20
1377.582301182092
 30
0.0
 41
25.0
 42
25.0
 43
25.0
 50
270.0
  0
INSERT
  5
614
330
571
100
AcDbEntity
  8
D-STR-DIM
370
    -2
100
AcDbBlockReference
  2
_OPEN30
 10
847.2230695677248
 20
1457.77286618209
 30
0.0
 41
25.0
 42
25.0
 43
25.0
 50
90.0
  0
MTEXT
  5
615
330
571
100
AcDbEntity
  8
D-STR-DIM
100
AcDbMText
 10
822.2230695677247
 20
1417.677583682091
 30
0.0
 40
30.0
 41
0.0
 71
     5
 72
     1
  1
80
 11
0.0000000000000001
 21
1.0
 31
0.0
 73
     1
 44
1.0
  0
POINT
  5
616
330
571
100
AcDbEntity
  8
DEFPOINTS
 62
     0
100
AcDbPoint
 10
741.2230695677249
 20
1377.582301182092
 30
0.0
  0
POINT
  5
617
330
571
100
AcDbEntity
  8
DEFPOINTS
 62
     0
100
AcDbPoint
 10
747.2230695677248
 20
1457.77286618209
 30
0.0
  0
POINT
  5
618
330
571
100
AcDbEntity
  8
DEFPOINTS
 62
     0
100
AcDbPoint
 10
847.2230695677248
 20
1457.77286618209
 30
0.0
  0
ENDBLK
  5
57C
330
571
100
AcDbEntity
  8
0
100
AcDbBlockEnd
  0
BLOCK
  5
587
330
57D
100
AcDbEntity
  8
0
100
AcDbBlockBegin
  2
*D6
 70
     1
 10
0.0
 20
0.0
 30
0.0
  3
*D6
  1

  0
LINE
  5
619
330
57D
100
AcDbEntity
  8
D-STR-DIM
370
    -2
100
AcDbLine
 10
750.1409565677245
 20
1043.471525182091
 30
0.0
 11
866.1409565677244
 21
1043.471525182091
 31
0.0
  0
LINE
  5
61A
330
57D
100
AcDbEntity
  8
D-STR-DIM
370
    -2
100
AcDbLine
 10
750.1409565677245
 20
1163.471525182091
 30
0.0
 11
866.1409565677244
 21
1163.471525182091
 31
0.0
  0
LINE
  5
61B
330
57D
100
AcDbEntity
  8
D-STR-DIM
370
    -2
100
AcDbLine
 10
846.1409565677245
 20
1068.471525182091
 30
0.0
 11
846.1409565677245
 21
1138.471525182091
 31
0.0
  0
INSERT
  5
61C
330
57D
100
AcDbEntity
  8
D-STR-DIM
370
    -2
100
AcDbBlockReference
  2
_OPEN30
 10
846.1409565677245
 20
1043.471525182091
 30
0.0
 41
25.0
 42
25.0
 43
25.0
 50
270.0
  0
INSERT
  5
61D
330
57D
100
AcDbEntity
  8
D-STR-DIM
370
    -2
100
AcDbBlockReference
  2
_OPEN30
 10
846.1409565677245
 20
1163.471525182091
 30
0.0
 41
25.0
 42
25.0
 43
25.0
 50
90.0
  0
MTEXT
  5
61E
330
57D
100
AcDbEntity
  8
D-STR-DIM
100
AcDbMText
 10
821.1409565677243
 20
1103.471525182092
 30
0.0
 40
30.0
 41
0.0
 71
     5
 72
     1
  1
120
 11
0.0000000000000001
 21
1.0
 31
0.0
 73
     1
 44
1.0
  0
POINT
  5
61F
330
57D
100
AcDbEntity
  8
DEFPOINTS
 62
     0
100
AcDbPoint
 10
740.1409565677245
 20
1043.471525182091
 30
0.0
  0
POINT
  5
620
330
57D
100
AcDbEntity
  8
DEFPOINTS
 62
     0
100
AcDbPoint
 10
740.1409565677245
 20
1163.471525182091
 30
0.0
  0
POINT
  5
621
330
57D
100
AcDbEntity
  8
DEFPOINTS
 62
     0
100
AcDbPoint
 10
846.1409565677245
 20
1163.471525182091
 30
0.0
  0
ENDBLK
  5
588
330
57D
100
AcDbEntity
  8
0
100
AcDbBlockEnd
  0
BLOCK
  5
593
330
589
100
AcDbEntity
  8
0
100
AcDbBlockBegin
  2
*D7
 70
     1
 10
0.0
 20
0.0
 30
0.0
  3
*D7
  1

  0
LINE
  5
622
330
589
100
AcDbEntity
  8
D-STR-DIM
370
    -2
100
AcDbLine
 10
147.1409565677245
 20
1562.07934418209
 30
0.0
 11
147.1409565677245
 21
1738.07934418209
 31
0.0
  0
LINE
  5
623
330
589
100
AcDbEntity
  8
D-STR-DIM
370
    -2
100
AcDbLine
 10
747.2230695677248
 20
1562.07934418209
 30
0.0
 11
747.2230695677248
 21
1738.07934418209
 31
0.0
  0
LINE
  5
624
330
589
100
AcDbEntity
  8
D-STR-DIM
370
    -2
100
AcDbLine
 10
172.1409565677245
 20
1718.07934418209
 30
0.0
 11
722.2230695677248
 21
1718.07934418209
 31
0.0
  0
INSERT
  5
625
330
589
100
AcDbEntity
  8
D-STR-DIM
370
    -2
100
AcDbBlockReference
  2
_OPEN30
 10
147.1409565677245
 20
1718.07934418209
 30
0.0
 41
25.0
 42
25.0
 43
25.0
 50
180.0
  0
INSERT
  5
626
330
589
100
AcDbEntity
  8
D-STR-DIM
370
    -2
100
AcDbBlockReference
  2
_OPEN30
 10
747.2230695677248
 20
1718.07934418209
 30
0.0
 41
25.0
 42
25.0
 43
25.0
  0
MTEXT
  5
627
330
589
100
AcDbEntity
  8
D-STR-DIM
100
AcDbMText
 10
447.1820130677246
 20
1743.07934418209
 30
0.0
 40
30.0
 41
0.0
 71
     5
 72
     1
  1
600
 73
     1
 44
1.0
  0
POINT
  5
628
330
589
100
AcDbEntity
  8
DEFPOINTS
 62
     0
100
AcDbPoint
 10
147.1409565677245
 20
1552.07934418209
 30
0.0
  0
POINT
  5
629
330
589
100
AcDbEntity
  8
DEFPOINTS
 62
     0
100
AcDbPoint
 10
747.2230695677248
 20
1552.07934418209
 30
0.0
  0
POINT
  5
62A
330
589
100
AcDbEntity
  8
DEFPOINTS
 62
     0
100
AcDbPoint
 10
747.2230695677248
 20
1718.07934418209
 30
0.0
  0
ENDBLK
  5
594
330
589
100
AcDbEntity
  8
0
100
AcDbBlockEnd
  0
BLOCK
  5
59F
330
595
100
AcDbEntity
  8
0
100
AcDbBlockBegin
  2
*D8
 70
     1
 10
0.0
 20
0.0
 30
0.0
  3
*D8
  1

  0
LINE
  5
62B
330
595
100
AcDbEntity
  8
D-STR-DIM
370
    -2
100
AcDbLine
 10
217.190022567724
 20
1492.808375182091
 30
0.0
 11
217.190022567724
 21
1678.07934418209
 31
0.0
  0
LINE
  5
62C
330
595
100
AcDbEntity
  8
D-STR-DIM
370
    -2
100
AcDbLine
 10
147.1409565677245
 20
1562.07934418209
 30
0.0
 11
147.1409565677245
 21
1678.07934418209
 31
0.0
  0
LINE
  5
62D
330
595
100
AcDbEntity
  8
D-STR-DIM
370
    -2
100
AcDbLine
 10
192.1900225677241
 20
1658.07934418209
 30
0.0
 11
172.1409565677245
 21
1658.07934418209
 31
0.0
  0
INSERT
  5
62E
330
595
100
AcDbEntity
  8
D-STR-DIM
370
    -2
100
AcDbBlockReference
  2
_OPEN30
 10
217.190022567724
 20
1658.07934418209
 30
0.0
 41
25.0
 42
25.0
 43
25.0
  0
INSERT
  5
62F
330
595
100
AcDbEntity
  8
D-STR-DIM
370
    -2
100
AcDbBlockReference
  2
_OPEN30
 10
147.1409565677245
 20
1658.07934418209
 30
0.0
 41
25.0
 42
25.0
 43
25.0
 50
180.0
  0
MTEXT
  5
630
330
595
100
AcDbEntity
  8
D-STR-DIM
100
AcDbMText
 10
182.1654895677243
 20
1683.07934418209
 30
0.0
 40
30.0
 41
0.0
 71
     5
 72
     1
  1
70
 73
     1
 44
1.0
  0
POINT
  5
631
330
595
100
AcDbEntity
  8
DEFPOINTS
 62
     0
100
AcDbPoint
 10
217.190022567724
 20
1482.808375182091
 30
0.0
  0
POINT
  5
632
330
595
100
AcDbEntity
  8
DEFPOINTS
 62
     0
100
AcDbPoint
 10
147.1409565677245
 20
1552.07934418209
 30
0.0
  0
POINT
  5
633
330
595
100
AcDbEntity
  8
DEFPOINTS
 62
     0
100
AcDbPoint
 10
147.1409565677245
 20
1658.07934418209
 30
0.0
  0
ENDBLK
  5
5A0
330
595
100
AcDbEntity
  8
0
100
AcDbBlockEnd
  0
BLOCK
  5
5AB
330
5A1
100
AcDbEntity
  8
0
100
AcDbBlockBegin
  2
*D9
 70
     1
 10
0.0
 20
0.0
 30
0.0
  3
*D9
  1

  0
LINE
  5
634
330
5A1
100
AcDbEntity
  8
D-STR-DIM
370
    -2
100
AcDbLine
 10
146.1409565677245
 20
1047.754382182091
 30
0.0
 11
146.1409565677245
 21
923.4715251820915
 31
0.0
  0
LINE
  5
635
330
5A1
100
AcDbEntity
  8
D-STR-DIM
370
    -2
100
AcDbLine
 10
746.1409565677245
 20
1047.754382182091
 30
0.0
 11
746.1409565677245
 21
923.4715251820915
 31
0.0
  0
LINE
  5
636
330
5A1
100
AcDbEntity
  8
D-STR-DIM
370
    -2
100
AcDbLine
 10
171.1409565677245
 20
943.4715251820916
 30
0.0
 11
721.1409565677245
 21
943.4715251820916
 31
0.0
  0
INSERT
  5
637
330
5A1
100
AcDbEntity
  8
D-STR-DIM
370
    -2
100
AcDbBlockReference
  2
_OPEN30
 10
146.1409565677245
 20
943.4715251820916
 30
0.0
 41
25.0
 42
25.0
 43
25.0
 50
180.0
  0
INSERT
  5
638
330
5A1
100
AcDbEntity
  8
D-STR-DIM
370
    -2
100
AcDbBlockReference
  2
_OPEN30
 10
746.1409565677245
 20
943.4715251820916
 30
0.0
 41
25.0
 42
25.0
 43
25.0
  0
MTEXT
  5
639
330
5A1
100
AcDbEntity
  8
D-STR-DIM
100
AcDbMText
 10
446.1409565677245
 20
968.4715251820916
 30
0.0
 40
30.0
 41
0.0
 71
     5
 72
     1
  1
600
 73
     1
 44
1.0
  0
POINT
  5
63A
330
5A1
100
AcDbEntity
  8
DEFPOINTS
 62
     0
100
AcDbPoint
 10
146.1409565677245
 20
1057.754382182092
 30
0.0
  0
POINT
  5
63B
330
5A1
100
AcDbEntity
  8
DEFPOINTS
 62
     0
100
AcDbPoint
 10
746.1409565677245
 20
1057.754382182092
 30
0.0
  0
POINT
  5
63C
330
5A1
100
AcDbEntity
  8
DEFPOINTS
 62
     0
100
AcDbPoint
 10
746.1409565677245
 20
943.4715251820916
 30
0.0
  0
ENDBLK
  5
5AC
330
5A1
100
AcDbEntity
  8
0
100
AcDbBlockEnd
  0
BLOCK
  5
5B7
330
5AD
100
AcDbEntity
  8
0
100
AcDbBlockBegin
  2
*D10
 70
     1
 10
0.0
 20
0.0
 30
0.0
  3
*D10
  1

  0
LINE
  5
63D
330
5AD
100
AcDbEntity
  8
D-STR-DIM
370
    -2
100
AcDbLine
 10
217.190022567724
 20
1492.818710182092
 30
0.0
 11
217.190022567724
 21
1678.07934418209
 31
0.0
  0
LINE
  5
63E
330
5AD
100
AcDbEntity
  8
D-STR-DIM
370
    -2
100
AcDbLine
 10
677.1981195677248
 20
1492.818710182092
 30
0.0
 11
677.1981195677248
 21
1678.07934418209
 31
0.0
  0
LINE
  5
63F
330
5AD
100
AcDbEntity
  8
D-STR-DIM
370
    -2
100
AcDbLine
 10
242.190022567724
 20
1658.07934418209
 30
0.0
 11
652.1981195677248
 21
1658.07934418209
 31
0.0
  0
INSERT
  5
640
330
5AD
100
AcDbEntity
  8
D-STR-DIM
370
    -2
100
AcDbBlockReference
  2
_OPEN30
 10
217.190022567724
 20
1658.07934418209
 30
0.0
 41
25.0
 42
25.0
 43
25.0
 50
180.0
  0
INSERT
  5
641
330
5AD
100
AcDbEntity
  8
D-STR-DIM
370
    -2
100
AcDbBlockReference
  2
_OPEN30
 10
677.1981195677248
 20
1658.07934418209
 30
0.0
 41
25.0
 42
25.0
 43
25.0
  0
MTEXT
  5
642
330
5AD
100
AcDbEntity
  8
D-STR-DIM
100
AcDbMText
 10
447.1940710677245
 20
1683.07934418209
 30
0.0
 40
30.0
 41
0.0
 71
     5
 72
     1
  1
460
 73
     1
 44
1.0
  0
POINT
  5
643
330
5AD
100
AcDbEntity
  8
DEFPOINTS
 62
     0
100
AcDbPoint
 10
217.190022567724
 20
1482.818710182092
 30
0.0
  0
POINT
  5
644
330
5AD
100
AcDbEntity
  8
DEFPOINTS
 62
     0
100
AcDbPoint
 10
677.1981195677248
 20
1482.818710182092
 30
0.0
  0
POINT
  5
645
330
5AD
100
AcDbEntity
  8
DEFPOINTS
 62
     0
100
AcDbPoint
 10
677.1981195677248
 20
1658.07934418209
 30
0.0
  0
ENDBLK
  5
5B8
330
5AD
100
AcDbEntity
  8
0
100
AcDbBlockEnd
  0
BLOCK
  5
5C3
330
5B9
100
AcDbEntity
  8
0
100
AcDbBlockBegin
  2
*D11
 70
     1
 10
0.0
 20
0.0
 30
0.0
  3
*D11
  1

  0
LINE
  5
646
330
5B9
100
AcDbEntity
  8
D-STR-DIM
370
    -2
100
AcDbLine
 10
677.1981195677248
 20
1492.818710182092
 30
0.0
 11
677.1981195677248
 21
1678.07934418209
 31
0.0
  0
LINE
  5
647
330
5B9
100
AcDbEntity
  8
D-STR-DIM
370
    -2
100
AcDbLine
 10
747.2230695677248
 20
1562.07934418209
 30
0.0
 11
747.2230695677248
 21
1678.07934418209
 31
0.0
  0
LINE
  5
648
330
5B9
100
AcDbEntity
  8
D-STR-DIM
370
    -2
100
AcDbLine
 10
702.1981195677248
 20
1658.07934418209
 30
0.0
 11
722.2230695677248
 21
1658.07934418209
 31
0.0
  0
INSERT
  5
649
330
5B9
100
AcDbEntity
  8
D-STR-DIM
370
    -2
100
AcDbBlockReference
  2
_OPEN30
 10
677.1981195677248
 20
1658.07934418209
 30
0.0
 41
25.0
 42
25.0
 43
25.0
 50
180.0
  0
INSERT
  5
64A
330
5B9
100
AcDbEntity
  8
D-STR-DIM
370
    -2
100
AcDbBlockReference
  2
_OPEN30
 10
747.2230695677248
 20
1658.07934418209
 30
0.0
 41
25.0
 42
25.0
 43
25.0
  0
MTEXT
  5
64B
330
5B9
100
AcDbEntity
  8
D-STR-DIM
100
AcDbMText
 10
712.2105945677248
 20
1683.07934418209
 30
0.0
 40
30.0
 41
0.0
 71
     5
 72
     1
  1
70
 73
     1
 44
1.0
  0
POINT
  5
64C
330
5B9
100
AcDbEntity
  8
DEFPOINTS
 62
     0
100
AcDbPoint
 10
677.1981195677248
 20
1482.818710182092
 30
0.0
  0
POINT
  5
64D
330
5B9
100
AcDbEntity
  8
DEFPOINTS
 62
     0
100
AcDbPoint
 10
747.2230695677248
 20
1552.07934418209
 30
0.0
  0
POINT
  5
64E
330
5B9
100
AcDbEntity
  8
DEFPOINTS
 62
     0
100
AcDbPoint
 10
747.2230695677248
 20
1658.07934418209
 30
0.0
  0
ENDBLK
  5
5C4
330
5B9
100
AcDbEntity
  8
0
100
AcDbBlockEnd
  0
BLOCK
  5
5CF
330
5C5
100
AcDbEntity
  8
0
100
AcDbBlockBegin
  2
*D12
 70
     1
 10
0.0
 20
0.0
 30
0.0
  3
*D12
  1

  0
LINE
  5
64F
330
5C5
100
AcDbEntity
  8
D-STR-DIM
370
    -2
100
AcDbLine
 10
1117.923271567724
 20
1043.487179182092
 30
0.0
 11
1233.923271567724
 21
1043.487179182092
 31
0.0
  0
LINE
  5
650
330
5C5
100
AcDbEntity
  8
D-STR-DIM
370
    -2
100
AcDbLine
 10
1117.923271567724
 20
1163.487179182092
 30
0.0
 11
1233.923271567724
 21
1163.487179182092
 31
0.0
  0
LINE
  5
651
330
5C5
100
AcDbEntity
  8
D-STR-DIM
370
    -2
100
AcDbLine
 10
1213.923271567724
 20
1068.487179182092
 30
0.0
 11
1213.923271567724
 21
1138.487179182092
 31
0.0
  0
INSERT
  5
652
330
5C5
100
AcDbEntity
  8
D-STR-DIM
370
    -2
100
AcDbBlockReference
  2
_OPEN30
 10
1213.923271567724
 20
1043.487179182092
 30
0.0
 41
25.0
 42
25.0
 43
25.0
 50
270.0
  0
INSERT
  5
653
330
5C5
100
AcDbEntity
  8
D-STR-DIM
370
    -2
100
AcDbBlockReference
  2
_OPEN30
 10
1213.923271567724
 20
1163.487179182092
 30
0.0
 41
25.0
 42
25.0
 43
25.0
 50
90.0
  0
MTEXT
  5
654
330
5C5
100
AcDbEntity
  8
D-STR-DIM
100
AcDbMText
 10
1188.923271567723
 20
1103.487179182092
 30
0.0
 40
30.0
 41
0.0
 71
     5
 72
     1
  1
120
 11
0.0000000000000001
 21
1.0
 31
0.0
 73
     1
 44
1.0
  0
POINT
  5
655
330
5C5
100
AcDbEntity
  8
DEFPOINTS
 62
     0
100
AcDbPoint
 10
1107.923271567724
 20
1043.487179182092
 30
0.0
  0
POINT
  5
656
330
5C5
100
AcDbEntity
  8
DEFPOINTS
 62
     0
100
AcDbPoint
 10
1107.923271567724
 20
1163.487179182092
 30
0.0
  0
POINT
  5
657
330
5C5
100
AcDbEntity
  8
DEFPOINTS
 62
     0
100
AcDbPoint
 10
1213.923271567724
 20
1163.487179182092
 30
0.0
  0
ENDBLK
  5
5D0
330
5C5
100
AcDbEntity
  8
0
100
AcDbBlockEnd
  0
BLOCK
  5
5DB
330
5D1
100
AcDbEntity
  8
0
100
AcDbBlockBegin
  2
*D13
 70
     1
 10
0.0
 20
0.0
 30
0.0
  3
*D13
  1

  0
LINE
  5
658
330
5D1
100
AcDbEntity
  8
D-STR-DIM
370
    -2
100
AcDbLine
 10
1007.923271252006
 20
1173.487179182092
 30
0.0
 11
1007.923271252006
 21
1283.487179182092
 31
0.0
  0
LINE
  5
659
330
5D1
100
AcDbEntity
  8
D-STR-DIM
370
    -2
100
AcDbLine
 10
1107.923271567724
 20
1053.487179182092
 30
0.0
 11
1107.923271567724
 21
1283.487179182092
 31
0.0
  0
LINE
  5
65A
330
5D1
100
AcDbEntity
  8
D-STR-DIM
370
    -2
100
AcDbLine
 10
1032.923271252006
 20
1263.487179182092
 30
0.0
 11
1082.923271567723
 21
1263.487179182092
 31
0.0
  0
INSERT
  5
65B
330
5D1
100
AcDbEntity
  8
D-STR-DIM
370
    -2
100
AcDbBlockReference
  2
_OPEN30
 10
1007.923271252006
 20
1263.487179182092
 30
0.0
 41
25.0
 42
25.0
 43
25.0
 50
180.0
  0
INSERT
  5
65C
330
5D1
100
AcDbEntity
  8
D-STR-DIM
370
    -2
100
AcDbBlockReference
  2
_OPEN30
 10
1107.923271567724
 20
1263.487179182092
 30
0.0
 41
25.0
 42
25.0
 43
25.0
  0
MTEXT
  5
65D
330
5D1
100
AcDbEntity
  8
D-STR-DIM
100
AcDbMText
 10
1057.923271409864
 20
1288.487179182092
 30
0.0
 40
30.0
 41
0.0
 71
     5
 72
     1
  1
100
 73
     1
 44
1.0
  0
POINT
  5
65E
330
5D1
100
AcDbEntity
  8
DEFPOINTS
 62
     0
100
AcDbPoint
 10
1007.923271252006
 20
1163.487179182092
 30
0.0
  0
POINT
  5
65F
330
5D1
100
AcDbEntity
  8
DEFPOINTS
 62
     0
100
AcDbPoint
 10
1107.923271567724
 20
1043.487179182092
 30
0.0
  0
POINT
  5
660
330
5D1
100
AcDbEntity
  8
DEFPOINTS
 62
     0
100
AcDbPoint
 10
1107.923271567724
 20
1263.487179182092
 30
0.0
  0
ENDBLK
  5
5DC
330
5D1
100
AcDbEntity
  8
0
100
AcDbBlockEnd
  0
BLOCK
  5
5E7
330
5DD
100
AcDbEntity
  8
0
100
AcDbBlockBegin
  2
*D14
 70
     1
 10
0.0
 20
0.0
 30
0.0
  3
*D14
  1

  0
LINE
  5
661
330
5DD
100
AcDbEntity
  8
D-STR-DIM
370
    -2
100
AcDbLine
 10
927.923271567724
 20
1053.487179182092
 30
0.0
 11
927.923271567724
 21
1283.487179182092
 31
0.0
  0
LINE
  5
662
330
5DD
100
AcDbEntity
  8
D-STR-DIM
370
    -2
100
AcDbLine
 10
1007.923271252006
 20
1173.487179182092
 30
0.0
 11
1007.923271252006
 21
1283.487179182092
 31
0.0
  0
LINE
  5
663
330
5DD
100
AcDbEntity
  8
D-STR-DIM
370
    -2
100
AcDbLine
 10
952.923271567724
 20
1263.487179182092
 30
0.0
 11
982.9232712520061
 21
1263.487179182092
 31
0.0
  0
INSERT
  5
664
330
5DD
100
AcDbEntity
  8
D-STR-DIM
370
    -2
100
AcDbBlockReference
  2
_OPEN30
 10
927.923271567724
 20
1263.487179182092
 30
0.0
 41
25.0
 42
25.0
 43
25.0
 50
180.0
  0
INSERT
  5
665
330
5DD
100
AcDbEntity
  8
D-STR-DIM
370
    -2
100
AcDbBlockReference
  2
_OPEN30
 10
1007.923271252006
 20
1263.487179182092
 30
0.0
 41
25.0
 42
25.0
 43
25.0
  0
MTEXT
  5
666
330
5DD
100
AcDbEntity
  8
D-STR-DIM
100
AcDbMText
 10
967.9232714098651
 20
1288.487179182092
 30
0.0
 40
30.0
 41
0.0
 71
     5
 72
     1
  1
80
 73
     1
 44
1.0
  0
POINT
  5
667
330
5DD
100
AcDbEntity
  8
DEFPOINTS
 62
     0
100
AcDbPoint
 10
927.923271567724
 20
1043.487179182092
 30
0.0
  0
POINT
  5
668
330
5DD
100
AcDbEntity
  8
DEFPOINTS
 62
     0
100
AcDbPoint
 10
1007.923271252006
 20
1163.487179182092
 30
0.0
  0
POINT
  5
669
330
5DD
100
AcDbEntity
  8
DEFPOINTS
 62
     0
100
AcDbPoint
 10
1007.923271252006
 20
1263.487179182092
 30
0.0
  0
ENDBLK
  5
5E8
330
5DD
100
AcDbEntity
  8
0
100
AcDbBlockEnd
  0
BLOCK
  5
5F3
330
5E9
100
AcDbEntity
  8
0
100
AcDbBlockBegin
  2
*D15
 70
     1
 10
0.0
 20
0.0
 30
0.0
  3
*D15
  1

  0
LINE
  5
66A
330
5E9
100
AcDbEntity
  8
D-STR-DIM
370
    -2
100
AcDbLine
 10
927.923271567724
 20
1033.487179182092
 30
0.0
 11
927.923271567724
 21
923.4871791820923
 31
0.0
  0
LINE
  5
66B
330
5E9
100
AcDbEntity
  8
D-STR-DIM
370
    -2
100
AcDbLine
 10
1107.923271567724
 20
1033.487179182092
 30
0.0
 11
1107.923271567724
 21
923.4871791820923
 31
0.0
  0
LINE
  5
66C
330
5E9
100
AcDbEntity
  8
D-STR-DIM
370
    -2
100
AcDbLine
 10
952.923271567724
 20
943.4871791820922
 30
0.0
 11
1082.923271567723
 21
943.4871791820922
 31
0.0
  0
INSERT
  5
66D
330
5E9
100
AcDbEntity
  8
D-STR-DIM
370
    -2
100
AcDbBlockReference
  2
_OPEN30
 10
927.923271567724
 20
943.4871791820922
 30
0.0
 41
25.0
 42
25.0
 43
25.0
 50
180.0
  0
INSERT
  5
66E
330
5E9
100
AcDbEntity
  8
D-STR-DIM
370
    -2
100
AcDbBlockReference
  2
_OPEN30
 10
1107.923271567724
 20
943.4871791820922
 30
0.0
 41
25.0
 42
25.0
 43
25.0
  0
MTEXT
  5
66F
330
5E9
100
AcDbEntity
  8
D-STR-DIM
100
AcDbMText
 10
1017.923271567724
 20
968.4871791820922
 30
0.0
 40
30.0
 41
0.0
 71
     5
 72
     1
  1
180
 73
     1
 44
1.0
  0
POINT
  5
670
330
5E9
100
AcDbEntity
  8
DEFPOINTS
 62
     0
100
AcDbPoint
 10
927.923271567724
 20
1043.487179182092
 30
0.0
  0
POINT
  5
671
330
5E9
100
AcDbEntity
  8
DEFPOINTS
 62
     0
100
AcDbPoint
 10
1107.923271567724
 20
1043.487179182092
 30
0.0
  0
POINT
  5
672
330
5E9
100
AcDbEntity
  8
DEFPOINTS
 62
     0
100
AcDbPoint
 10
1107.923271567724
 20
943.4871791820922
 30
0.0
  0
ENDBLK
  5
5F4
330
5E9
100
AcDbEntity
  8
0
100
AcDbBlockEnd
  0
BLOCK
  5
9C2
330
9B8
100
AcDbEntity
  8
0
100
AcDbBlockBegin
  2
*D16
 70
     1
 10
0.0
 20
0.0
 30
0.0
  3
*D16
  1

  0
LINE
  5
B6F
330
9B8
100
AcDbEntity
  8
D-STR-DIM
370
    -2
100
AcDbLine
 10
2331.635940723815
 20
1489.677473456625
 30
0.0
 11
2331.635940723815
 21
1380.473639478619
 31
0.0
  0
LINE
  5
B70
330
9B8
100
AcDbEntity
  8
D-STR-DIM
370
    -2
100
AcDbLine
 10
2631.676997223816
 20
1489.677473456625
 30
0.0
 11
2631.676997223816
 21
1380.473639478619
 31
0.0
  0
LINE
  5
B71
330
9B8
100
AcDbEntity
  8
D-STR-DIM
370
    -2
100
AcDbLine
 10
2356.635940723815
 20
1400.473639478619
 30
0.0
 11
2606.676997223816
 21
1400.473639478619
 31
0.0
  0
INSERT
  5
B72
330
9B8
100
AcDbEntity
  8
D-STR-DIM
370
    -2
100
AcDbBlockReference
  2
_OPEN30
 10
2331.635940723815
 20
1400.473639478619
 30
0.0
 41
25.0
 42
25.0
 43
25.0
 50
180.0
  0
INSERT
  5
B73
330
9B8
100
AcDbEntity
  8
D-STR-DIM
370
    -2
100
AcDbBlockReference
  2
_OPEN30
 10
2631.676997223816
 20
1400.473639478619
 30
0.0
 41
25.0
 42
25.0
 43
25.0
  0
MTEXT
  5
B74
330
9B8
100
AcDbEntity
  8
D-STR-DIM
100
AcDbMText
 10
2481.656468973815
 20
1425.473639478619
 30
0.0
 40
30.0
 41
0.0
 71
     5
 72
     1
  1
600
 73
     1
 44
1.0
  0
POINT
  5
B75
330
9B8
100
AcDbEntity
  8
DEFPOINTS
 62
     0
100
AcDbPoint
 10
2331.635940723815
 20
1499.677473456625
 30
0.0
  0
POINT
  5
B76
330
9B8
100
AcDbEntity
  8
DEFPOINTS
 62
     0
100
AcDbPoint
 10
2631.676997223816
 20
1499.677473456625
 30
0.0
  0
POINT
  5
B77
330
9B8
100
AcDbEntity
  8
DEFPOINTS
 62
     0
100
AcDbPoint
 10
2631.676997223816
 20
1400.473639478619
 30
0.0
  0
ENDBLK
  5
9C3
330
9B8
100
AcDbEntity
  8
0
100
AcDbBlockEnd
  0
BLOCK
  5
A3B
330
A31
100
AcDbEntity
  8
0
100
AcDbBlockBegin
  2
*D17
 70
     1
 10
0.0
 20
0.0
 30
0.0
  3
*D17
  1

  0
LINE
  5
B5D
330
A31
100
AcDbEntity
  8
D-STR-DIM
370
    -2
100
AcDbLine
 10
3281.718053723816
 20
1489.677473456625
 30
0.0
 11
3281.718053723816
 21
1380.473639478619
 31
0.0
  0
LINE
  5
B5E
330
A31
100
AcDbEntity
  8
D-STR-DIM
370
    -2
100
AcDbLine
 10
2981.676997223816
 20
1489.677473456625
 30
0.0
 11
2981.676997223816
 21
1380.473639478619
 31
0.0
  0
LINE
  5
B5F
330
A31
100
AcDbEntity
  8
D-STR-DIM
370
    -2
100
AcDbLine
 10
3256.718053723815
 20
1400.473639478619
 30
0.0
 11
3006.676997223816
 21
1400.473639478619
 31
0.0
  0
INSERT
  5
B60
330
A31
100
AcDbEntity
  8
D-STR-DIM
370
    -2
100
AcDbBlockReference
  2
_OPEN30
 10
3281.718053723816
 20
1400.473639478619
 30
0.0
 41
25.0
 42
25.0
 43
25.0
  0
INSERT
  5
B61
330
A31
100
AcDbEntity
  8
D-STR-DIM
370
    -2
100
AcDbBlockReference
  2
_OPEN30
 10
2981.676997223816
 20
1400.473639478619
 30
0.0
 41
25.0
 42
25.0
 43
25.0
 50
180.0
  0
MTEXT
  5
B62
330
A31
100
AcDbEntity
  8
D-STR-DIM
100
AcDbMText
 10
3131.697525473816
 20
1425.473639478619
 30
0.0
 40
30.0
 41
0.0
 71
     5
 72
     1
  1
600
 73
     1
 44
1.0
  0
POINT
  5
B63
330
A31
100
AcDbEntity
  8
DEFPOINTS
 62
     0
100
AcDbPoint
 10
3281.718053723816
 20
1499.677473456625
 30
0.0
  0
POINT
  5
B64
330
A31
100
AcDbEntity
  8
DEFPOINTS
 62
     0
100
AcDbPoint
 10
2981.676997223816
 20
1499.677473456625
 30
0.0
  0
POINT
  5
B65
330
A31
100
AcDbEntity
  8
DEFPOINTS
 62
     0
100
AcDbPoint
 10
2981.676997223816
 20
1400.473639478619
 30
0.0
  0
ENDBLK
  5
A3C
330
A31
100
AcDbEntity
  8
0
100
AcDbBlockEnd
  0
BLOCK
  5
A7F
330
A75
100
AcDbEntity
  8
0
100
AcDbBlockBegin
  2
*D18
 70
     1
 10
0.0
 20
0.0
 30
0.0
  3
*D18
  1

  0
LINE
  5
B66
330
A75
100
AcDbEntity
  8
D-STR-DIM
370
    -2
100
AcDbLine
 10
2631.676997223816
 20
1489.677473456625
 30
0.0
 11
2631.676997223816
 21
1380.473639478619
 31
0.0
  0
LINE
  5
B67
330
A75
100
AcDbEntity
  8
D-STR-DIM
370
    -2
100
AcDbLine
 10
2981.676997223816
 20
1489.677473456625
 30
0.0
 11
2981.676997223816
 21
1380.473639478619
 31
0.0
  0
LINE
  5
B68
330
A75
100
AcDbEntity
  8
D-STR-DIM
370
    -2
100
AcDbLine
 10
2656.676997223816
 20
1400.473639478619
 30
0.0
 11
2956.676997223816
 21
1400.473639478619
 31
0.0
  0
INSERT
  5
B69
330
A75
100
AcDbEntity
  8
D-STR-DIM
370
    -2
100
AcDbBlockReference
  2
_OPEN30
 10
2631.676997223816
 20
1400.473639478619
 30
0.0
 41
25.0
 42
25.0
 43
25.0
 50
180.0
  0
INSERT
  5
B6A
330
A75
100
AcDbEntity
  8
D-STR-DIM
370
    -2
100
AcDbBlockReference
  2
_OPEN30
 10
2981.676997223816
 20
1400.473639478619
 30
0.0
 41
25.0
 42
25.0
 43
25.0
  0
MTEXT
  5
B6B
330
A75
100
AcDbEntity
  8
D-STR-DIM
100
AcDbMText
 10
2806.676997223815
 20
1425.473639478619
 30
0.0
 40
30.0
 41
0.0
 71
     5
 72
     1
  1
700
 73
     1
 44
1.0
  0
POINT
  5
B6C
330
A75
100
AcDbEntity
  8
DEFPOINTS
 62
     0
100
AcDbPoint
 10
2631.676997223816
 20
1499.677473456625
 30
0.0
  0
POINT
  5
B6D
330
A75
100
AcDbEntity
  8
DEFPOINTS
 62
     0
100
AcDbPoint
 10
2981.676997223816
 20
1499.677473456625
 30
0.0
  0
POINT
  5
B6E
330
A75
100
AcDbEntity
  8
DEFPOINTS
 62
     0
100
AcDbPoint
 10
2981.676997223816
 20
1400.473639478619
 30
0.0
  0
ENDBLK
  5
A80
330
A75
100
AcDbEntity
  8
0
100
AcDbBlockEnd
  0
BLOCK
  5
AB0
330
AA6
100
AcDbEntity
  8
0
100
AcDbBlockBegin
  2
*D19
 70
     1
 10
0.0
 20
0.0
 30
0.0
  3
*D19
  1

  0
LINE
  5
B54
330
AA6
100
AcDbEntity
  8
D-STR-DIM
370
    -2
100
AcDbLine
 10
2331.635940723815
 20
1489.677473456625
 30
0.0
 11
2331.635940723815
 21
1300.473639478619
 31
0.0
  0
LINE
  5
B55
330
AA6
100
AcDbEntity
  8
D-STR-DIM
370
    -2
100
AcDbLine
 10
3281.718053723816
 20
1489.677473456625
 30
0.0
 11
3281.718053723816
 21
1300.473639478619
 31
0.0
  0
LINE
  5
B56
330
AA6
100
AcDbEntity
  8
D-STR-DIM
370
    -2
100
AcDbLine
 10
2356.635940723815
 20
1320.473639478619
 30
0.0
 11
3256.718053723815
 21
1320.473639478619
 31
0.0
  0
INSERT
  5
B57
330
AA6
100
AcDbEntity
  8
D-STR-DIM
370
    -2
100
AcDbBlockReference
  2
_OPEN30
 10
2331.635940723815
 20
1320.473639478619
 30
0.0
 41
25.0
 42
25.0
 43
25.0
 50
180.0
  0
INSERT
  5
B58
330
AA6
100
AcDbEntity
  8
D-STR-DIM
370
    -2
100
AcDbBlockReference
  2
_OPEN30
 10
3281.718053723816
 20
1320.473639478619
 30
0.0
 41
25.0
 42
25.0
 43
25.0
  0
MTEXT
  5
B59
330
AA6
100
AcDbEntity
  8
D-STR-DIM
100
AcDbMText
 10
2806.676997223815
 20
1345.473639478619
 30
0.0
 40
30.0
 41
0.0
 71
     5
 72
     1
  1
1900
 73
     1
 44
1.0
  0
POINT
  5
B5A
330
AA6
100
AcDbEntity
  8
DEFPOINTS
 62
     0
100
AcDbPoint
 10
2331.635940723815
 20
1499.677473456625
 30
0.0
  0
POINT
  5
B5B
330
AA6
100
AcDbEntity
  8
DEFPOINTS
 62
     0
100
AcDbPoint
 10
3281.718053723816
 20
1499.677473456625
 30
0.0
  0
POINT
  5
B5C
330
AA6
100
AcDbEntity
  8
DEFPOINTS
 62
     0
100
AcDbPoint
 10
3281.718053723816
 20
1320.473639478619
 30
0.0
  0
ENDBLK
  5
AB1
330
AA6
100
AcDbEntity
  8
0
100
AcDbBlockEnd
  0
BLOCK
  5
B1A
330
B10
100
AcDbEntity
  8
0
100
AcDbBlockBegin
  2
*D20
 70
     1
 10
0.0
 20
0.0
 30
0.0
  3
*D20
  1

  0
LINE
  5
B4B
330
B10
100
AcDbEntity
  8
D-STR-DIM
370
    -2
100
AcDbLine
 10
2181.676997223815
 20
1310.473639478619
 30
0.0
 11
2181.676997223815
 21
1164.186040302798
 31
0.0
  0
LINE
  5
B4C
330
B10
100
AcDbEntity
  8
D-STR-DIM
370
    -2
100
AcDbLine
 10
3431.676997223815
 20
1310.473639478619
 30
0.0
 11
3431.676997223815
 21
1164.186040302798
 31
0.0
  0
LINE
  5
B4D
330
B10
100
AcDbEntity
  8
D-STR-DIM
370
    -2
100
AcDbLine
 10
2206.676997223815
 20
1184.186040302798
 30
0.0
 11
3406.676997223815
 21
1184.186040302798
 31
0.0
  0
INSERT
  5
B4E
330
B10
100
AcDbEntity
  8
D-STR-DIM
370
    -2
100
AcDbBlockReference
  2
_OPEN30
 10
2181.676997223815
 20
1184.186040302798
 30
0.0
 41
25.0
 42
25.0
 43
25.0
 50
180.0
  0
INSERT
  5
B4F
330
B10
100
AcDbEntity
  8
D-STR-DIM
370
    -2
100
AcDbBlockReference
  2
_OPEN30
 10
3431.676997223815
 20
1184.186040302798
 30
0.0
 41
25.0
 42
25.0
 43
25.0
  0
MTEXT
  5
B50
330
B10
100
AcDbEntity
  8
D-STR-DIM
100
AcDbMText
 10
2806.676997223815
 20
1209.186040302798
 30
0.0
 40
30.0
 41
0.0
 71
     5
 72
     1
  1
2500
 73
     1
 44
1.0
  0
POINT
  5
B51
330
B10
100
AcDbEntity
  8
DEFPOINTS
 62
     0
100
AcDbPoint
 10
2181.676997223815
 20
1320.473639478619
 30
0.0
  0
POINT
  5
B52
330
B10
100
AcDbEntity
  8
DEFPOINTS
 62
     0
100
AcDbPoint
 10
3431.676997223815
 20
1320.473639478619
 30
0.0
  0
POINT
  5
B53
330
B10
100
AcDbEntity
  8
DEFPOINTS
 62
     0
100
AcDbPoint
 10
3431.676997223815
 20
1184.186040302798
 30
0.0
  0
ENDBLK
  5
B1B
330
B10
100
AcDbEntity
  8
0
100
AcDbBlockEnd
  0
ENDSEC
  0
SECTION
  2
ENTITIES
  0
DIMENSION
  5
319
330
1F
100
AcDbEntity
  8
D-STR-DIM
100
AcDbDimension
  2
*D3
 10
927.2230695677249
 20
1377.582301182092
 30
0.0
 11
902.2230695677247
 21
1467.830822682091
 31
0.0
 70
    32
 71
     5
 42
180.4970429999984
  3
Standard
100
AcDbAlignedDimension
 13
741.2230695677249
 23
1558.07934418209
 33
0.0
 14
741.2230695677249
 24
1377.582301182092
 34
0.0
 50
90.0
100
AcDbRotatedDimension
  0
DIMENSION
  5
31A
330
1F
100
AcDbEntity
  8
D-STR-DIM
100
AcDbDimension
  2
*D4
 10
847.2230695677248
 20
1558.07934418209
 30
0.0
 11
822.2230695677247
 21
1507.92610518209
 31
0.0
 70
    32
 71
     5
 42
100.3064780000004
  3
Standard
100
AcDbAlignedDimension
 13
747.2230695677248
 23
1457.77286618209
 33
0.0
 14
741.2230695677249
 24
1558.07934418209
 34
0.0
 50
90.0
100
AcDbRotatedDimension
1001
ACAD
1000
DSTYLE
1002
{
1070
   279
1070
     1
1002
}
  0
DIMENSION
  5
31B
330
1F
100
AcDbEntity
  8
D-STR-DIM
100
AcDbDimension
  2
*D5
 10
847.2230695677248
 20
1457.77286618209
 30
0.0
 11
822.2230695677247
 21
1417.677583682091
 31
0.0
 70
    32
 71
     5
 42
80.19056499999805
  3
Standard
100
AcDbAlignedDimension
 13
741.2230695677249
 23
1377.582301182092
 33
0.0
 14
747.2230695677248
 24
1457.77286618209
 34
0.0
 50
90.0
100
AcDbRotatedDimension
  0
DIMENSION
  5
31C
330
1F
100
AcDbEntity
  8
D-STR-DIM
100
AcDbDimension
  2
*D6
 10
846.1409565677245
 20
1163.471525182091
 30
0.0
 11
821.1409565677243
 21
1103.471525182092
 31
0.0
 70
    32
 71
     5
 42
120.0
  3
Standard
100
AcDbAlignedDimension
 13
740.1409565677245
 23
1043.471525182091
 33
0.0
 14
740.1409565677245
 24
1163.471525182091
 34
0.0
 50
90.0
100
AcDbRotatedDimension
  0
DIMENSION
  5
31D
330
1F
100
AcDbEntity
  8
D-STR-DIM
100
AcDbDimension
  2
*D7
 10
747.2230695677248
 20
1718.07934418209
 30
0.0
 11
447.1820130677246
 21
1743.07934418209
 31
0.0
 70
    32
 71
     5
 42
600.0821130000003
  3
Standard
100
AcDbAlignedDimension
 13
147.1409565677245
 23
1552.07934418209
 33
0.0
 14
747.2230695677248
 24
1552.07934418209
 34
0.0
100
AcDbRotatedDimension
  0
DIMENSION
  5
31E
330
1F
100
AcDbEntity
  8
D-STR-DIM
100
AcDbDimension
  2
*D8
 10
147.1409565677245
 20
1658.07934418209
 30
0.0
 11
182.1654895677243
 21
1683.07934418209
 31
0.0
 70
    32
 71
     5
 42
70.04906599999959
  3
Standard
100
AcDbAlignedDimension
 13
217.190022567724
 23
1482.808375182091
 33
0.0
 14
147.1409565677245
 24
1552.07934418209
 34
0.0
100
AcDbRotatedDimension
  0
DIMENSION
  5
31F
330
1F
100
AcDbEntity
  8
D-STR-DIM
100
AcDbDimension
  2
*D9
 10
746.1409565677245
 20
943.4715251820916
 30
0.0
 11
446.1409565677245
 21
968.4715251820916
 31
0.0
 70
    32
 71
     5
 42
600.0
  3
Standard
100
AcDbAlignedDimension
 13
146.1409565677245
 23
1057.754382182092
 33
0.0
 14
746.1409565677245
 24
1057.754382182092
 34
0.0
100
AcDbRotatedDimension
  0
LINE
  5
320
330
1F
100
AcDbEntity
  8
D-STR
  6
DASHED
100
AcDbLine
 10
146.1409565677245
 20
1113.471525182091
 30
0.0
 11
162.1409565677245
 21
1106.471525182091
 31
0.0
  0
ARC
  5
321
330
1F
100
AcDbEntity
  8
D-STR
100
AcDbCircle
 10
152.1409565677245
 20
1157.471525182091
 30
0.0
 40
6.0
100
AcDbArc
 50
90.0
 51
180.0
  0
LINE
  5
322
330
1F
100
AcDbEntity
  8
D-STR
  6
DASHED
100
AcDbLine
 10
162.1409565677245
 20
1080.471525182091
 30
0.0
 11
146.1409565677245
 21
1073.471525182091
 31
0.0
  0
ARC
  5
323
330
1F
100
AcDbEntity
  8
D-STR
100
AcDbCircle
 10
166.1409565677245
 20
1057.754382182092
 30
0.0
 40
20.0
100
AcDbArc
 50
180.0
 51
225.5729959999922
  0
ARC
  5
324
330
1F
100
AcDbEntity
  8
D-STR
100
AcDbCircle
 10
153.1409565677245
 20
1552.07934418209
 30
0.0
 40
6.0
100
AcDbArc
 50
90.0
 51
180.0
  0
LINE
  5
325
330
1F
100
AcDbEntity
  8
D-STR
  6
DASHED
100
AcDbLine
 10
147.1409565677245
 20
1518.528863182092
 30
0.0
 11
158.5811965677244
 21
1512.794486182091
 31
0.0
  0
LWPOLYLINE
  5
326
330
1F
100
AcDbEntity
  8
D-STR
  6
DASHED
100
AcDbPolyline
 90
        3
 70
     0
 43
0.0
 10
162.7273685677241
 20
1478.588133182092
 10
162.7273685677241
 20
1464.773300182091
 10
147.1409565677245
 20
1458.702188182092
  0
ARC
  5
327
330
1F
100
AcDbEntity
  8
D-STR
100
AcDbCircle
 10
153.1409565677245
 20
1383.582301182092
 30
0.0
 40
6.0
100
AcDbArc
 50
180.0
 51
270.0
  0
LINE
  5
328
330
1F
100
AcDbEntity
  8
D-STR
100
AcDbLine
 10
147.1409565677245
 20
1457.77286618209
 30
0.0
 11
747.2230695677248
 21
1457.77286618209
 31
0.0
  0
LINE
  5
329
330
1F
100
AcDbEntity
  8
D-STR
100
AcDbLine
 10
146.1409565677245
 20
1157.471525182091
 30
0.0
 11
146.1409565677245
 21
1057.754382182092
 31
0.0
  0
LINE
  5
32A
330
1F
100
AcDbEntity
  8
D-STR
100
AcDbLine
 10
147.1409565677245
 20
1552.07934418209
 30
0.0
 11
147.1409565677245
 21
1383.582301182092
 31
0.0
  0
LINE
  5
32B
330
1F
100
AcDbEntity
  8
D-STR
  6
DASHED
100
AcDbLine
 10
670.8909315677247
 20
1043.487179182092
 30
0.0
 11
670.8909315677247
 21
1136.487179182092
 31
0.0
  0
LINE
  5
32C
330
1F
100
AcDbEntity
  8
D-STR
  6
DASHED
100
AcDbLine
 10
681.3909315677246
 20
1043.487179182092
 30
0.0
 11
681.3909315677246
 21
1136.487179182092
 31
0.0
  0
LINE
  5
32D
330
1F
100
AcDbEntity
  8
D-STR
100
AcDbLine
 10
746.1409565677245
 20
1157.471525182091
 30
0.0
 11
746.1409565677245
 21
1057.754382182092
 31
0.0
  0
LINE
  5
32E
330
1F
100
AcDbEntity
  8
D-STR
100
AcDbLine
 10
740.1409565677245
 20
1163.471525182091
 30
0.0
 11
740.1409565677245
 21
1043.471525182091
 31
0.0
  0
LINE
  5
32F
330
1F
100
AcDbEntity
  8
D-STR
100
AcDbLine
 10
152.1409565677245
 20
1163.471525182091
 30
0.0
 11
152.1409565677245
 21
1043.471525182091
 31
0.0
  0
LINE
  5
330
330
1F
100
AcDbEntity
  8
D-STR
  6
DASHED
100
AcDbLine
 10
221.3909805677249
 20
1043.487179182092
 30
0.0
 11
221.3909805677249
 21
1136.487179182092
 31
0.0
  0
LINE
  5
331
330
1F
100
AcDbEntity
  8
D-STR
  6
DASHED
100
AcDbLine
 10
210.8909805677249
 20
1043.487179182092
 30
0.0
 11
210.8909805677249
 21
1136.487179182092
 31
0.0
  0
LINE
  5
332
330
1F
100
AcDbEntity
  8
D-STR
100
AcDbLine
 10
456.6866085677243
 20
1113.971525182091
 30
0.0
 11
706.1409565677244
 21
1113.971525182091
 31
0.0
  0
LINE
  5
333
330
1F
100
AcDbEntity
  8
D-STR
100
AcDbLine
 10
456.6866085677243
 20
1106.971525182091
 30
0.0
 11
706.1409565677244
 21
1106.971525182091
 31
0.0
  0
LINE
  5
334
330
1F
100
AcDbEntity
  8
D-STR
100
AcDbLine
 10
456.6866085677243
 20
1099.471525182091
 30
0.0
 11
706.1409565677244
 21
1099.471525182091
 31
0.0
  0
LINE
  5
335
330
1F
100
AcDbEntity
  8
D-STR
100
AcDbLine
 10
456.6866085677243
 20
1092.471525182091
 30
0.0
 11
706.1409565677244
 21
1092.471525182091
 31
0.0
  0
LINE
  5
336
330
1F
100
AcDbEntity
  8
D-STR
100
AcDbLine
 10
152.1409565677245
 20
1083.471525182091
 30
0.0
 11
740.1409565677245
 21
1083.471525182091
 31
0.0
  0
LINE
  5
337
330
1F
100
AcDbEntity
  8
D-STR
100
AcDbLine
 10
152.1409565677245
 20
1043.471525182091
 30
0.0
 11
740.1409565677245
 21
1043.471525182091
 31
0.0
  0
LINE
  5
338
330
1F
100
AcDbEntity
  8
D-STR
100
AcDbLine
 10
436.6866085677242
 20
1113.971525182091
 30
0.0
 11
186.1409565677245
 21
1113.971525182091
 31
0.0
  0
LINE
  5
339
330
1F
100
AcDbEntity
  8
D-STR
100
AcDbLine
 10
436.6866085677242
 20
1106.971525182091
 30
0.0
 11
186.1409565677245
 21
1106.971525182091
 31
0.0
  0
LINE
  5
33A
330
1F
100
AcDbEntity
  8
D-STR
100
AcDbLine
 10
436.6866085677242
 20
1099.471525182091
 30
0.0
 11
186.1409565677245
 21
1099.471525182091
 31
0.0
  0
LINE
  5
33B
330
1F
100
AcDbEntity
  8
D-STR
100
AcDbLine
 10
436.6866085677242
 20
1092.471525182091
 30
0.0
 11
186.1409565677245
 21
1092.471525182091
 31
0.0
  0
LINE
  5
33C
330
1F
100
AcDbEntity
  8
D-STR
100
AcDbLine
 10
186.1409565677245
 20
1113.971525182091
 30
0.0
 11
186.1409565677245
 21
1106.971525182091
 31
0.0
  0
LINE
  5
33D
330
1F
100
AcDbEntity
  8
D-STR
100
AcDbLine
 10
186.1409565677245
 20
1099.471525182091
 30
0.0
 11
186.1409565677245
 21
1092.471525182091
 31
0.0
  0
LINE
  5
33E
330
1F
100
AcDbEntity
  8
D-STR
100
AcDbLine
 10
186.1409565677245
 20
1113.971525182091
 30
0.0
 11
189.1409565677245
 21
1106.971525182091
 31
0.0
  0
LINE
  5
33F
330
1F
100
AcDbEntity
  8
D-STR
100
AcDbLine
 10
186.1409565677245
 20
1099.471525182091
 30
0.0
 11
189.1409565677245
 21
1092.471525182091
 31
0.0
  0
LINE
  5
340
330
1F
100
AcDbEntity
  8
D-STR
  6
DASHED
100
AcDbLine
 10
162.1409565677245
 20
1106.471525182091
 30
0.0
 11
162.1409565677245
 21
1080.471525182091
 31
0.0
  0
LINE
  5
341
330
1F
100
AcDbEntity
  8
D-STR
100
AcDbLine
 10
456.6866085677243
 20
1113.971525182091
 30
0.0
 11
459.6866085677243
 21
1106.971525182091
 31
0.0
  0
LINE
  5
342
330
1F
100
AcDbEntity
  8
D-STR
100
AcDbLine
 10
456.6866085677243
 20
1113.971525182091
 30
0.0
 11
456.6866085677243
 21
1106.971525182091
 31
0.0
  0
LINE
  5
343
330
1F
100
AcDbEntity
  8
D-STR
100
AcDbLine
 10
456.6866085677243
 20
1099.471525182091
 30
0.0
 11
459.6866085677243
 21
1092.471525182091
 31
0.0
  0
LINE
  5
344
330
1F
100
AcDbEntity
  8
D-STR
100
AcDbLine
 10
456.6866085677243
 20
1099.471525182091
 30
0.0
 11
456.6866085677243
 21
1092.471525182091
 31
0.0
  0
LINE
  5
345
330
1F
100
AcDbEntity
  8
D-STR
100
AcDbLine
 10
436.6866085677242
 20
1113.971525182091
 30
0.0
 11
433.6866085677242
 21
1106.971525182091
 31
0.0
  0
LINE
  5
346
330
1F
100
AcDbEntity
  8
D-STR
100
AcDbLine
 10
436.6866085677242
 20
1113.971525182091
 30
0.0
 11
436.6866085677242
 21
1106.971525182091
 31
0.0
  0
LINE
  5
347
330
1F
100
AcDbEntity
  8
D-STR
100
AcDbLine
 10
436.6866085677242
 20
1099.471525182091
 30
0.0
 11
433.6866085677242
 21
1092.471525182091
 31
0.0
  0
LINE
  5
348
330
1F
100
AcDbEntity
  8
D-STR
100
AcDbLine
 10
436.6866085677242
 20
1099.471525182091
 30
0.0
 11
436.6866085677242
 21
1092.471525182091
 31
0.0
  0
LINE
  5
349
330
1F
100
AcDbEntity
  8
D-STR
100
AcDbLine
 10
706.1409565677244
 20
1113.971525182091
 30
0.0
 11
703.1409565677245
 21
1106.971525182091
 31
0.0
  0
LINE
  5
34A
330
1F
100
AcDbEntity
  8
D-STR
100
AcDbLine
 10
706.1409565677244
 20
1099.471525182091
 30
0.0
 11
703.1409565677245
 21
1092.471525182091
 31
0.0
  0
LINE
  5
34B
330
1F
100
AcDbEntity
  8
D-STR
  6
DASHED
100
AcDbLine
 10
746.1409565677245
 20
1113.471525182091
 30
0.0
 11
730.1409565677245
 21
1106.471525182091
 31
0.0
  0
LINE
  5
34C
330
1F
100
AcDbEntity
  8
D-STR
  6
DASHED
100
AcDbLine
 10
730.1409565677245
 20
1080.471525182091
 30
0.0
 11
746.1409565677245
 21
1073.471525182091
 31
0.0
  0
ARC
  5
34D
330
1F
100
AcDbEntity
  8
D-STR
100
AcDbCircle
 10
726.1409565677245
 20
1057.754382182092
 30
0.0
 40
20.0
100
AcDbArc
 50
314.4270040000077
 51
0.0
  0
LINE
  5
34E
330
1F
100
AcDbEntity
  8
D-STR
100
AcDbLine
 10
706.1409565677244
 20
1113.971525182091
 30
0.0
 11
706.1409565677244
 21
1106.971525182091
 31
0.0
  0
LINE
  5
34F
330
1F
100
AcDbEntity
  8
D-STR
100
AcDbLine
 10
706.1409565677244
 20
1099.471525182091
 30
0.0
 11
706.1409565677244
 21
1092.471525182091
 31
0.0
  0
LINE
  5
350
330
1F
100
AcDbEntity
  8
D-STR
  6
DASHED
100
AcDbLine
 10
730.1409565677245
 20
1106.471525182091
 30
0.0
 11
730.1409565677245
 21
1080.471525182091
 31
0.0
  0
DIMENSION
  5
351
330
1F
100
AcDbEntity
  8
D-STR-DIM
100
AcDbDimension
  2
*D10
 10
677.1981195677248
 20
1658.07934418209
 30
0.0
 11
447.1940710677245
 21
1683.07934418209
 31
0.0
 70
    32
 71
     5
 42
460.0080970000008
  3
Standard
100
AcDbAlignedDimension
 13
217.190022567724
 23
1482.818710182092
 33
0.0
 14
677.1981195677248
 24
1482.818710182092
 34
0.0
100
AcDbRotatedDimension
  0
LINE
  5
352
330
1F
100
AcDbEntity
  8
D-STR
100
AcDbLine
 10
456.6866085677243
 20
1142.971525182091
 30
0.0
 11
706.1409565677244
 21
1142.971525182091
 31
0.0
  0
LINE
  5
353
330
1F
100
AcDbEntity
  8
D-STR
100
AcDbLine
 10
456.6866085677243
 20
1135.971525182091
 30
0.0
 11
706.1409565677244
 21
1135.971525182091
 31
0.0
  0
LINE
  5
354
330
1F
100
AcDbEntity
  8
D-STR
100
AcDbLine
 10
456.6866085677243
 20
1128.471525182091
 30
0.0
 11
706.1409565677244
 21
1128.471525182091
 31
0.0
  0
LINE
  5
355
330
1F
100
AcDbEntity
  8
D-STR
100
AcDbLine
 10
456.6866085677243
 20
1121.471525182091
 30
0.0
 11
706.1409565677244
 21
1121.471525182091
 31
0.0
  0
LINE
  5
356
330
1F
100
AcDbEntity
  8
D-STR
100
AcDbLine
 10
152.1409565677245
 20
1163.471525182091
 30
0.0
 11
740.1409565677245
 21
1163.471525182091
 31
0.0
  0
LINE
  5
357
330
1F
100
AcDbEntity
  8
D-STR
100
AcDbLine
 10
708.7302175677246
 20
1387.892549182091
 30
0.0
 11
456.6866085677243
 21
1387.892549182091
 31
0.0
  0
LINE
  5
358
330
1F
100
AcDbEntity
  8
D-STR
100
AcDbLine
 10
456.6866085677243
 20
1394.834417182091
 30
0.0
 11
708.7302175677246
 21
1394.834417182091
 31
0.0
  0
LINE
  5
359
330
1F
100
AcDbEntity
  8
D-STR
100
AcDbLine
 10
708.7302175677246
 20
1401.945094182091
 30
0.0
 11
456.6866085677243
 21
1401.945094182091
 31
0.0
  0
LINE
  5
35A
330
1F
100
AcDbEntity
  8
D-STR
100
AcDbLine
 10
456.6866085677243
 20
1408.886961182091
 30
0.0
 11
708.7302175677246
 21
1408.886961182091
 31
0.0
  0
LINE
  5
35B
330
1F
100
AcDbEntity
  8
D-STR
100
AcDbLine
 10
708.7302175677246
 20
1415.983858182091
 30
0.0
 11
456.6866085677243
 21
1415.983858182091
 31
0.0
  0
LINE
  5
35C
330
1F
100
AcDbEntity
  8
D-STR
100
AcDbLine
 10
456.6866085677243
 20
1422.925725182091
 30
0.0
 11
708.7302175677246
 21
1422.925725182091
 31
0.0
  0
LINE
  5
35D
330
1F
100
AcDbEntity
  8
D-STR
100
AcDbLine
 10
708.7302175677246
 20
1430.03640218209
 30
0.0
 11
456.6866085677243
 21
1430.03640218209
 31
0.0
  0
LINE
  5
35E
330
1F
100
AcDbEntity
  8
D-STR
100
AcDbLine
 10
456.6866085677243
 20
1436.978270182092
 30
0.0
 11
708.7302175677246
 21
1436.978270182092
 31
0.0
  0
LINE
  5
35F
330
1F
100
AcDbEntity
  8
D-STR
100
AcDbLine
 10
741.2230695677249
 20
1554.004718182092
 30
0.0
 11
153.1409565677245
 21
1554.004718182092
 31
0.0
  0
LINE
  5
360
330
1F
100
AcDbEntity
  8
D-STR
100
AcDbLine
 10
741.2230695677249
 20
1379.448620182091
 30
0.0
 11
153.1409565677245
 21
1379.448620182091
 31
0.0
  0
LINE
  5
361
330
1F
100
AcDbEntity
  8
D-STR
100
AcDbLine
 10
741.2230695677249
 20
1558.07934418209
 30
0.0
 11
153.1409565677245
 21
1558.07934418209
 31
0.0
  0
LINE
  5
362
330
1F
100
AcDbEntity
  8
D-STR
100
AcDbLine
 10
153.1409565677245
 20
1377.582301182092
 30
0.0
 11
741.2230695677249
 21
1377.582301182092
 31
0.0
  0
LINE
  5
363
330
1F
100
AcDbEntity
  8
D-STR
  6
DASHED
100
AcDbLine
 10
162.7273685677241
 20
1510.469047182091
 30
0.0
 11
162.7273685677241
 21
1506.875812182091
 31
0.0
  0
LINE
  5
364
330
1F
100
AcDbEntity
  8
D-STR
100
AcDbLine
 10
153.1409565677245
 20
1558.07934418209
 30
0.0
 11
153.1409565677245
 21
1377.582301182092
 31
0.0
  0
LINE
  5
365
330
1F
100
AcDbEntity
  8
D-STR
100
AcDbLine
 10
436.6866085677242
 20
1142.971525182091
 30
0.0
 11
186.1409565677245
 21
1142.971525182091
 31
0.0
  0
LINE
  5
366
330
1F
100
AcDbEntity
  8
D-STR
100
AcDbLine
 10
436.6866085677242
 20
1135.971525182091
 30
0.0
 11
186.1409565677245
 21
1135.971525182091
 31
0.0
  0
LINE
  5
367
330
1F
100
AcDbEntity
  8
D-STR
100
AcDbLine
 10
436.6866085677242
 20
1128.471525182091
 30
0.0
 11
186.1409565677245
 21
1128.471525182091
 31
0.0
  0
LINE
  5
368
330
1F
100
AcDbEntity
  8
D-STR
100
AcDbLine
 10
436.6866085677242
 20
1121.471525182091
 30
0.0
 11
186.1409565677245
 21
1121.471525182091
 31
0.0
  0
LINE
  5
369
330
1F
100
AcDbEntity
  8
D-STR
100
AcDbLine
 10
436.6866085677242
 20
1430.03640218209
 30
0.0
 11
186.8137545677241
 21
1430.03640218209
 31
0.0
  0
LINE
  5
36A
330
1F
100
AcDbEntity
  8
D-STR
100
AcDbLine
 10
186.8137545677241
 20
1436.978270182092
 30
0.0
 11
436.6866085677242
 21
1436.978270182092
 31
0.0
  0
LINE
  5
36B
330
1F
100
AcDbEntity
  8
D-STR
100
AcDbLine
 10
436.6866085677242
 20
1415.983858182091
 30
0.0
 11
186.8137545677241
 21
1415.983858182091
 31
0.0
  0
LINE
  5
36C
330
1F
100
AcDbEntity
  8
D-STR
100
AcDbLine
 10
186.8137545677241
 20
1422.925725182091
 30
0.0
 11
436.6866085677242
 21
1422.925725182091
 31
0.0
  0
LINE
  5
36D
330
1F
100
AcDbEntity
  8
D-STR
100
AcDbLine
 10
436.6866085677242
 20
1401.945094182091
 30
0.0
 11
186.8137545677241
 21
1401.945094182091
 31
0.0
  0
LINE
  5
36E
330
1F
100
AcDbEntity
  8
D-STR
100
AcDbLine
 10
186.8137545677241
 20
1408.886961182091
 30
0.0
 11
436.6866085677242
 21
1408.886961182091
 31
0.0
  0
LINE
  5
36F
330
1F
100
AcDbEntity
  8
D-STR
100
AcDbLine
 10
436.6866085677242
 20
1387.892549182091
 30
0.0
 11
186.8137545677241
 21
1387.892549182091
 31
0.0
  0
LINE
  5
370
330
1F
100
AcDbEntity
  8
D-STR
100
AcDbLine
 10
186.8137545677241
 20
1394.834417182091
 30
0.0
 11
436.6866085677242
 21
1394.834417182091
 31
0.0
  0
LINE
  5
371
330
1F
100
AcDbEntity
  8
D-STR
  6
DASHED
100
AcDbLine
 10
232.1409805677248
 20
1148.487179182092
 30
0.0
 11
230.1409805677248
 21
1146.487179182092
 31
0.0
  0
LINE
  5
372
330
1F
100
AcDbEntity
  8
D-STR
  6
DASHED
100
AcDbLine
 10
188.0076475677242
 20
1149.487179182092
 30
0.0
 11
244.2743145677241
 21
1149.487179182092
 31
0.0
  0
LINE
  5
373
330
1F
100
AcDbEntity
  8
D-STR
  6
DASHED
100
AcDbLine
 10
188.1409805677249
 20
1148.487179182092
 30
0.0
 11
200.1409805677249
 21
1148.487179182092
 31
0.0
  0
ARC
  5
374
330
1F
100
AcDbEntity
  8
D-STR
  6
DASHED
100
AcDbCircle
 10
183.8663235677245
 20
1161.473429182092
 30
0.0
 40
1.0
100
AcDbArc
 50
198.4349490000067
 51
264.5123180000063
  0
LINE
  5
375
330
1F
100
AcDbEntity
  8
D-STR
  6
DASHED
100
AcDbLine
 10
182.5968285677245
 20
1162.119634182091
 30
0.0
 11
182.9176395677241
 21
1161.157201182091
 31
0.0
  0
ARC
  5
376
330
1F
100
AcDbEntity
  8
D-STR
  6
DASHED
100
AcDbCircle
 10
183.5794275677244
 20
1158.487179182092
 30
0.0
 40
2.0
100
AcDbArc
 50
14.03624300000431
 51
84.51231800000631
  0
LINE
  5
377
330
1F
100
AcDbEntity
  8
D-STR
100
AcDbLine
 10
186.1409565677245
 20
1142.971525182091
 30
0.0
 11
186.1409565677245
 21
1135.971525182091
 31
0.0
  0
LINE
  5
378
330
1F
100
AcDbEntity
  8
D-STR
  6
DASHED
100
AcDbLine
 10
188.0076475677242
 20
1149.487179182092
 30
0.0
 11
181.1409805677249
 21
1160.487179182092
 31
0.0
  0
LINE
  5
379
330
1F
100
AcDbEntity
  8
D-STR
  6
DASHED
100
AcDbLine
 10
185.5197125677245
 20
1158.972250182091
 30
0.0
 11
188.1409805677249
 21
1148.487179182092
 31
0.0
  0
LINE
  5
37A
330
1F
100
AcDbEntity
  8
D-STR
100
AcDbLine
 10
186.1409565677245
 20
1142.971525182091
 30
0.0
 11
189.1409565677245
 21
1135.971525182091
 31
0.0
  0
LINE
  5
37B
330
1F
100
AcDbEntity
  8
D-STR
100
AcDbLine
 10
186.1409565677245
 20
1128.471525182091
 30
0.0
 11
186.1409565677245
 21
1121.471525182091
 31
0.0
  0
LINE
  5
37C
330
1F
100
AcDbEntity
  8
D-STR
100
AcDbLine
 10
186.1409565677245
 20
1128.471525182091
 30
0.0
 11
189.1409565677245
 21
1121.471525182091
 31
0.0
  0
ARC
  5
37D
330
1F
100
AcDbEntity
  8
D-STR
  6
DASHED
100
AcDbCircle
 10
175.1927995677242
 20
1156.09081618209
 30
0.0
 40
7.396544
100
AcDbArc
 50
36.46849300000767
 51
90.40140499999642
  0
ARC
  5
37E
330
1F
100
AcDbEntity
  8
D-STR
  6
DASHED
100
AcDbCircle
 10
180.6994625677248
 20
1161.487179182092
 30
0.0
 40
2.0
100
AcDbArc
 50
18.4349490000067
 51
90.0
  0
LINE
  5
37F
330
1F
100
AcDbEntity
  8
D-STR
  6
DASHED
100
AcDbLine
 10
230.1409805677248
 20
1146.487179182092
 30
0.0
 11
229.1409805677249
 21
1148.487179182092
 31
0.0
  0
LINE
  5
380
330
1F
100
AcDbEntity
  8
D-STR
  6
DASHED
100
AcDbLine
 10
221.3909805677249
 20
1136.487179182092
 30
0.0
 11
223.1409805677249
 21
1136.487179182092
 31
0.0
  0
LINE
  5
381
330
1F
100
AcDbEntity
  8
D-STR
  6
DASHED
100
AcDbLine
 10
223.1409805677249
 20
1136.487179182092
 30
0.0
 11
225.1409805677249
 21
1144.487179182092
 31
0.0
  0
LINE
  5
382
330
1F
100
AcDbEntity
  8
D-STR
  6
DASHED
100
AcDbLine
 10
225.1409805677249
 20
1144.487179182092
 30
0.0
 11
229.1409805677249
 21
1148.487179182092
 31
0.0
  0
LINE
  5
383
330
1F
100
AcDbEntity
  8
D-STR
  6
DASHED
100
AcDbLine
 10
210.8909805677249
 20
1136.487179182092
 30
0.0
 11
209.1409805677248
 21
1136.487179182092
 31
0.0
  0
LINE
  5
384
330
1F
100
AcDbEntity
  8
D-STR
  6
DASHED
100
AcDbLine
 10
209.1409805677248
 20
1136.487179182092
 30
0.0
 11
207.1409805677248
 21
1144.487179182092
 31
0.0
  0
LINE
  5
385
330
1F
100
AcDbEntity
  8
D-STR
  6
DASHED
100
AcDbLine
 10
202.1409805677249
 20
1146.487179182092
 30
0.0
 11
203.1409805677248
 21
1148.487179182092
 31
0.0
  0
LINE
  5
386
330
1F
100
AcDbEntity
  8
D-STR
  6
DASHED
100
AcDbLine
 10
200.1409805677249
 20
1148.487179182092
 30
0.0
 11
202.1409805677249
 21
1146.487179182092
 31
0.0
  0
LINE
  5
387
330
1F
100
AcDbEntity
  8
D-STR
  6
DASHED
100
AcDbLine
 10
207.1409805677248
 20
1144.487179182092
 30
0.0
 11
203.1409805677248
 21
1148.487179182092
 31
0.0
  0
LINE
  5
388
330
1F
100
AcDbEntity
  8
D-STR
  6
DASHED
100
AcDbLine
 10
244.2743145677241
 20
1149.487179182092
 30
0.0
 11
251.1409805677249
 21
1160.487179182092
 31
0.0
  0
ARC
  5
389
330
1F
100
AcDbEntity
  8
D-STR
  6
DASHED
100
AcDbCircle
 10
248.4156385677247
 20
1161.473429182092
 30
0.0
 40
1.0
100
AcDbArc
 50
275.4876819999937
 51
341.5650509999933
  0
ARC
  5
38A
330
1F
100
AcDbEntity
  8
D-STR
  6
DASHED
100
AcDbCircle
 10
248.702533567724
 20
1158.487179182092
 30
0.0
 40
2.0
100
AcDbArc
 50
95.4876819999937
 51
165.9637569999956
  0
LINE
  5
38B
330
1F
100
AcDbEntity
  8
D-STR
  6
DASHED
100
AcDbLine
 10
246.7622485677247
 20
1158.972250182091
 30
0.0
 11
244.1409805677249
 21
1148.487179182092
 31
0.0
  0
LINE
  5
38C
330
1F
100
AcDbEntity
  8
D-STR
  6
DASHED
100
AcDbLine
 10
249.6851325677244
 20
1162.119634182091
 30
0.0
 11
249.3643215677243
 21
1161.157201182091
 31
0.0
  0
ARC
  5
38D
330
1F
100
AcDbEntity
  8
D-STR
  6
DASHED
100
AcDbCircle
 10
257.0891625677245
 20
1156.09081618209
 30
0.0
 40
7.396544
100
AcDbArc
 50
89.59859500000357
 51
143.5315069999923
  0
ARC
  5
38E
330
1F
100
AcDbEntity
  8
D-STR
  6
DASHED
100
AcDbCircle
 10
251.5824995677244
 20
1161.487179182092
 30
0.0
 40
2.0
100
AcDbArc
 50
90.0
 51
161.5650509999932
  0
LINE
  5
38F
330
1F
100
AcDbEntity
  8
D-STR
  6
DASHED
100
AcDbLine
 10
237.1409805677249
 20
1148.487179182092
 30
0.0
 11
232.1409805677248
 21
1148.487179182092
 31
0.0
  0
LINE
  5
390
330
1F
100
AcDbEntity
  8
D-STR
  6
DASHED
100
AcDbLine
 10
244.1409805677249
 20
1148.487179182092
 30
0.0
 11
232.1409805677248
 21
1148.487179182092
 31
0.0
  0
CIRCLE
  5
391
330
1F
100
AcDbEntity
  8
D-STR
100
AcDbCircle
 10
217.190022567724
 20
1482.818710182092
 30
0.0
 40
16.18592
  0
SPLINE
  5
392
330
1F
100
AcDbEntity
  8
D-STR
100
AcDbSpline
210
0.0
220
0.0
230
1.0
 70
    11
 71
     3
 72
    20
 73
    16
 74
     0
 42
0.0000000001
 43
0.0000000001
 40
0.0
 40
0.0
 40
0.0
 40
0.0
 40
1.0
 40
1.0
 40
1.0
 40
2.0
 40
2.0
 40
2.0
 40
3.0
 40
3.0
 40
3.0
 40
4.0
 40
4.0
 40
4.0
 40
5.0
 40
5.0
 40
5.0
 40
5.0
 10
187.4976055507731
 20
1460.02940395887
 30
0.0
 10
187.4976055507731
 20
1463.881020712338
 30
0.0
 10
187.7594328077184
 20
1507.475258993575
 30
0.0
 10
217.1874384500783
 20
1507.475258993575
 30
0.0
 10
246.6171666401864
 20
1507.475258993575
 30
0.0
 10
246.8824389926175
 20
1465.193602092543
 30
0.0
 10
246.8824389926175
 20
1460.02940395887
 30
0.0
 10
246.8824389926175
 20
1454.865205825196
 30
0.0
 10
245.4682272955624
 20
1443.995929566496
 30
0.0
 10
245.4682272955624
 20
1443.995929566496
 30
0.0
 10
245.4682272955624
 20
1443.995929566496
 30
0.0
 10
188.910094700082
 20
1443.995929566496
 30
0.0
 10
188.910094700082
 20
1443.995929566496
 30
0.0
 10
188.910094700082
 20
1443.995929566496
 30
0.0
 10
187.4976055507731
 20
1456.191567587341
 30
0.0
 10
187.4976055507731
 20
1460.02940395887
 30
0.0
  0
SPLINE
  5
393
330
1F
100
AcDbEntity
  8
D-STR
100
AcDbSpline
210
0.0
220
0.0
230
1.0
 70
    11
 71
     3
 72
    20
 73
    16
 74
     0
 42
0.0000000001
 43
0.0000000001
 40
0.0
 40
0.0
 40
0.0
 40
0.0
 40
1.0
 40
1.0
 40
1.0
 40
2.0
 40
2.0
 40
2.0
 40
3.0
 40
3.0
 40
3.0
 40
4.0
 40
4.0
 40
4.0
 40
5.0
 40
5.0
 40
5.0
 40
5.0
 10
188.910094700082
 20
1460.02940395887
 30
0.0
 10
188.910094700082
 20
1464.311657648105
 30
0.0
 10
191.4370722391481
 20
1505.384086033512
 30
0.0
 10
217.1874384500783
 20
1505.384086033512
 30
0.0
 10
242.9395272087585
 20
1505.384086033512
 30
0.0
 10
245.4682272955624
 20
1464.09461663248
 30
0.0
 10
245.4682272955624
 20
1460.02940395887
 30
0.0
 10
245.4682272955624
 20
1455.964191285261
 30
0.0
 10
245.4682272955624
 20
1443.995929566496
 30
0.0
 10
245.4682272955624
 20
1443.995929566496
 30
0.0
 10
245.4682272955624
 20
1443.995929566496
 30
0.0
 10
188.910094700082
 20
1443.995929566496
 30
0.0
 10
188.910094700082
 20
1443.995929566496
 30
0.0
 10
188.910094700082
 20
1443.995929566496
 30
0.0
 10
188.910094700082
 20
1455.75059536512
 30
0.0
 10
188.910094700082
 20
1460.02940395887
 30
0.0
  0
LWPOLYLINE
  5
394
330
1F
100
AcDbEntity
  8
D-STR
100
AcDbPolyline
 90
        4
 70
     1
 43
0.0
 10
188.9100945677246
 20
1460.029404182091
 10
245.4682275677246
 20
1460.029404182091
 10
245.4682275677246
 20
1443.995929182091
 10
188.9100945677246
 20
1443.995929182091
  0
LINE
  5
395
330
1F
100
AcDbEntity
  8
D-STR
100
AcDbLine
 10
190.7583885677245
 20
1408.886961182091
 30
0.0
 11
186.8137545677241
 21
1401.945094182091
 31
0.0
  0
LINE
  5
396
330
1F
100
AcDbEntity
  8
D-STR
100
AcDbLine
 10
190.7583885677245
 20
1394.834417182091
 30
0.0
 11
186.8137545677241
 21
1387.892549182091
 31
0.0
  0
LINE
  5
397
330
1F
100
AcDbEntity
  8
D-STR
100
AcDbLine
 10
186.8137545677241
 20
1401.945094182091
 30
0.0
 11
186.8137545677241
 21
1408.886961182091
 31
0.0
  0
LINE
  5
398
330
1F
100
AcDbEntity
  8
D-STR
100
AcDbLine
 10
186.8137545677241
 20
1387.892549182091
 30
0.0
 11
186.8137545677241
 21
1394.834417182091
 31
0.0
  0
LINE
  5
399
330
1F
100
AcDbEntity
  8
D-STR
100
AcDbLine
 10
190.7583885677245
 20
1436.978270182092
 30
0.0
 11
186.8137545677241
 21
1430.03640218209
 31
0.0
  0
LINE
  5
39A
330
1F
100
AcDbEntity
  8
D-STR
100
AcDbLine
 10
190.7583885677245
 20
1422.925725182091
 30
0.0
 11
186.8137545677241
 21
1415.983858182091
 31
0.0
  0
LINE
  5
39B
330
1F
100
AcDbEntity
  8
D-STR
100
AcDbLine
 10
186.8137545677241
 20
1430.03640218209
 30
0.0
 11
186.8137545677241
 21
1436.978270182092
 31
0.0
  0
LINE
  5
39C
330
1F
100
AcDbEntity
  8
D-STR
100
AcDbLine
 10
186.8137545677241
 20
1415.983858182091
 30
0.0
 11
186.8137545677241
 21
1422.925725182091
 31
0.0
  0
LINE
  5
39D
330
1F
100
AcDbEntity
  8
D-STR
  6
DASHED
100
AcDbLine
 10
162.7273685677241
 20
1499.971841182091
 30
0.0
 11
162.7273685677241
 21
1485.38186118209
 31
0.0
  0
CIRCLE
  5
39E
330
1F
100
AcDbEntity
  8
D-STR
100
AcDbCircle
 10
217.2098315677244
 20
1482.818710182092
 30
0.0
 40
5.162475999999999
  0
CIRCLE
  5
39F
330
1F
100
AcDbEntity
  8
D-STR
100
AcDbCircle
 10
217.190022567724
 20
1482.808375182091
 30
0.0
 40
6.451802999999999
  0
CIRCLE
  5
3A0
330
1F
100
AcDbEntity
  8
D-STR
100
AcDbCircle
 10
217.190022567724
 20
1482.808375182091
 30
0.0
 40
9.290561
  0
CIRCLE
  5
3A1
330
1F
100
AcDbEntity
  8
D-STR
100
AcDbCircle
 10
217.190022567724
 20
1482.808375182091
 30
0.0
 40
12.949253
  0
LINE
  5
3A2
330
1F
100
AcDbEntity
  8
D-STR
100
AcDbLine
 10
456.6866085677243
 20
1142.971525182091
 30
0.0
 11
459.6866085677243
 21
1135.971525182091
 31
0.0
  0
LINE
  5
3A3
330
1F
100
AcDbEntity
  8
D-STR
100
AcDbLine
 10
456.6866085677243
 20
1142.971525182091
 30
0.0
 11
456.6866085677243
 21
1135.971525182091
 31
0.0
  0
LINE
  5
3A4
330
1F
100
AcDbEntity
  8
D-STR
100
AcDbLine
 10
456.6866085677243
 20
1128.471525182091
 30
0.0
 11
459.6866085677243
 21
1121.471525182091
 31
0.0
  0
LINE
  5
3A5
330
1F
100
AcDbEntity
  8
D-STR
100
AcDbLine
 10
456.6866085677243
 20
1128.471525182091
 30
0.0
 11
456.6866085677243
 21
1121.471525182091
 31
0.0
  0
LINE
  5
3A6
330
1F
100
AcDbEntity
  8
D-STR
100
AcDbLine
 10
436.6866085677242
 20
1142.971525182091
 30
0.0
 11
433.6866085677242
 21
1135.971525182091
 31
0.0
  0
LINE
  5
3A7
330
1F
100
AcDbEntity
  8
D-STR
100
AcDbLine
 10
436.6866085677242
 20
1142.971525182091
 30
0.0
 11
436.6866085677242
 21
1135.971525182091
 31
0.0
  0
LINE
  5
3A8
330
1F
100
AcDbEntity
  8
D-STR
100
AcDbLine
 10
436.6866085677242
 20
1128.471525182091
 30
0.0
 11
433.6866085677242
 21
1121.471525182091
 31
0.0
  0
LINE
  5
3A9
330
1F
100
AcDbEntity
  8
D-STR
100
AcDbLine
 10
436.6866085677242
 20
1128.471525182091
 30
0.0
 11
436.6866085677242
 21
1121.471525182091
 31
0.0
  0
LINE
  5
3AA
330
1F
100
AcDbEntity
  8
D-STR
100
AcDbLine
 10
456.6866085677243
 20
1394.834417182091
 30
0.0
 11
456.6866085677243
 21
1387.892549182091
 31
0.0
  0
LINE
  5
3AB
330
1F
100
AcDbEntity
  8
D-STR
100
AcDbLine
 10
456.6866085677243
 20
1408.886961182091
 30
0.0
 11
456.6866085677243
 21
1401.945094182091
 31
0.0
  0
LINE
  5
3AC
330
1F
100
AcDbEntity
  8
D-STR
100
AcDbLine
 10
460.6295205677247
 20
1408.886961182091
 30
0.0
 11
456.6866085677243
 21
1401.945094182091
 31
0.0
  0
LINE
  5
3AD
330
1F
100
AcDbEntity
  8
D-STR
100
AcDbLine
 10
460.6295205677247
 20
1394.834417182091
 30
0.0
 11
456.6866085677243
 21
1387.892549182091
 31
0.0
  0
LINE
  5
3AE
330
1F
100
AcDbEntity
  8
D-STR
100
AcDbLine
 10
432.7419745677243
 20
1408.886961182091
 30
0.0
 11
436.6866085677242
 21
1401.945094182091
 31
0.0
  0
LINE
  5
3AF
330
1F
100
AcDbEntity
  8
D-STR
100
AcDbLine
 10
432.7419745677243
 20
1394.834417182091
 30
0.0
 11
436.6866085677242
 21
1387.892549182091
 31
0.0
  0
LINE
  5
3B0
330
1F
100
AcDbEntity
  8
D-STR
100
AcDbLine
 10
436.6866085677242
 20
1408.886961182091
 30
0.0
 11
436.6866085677242
 21
1401.945094182091
 31
0.0
  0
LINE
  5
3B1
330
1F
100
AcDbEntity
  8
D-STR
100
AcDbLine
 10
436.6866085677242
 20
1394.834417182091
 30
0.0
 11
436.6866085677242
 21
1387.892549182091
 31
0.0
  0
LINE
  5
3B2
330
1F
100
AcDbEntity
  8
D-STR
100
AcDbLine
 10
456.6866085677243
 20
1436.978270182092
 30
0.0
 11
456.6866085677243
 21
1430.03640218209
 31
0.0
  0
LINE
  5
3B3
330
1F
100
AcDbEntity
  8
D-STR
100
AcDbLine
 10
460.6295205677247
 20
1436.978270182092
 30
0.0
 11
456.6866085677243
 21
1430.03640218209
 31
0.0
  0
LINE
  5
3B4
330
1F
100
AcDbEntity
  8
D-STR
100
AcDbLine
 10
456.6866085677243
 20
1422.925725182091
 30
0.0
 11
456.6866085677243
 21
1415.983858182091
 31
0.0
  0
LINE
  5
3B5
330
1F
100
AcDbEntity
  8
D-STR
100
AcDbLine
 10
460.6295205677247
 20
1422.925725182091
 30
0.0
 11
456.6866085677243
 21
1415.983858182091
 31
0.0
  0
LINE
  5
3B6
330
1F
100
AcDbEntity
  8
D-STR
100
AcDbLine
 10
432.7419745677243
 20
1436.978270182092
 30
0.0
 11
436.6866085677242
 21
1430.03640218209
 31
0.0
  0
LINE
  5
3B7
330
1F
100
AcDbEntity
  8
D-STR
100
AcDbLine
 10
436.6866085677242
 20
1436.978270182092
 30
0.0
 11
436.6866085677242
 21
1430.03640218209
 31
0.0
  0
LINE
  5
3B8
330
1F
100
AcDbEntity
  8
D-STR
100
AcDbLine
 10
432.7419745677243
 20
1422.925725182091
 30
0.0
 11
436.6866085677242
 21
1415.983858182091
 31
0.0
  0
LINE
  5
3B9
330
1F
100
AcDbEntity
  8
D-STR
100
AcDbLine
 10
436.6866085677242
 20
1422.925725182091
 30
0.0
 11
436.6866085677242
 21
1415.983858182091
 31
0.0
  0
DIMENSION
  5
3BA
330
1F
100
AcDbEntity
  8
D-STR-DIM
100
AcDbDimension
  2
*D11
 10
747.2230695677248
 20
1658.07934418209
 30
0.0
 11
712.2105945677248
 21
1683.07934418209
 31
0.0
 70
    32
 71
     5
 42
70.02494999999999
  3
Standard
100
AcDbAlignedDimension
 13
677.1981195677248
 23
1482.818710182092
 33
0.0
 14
747.2230695677248
 24
1552.07934418209
 34
0.0
100
AcDbRotatedDimension
1001
ACAD
1000
DSTYLE
1002
{
1070
   279
1070
     1
1002
}
  0
LINE
  5
3BB
330
1F
100
AcDbEntity
  8
D-STR
  6
DASHED
100
AcDbLine
 10
731.6366575677243
 20
1510.469047182091
 30
0.0
 11
731.6366575677243
 21
1506.875812182091
 31
0.0
  0
LINE
  5
3BC
330
1F
100
AcDbEntity
  8
D-STR
100
AcDbLine
 10
747.2230695677248
 20
1383.582301182092
 30
0.0
 11
747.2230695677248
 21
1552.07934418209
 31
0.0
  0
LINE
  5
3BD
330
1F
100
AcDbEntity
  8
D-STR
100
AcDbLine
 10
741.2230695677249
 20
1377.582301182092
 30
0.0
 11
741.2230695677249
 21
1558.07934418209
 31
0.0
  0
LINE
  5
3BE
330
1F
100
AcDbEntity
  8
D-STR
  6
DASHED
100
AcDbLine
 10
704.274264567724
 20
1149.487179182092
 30
0.0
 11
711.1409315677242
 21
1160.487179182092
 31
0.0
  0
LINE
  5
3BF
330
1F
100
AcDbEntity
  8
D-STR
  6
DASHED
100
AcDbLine
 10
706.7621985677247
 20
1158.972250182091
 30
0.0
 11
704.1409315677242
 21
1148.487179182092
 31
0.0
  0
LINE
  5
3C0
330
1F
100
AcDbEntity
  8
D-STR
100
AcDbLine
 10
706.1409565677244
 20
1142.971525182091
 30
0.0
 11
703.1409565677245
 21
1135.971525182091
 31
0.0
  0
LINE
  5
3C1
330
1F
100
AcDbEntity
  8
D-STR
100
AcDbLine
 10
706.1409565677244
 20
1128.471525182091
 30
0.0
 11
703.1409565677245
 21
1121.471525182091
 31
0.0
  0
LINE
  5
3C2
330
1F
100
AcDbEntity
  8
D-STR
  6
DASHED
100
AcDbLine
 10
667.1409315677246
 20
1144.487179182092
 30
0.0
 11
663.1409315677246
 21
1148.487179182092
 31
0.0
  0
LINE
  5
3C3
330
1F
100
AcDbEntity
  8
D-STR
  6
DASHED
100
AcDbLine
 10
704.274264567724
 20
1149.487179182092
 30
0.0
 11
648.0075975677241
 21
1149.487179182092
 31
0.0
  0
LINE
  5
3C4
330
1F
100
AcDbEntity
  8
D-STR
  6
DASHED
100
AcDbLine
 10
662.1409315677246
 20
1146.487179182092
 30
0.0
 11
663.1409315677246
 21
1148.487179182092
 31
0.0
  0
LINE
  5
3C5
330
1F
100
AcDbEntity
  8
D-STR
  6
DASHED
100
AcDbLine
 10
660.1409315677247
 20
1148.487179182092
 30
0.0
 11
662.1409315677246
 21
1146.487179182092
 31
0.0
  0
LINE
  5
3C6
330
1F
100
AcDbEntity
  8
D-STR
  6
DASHED
100
AcDbLine
 10
648.1409315677247
 20
1148.487179182092
 30
0.0
 11
660.1409315677247
 21
1148.487179182092
 31
0.0
  0
LINE
  5
3C7
330
1F
100
AcDbEntity
  8
D-STR
  6
DASHED
100
AcDbLine
 10
655.1409315677247
 20
1148.487179182092
 30
0.0
 11
660.1409315677247
 21
1148.487179182092
 31
0.0
  0
LINE
  5
3C8
330
1F
100
AcDbEntity
  8
D-STR
  6
DASHED
100
AcDbLine
 10
642.5967795677243
 20
1162.119634182091
 30
0.0
 11
642.9175905677238
 21
1161.157201182091
 31
0.0
  0
ARC
  5
3C9
330
1F
100
AcDbEntity
  8
D-STR
  6
DASHED
100
AcDbCircle
 10
643.8662735677248
 20
1161.473429182092
 30
0.0
 40
1.0
100
AcDbArc
 50
198.4349490000067
 51
264.5123180000063
  0
ARC
  5
3CA
330
1F
100
AcDbEntity
  8
D-STR
  6
DASHED
100
AcDbCircle
 10
643.5793785677242
 20
1158.487179182092
 30
0.0
 40
2.0
100
AcDbArc
 50
14.03624300000431
 51
84.51231800000631
  0
ARC
  5
3CB
330
1F
100
AcDbEntity
  8
D-STR
  6
DASHED
100
AcDbCircle
 10
635.1927495677245
 20
1156.09081618209
 30
0.0
 40
7.396544
100
AcDbArc
 50
36.46849300000767
 51
90.40140499999642
  0
ARC
  5
3CC
330
1F
100
AcDbEntity
  8
D-STR
  6
DASHED
100
AcDbCircle
 10
640.6994125677247
 20
1161.487179182092
 30
0.0
 40
2.0
100
AcDbArc
 50
18.4349490000067
 51
90.0
  0
LINE
  5
3CD
330
1F
100
AcDbEntity
  8
D-STR
  6
DASHED
100
AcDbLine
 10
645.5196635677244
 20
1158.972250182091
 30
0.0
 11
648.1409315677247
 21
1148.487179182092
 31
0.0
  0
LINE
  5
3CE
330
1F
100
AcDbEntity
  8
D-STR
  6
DASHED
100
AcDbLine
 10
648.0075975677241
 20
1149.487179182092
 30
0.0
 11
641.1409315677246
 21
1160.487179182092
 31
0.0
  0
LINE
  5
3CF
330
1F
100
AcDbEntity
  8
D-STR
  6
DASHED
100
AcDbLine
 10
690.1409315677247
 20
1146.487179182092
 30
0.0
 11
689.1409315677247
 21
1148.487179182092
 31
0.0
  0
LINE
  5
3D0
330
1F
100
AcDbEntity
  8
D-STR
  6
DASHED
100
AcDbLine
 10
683.1409315677246
 20
1136.487179182092
 30
0.0
 11
685.1409315677247
 21
1144.487179182092
 31
0.0
  0
LINE
  5
3D1
330
1F
100
AcDbEntity
  8
D-STR
  6
DASHED
100
AcDbLine
 10
685.1409315677247
 20
1144.487179182092
 30
0.0
 11
689.1409315677247
 21
1148.487179182092
 31
0.0
  0
LINE
  5
3D2
330
1F
100
AcDbEntity
  8
D-STR
  6
DASHED
100
AcDbLine
 10
692.1409315677246
 20
1148.487179182092
 30
0.0
 11
690.1409315677247
 21
1146.487179182092
 31
0.0
  0
LINE
  5
3D3
330
1F
100
AcDbEntity
  8
D-STR
  6
DASHED
100
AcDbLine
 10
704.1409315677242
 20
1148.487179182092
 30
0.0
 11
692.1409315677246
 21
1148.487179182092
 31
0.0
  0
LINE
  5
3D4
330
1F
100
AcDbEntity
  8
D-STR
  6
DASHED
100
AcDbLine
 10
670.8909315677247
 20
1136.487179182092
 30
0.0
 11
669.1409315677247
 21
1136.487179182092
 31
0.0
  0
LINE
  5
3D5
330
1F
100
AcDbEntity
  8
D-STR
  6
DASHED
100
AcDbLine
 10
669.1409315677247
 20
1136.487179182092
 30
0.0
 11
667.1409315677246
 21
1144.487179182092
 31
0.0
  0
LINE
  5
3D6
330
1F
100
AcDbEntity
  8
D-STR
  6
DASHED
100
AcDbLine
 10
681.3909315677246
 20
1136.487179182092
 30
0.0
 11
683.1409315677246
 21
1136.487179182092
 31
0.0
  0
ARC
  5
3D7
330
1F
100
AcDbEntity
  8
D-STR
100
AcDbCircle
 10
740.1409565677245
 20
1157.471525182091
 30
0.0
 40
6.0
100
AcDbArc
 50
0.0
 51
90.0
  0
LINE
  5
3D8
330
1F
100
AcDbEntity
  8
D-STR
  6
DASHED
100
AcDbLine
 10
709.6850825677242
 20
1162.119634182091
 30
0.0
 11
709.3642715677247
 21
1161.157201182091
 31
0.0
  0
ARC
  5
3D9
330
1F
100
AcDbEntity
  8
D-STR
  6
DASHED
100
AcDbCircle
 10
708.4155885677241
 20
1161.473429182092
 30
0.0
 40
1.0
100
AcDbArc
 50
275.4876819999937
 51
341.5650509999933
  0
ARC
  5
3DA
330
1F
100
AcDbEntity
  8
D-STR
  6
DASHED
100
AcDbCircle
 10
708.7024835677243
 20
1158.487179182092
 30
0.0
 40
2.0
100
AcDbArc
 50
95.4876819999937
 51
165.9637569999956
  0
LINE
  5
3DB
330
1F
100
AcDbEntity
  8
D-STR
100
AcDbLine
 10
706.1409565677244
 20
1142.971525182091
 30
0.0
 11
706.1409565677244
 21
1135.971525182091
 31
0.0
  0
LINE
  5
3DC
330
1F
100
AcDbEntity
  8
D-STR
100
AcDbLine
 10
706.1409565677244
 20
1128.471525182091
 30
0.0
 11
706.1409565677244
 21
1121.471525182091
 31
0.0
  0
ARC
  5
3DD
330
1F
100
AcDbEntity
  8
D-STR
  6
DASHED
100
AcDbCircle
 10
711.5824495677247
 20
1161.487179182092
 30
0.0
 40
2.0
100
AcDbArc
 50
90.0
 51
161.5650509999932
  0
ARC
  5
3DE
330
1F
100
AcDbEntity
  8
D-STR
  6
DASHED
100
AcDbCircle
 10
717.0891125677249
 20
1156.09081618209
 30
0.0
 40
7.396544
100
AcDbArc
 50
89.59859500000357
 51
143.5315069999923
  0
LINE
  5
3DF
330
1F
100
AcDbEntity
  8
D-STR
100
AcDbLine
 10
704.7855825677238
 20
1436.978270182092
 30
0.0
 11
708.7302175677246
 21
1430.03640218209
 31
0.0
  0
LINE
  5
3E0
330
1F
100
AcDbEntity
  8
D-STR
100
AcDbLine
 10
704.7855825677238
 20
1422.925725182091
 30
0.0
 11
708.7302175677246
 21
1415.983858182091
 31
0.0
  0
LINE
  5
3E1
330
1F
100
AcDbEntity
  8
D-STR
100
AcDbLine
 10
704.7855825677238
 20
1408.886961182091
 30
0.0
 11
708.7302175677246
 21
1401.945094182091
 31
0.0
  0
LINE
  5
3E2
330
1F
100
AcDbEntity
  8
D-STR
100
AcDbLine
 10
704.7855825677238
 20
1394.834417182091
 30
0.0
 11
708.7302175677246
 21
1387.892549182091
 31
0.0
  0
LWPOLYLINE
  5
3E3
330
1F
100
AcDbEntity
  8
D-STR
100
AcDbPolyline
 90
        4
 70
     1
 43
0.0
 10
648.8992435677241
 20
1460.029404182091
 10
705.4556535677242
 20
1460.029404182091
 10
705.4556535677242
 20
1443.995929182091
 10
648.8992435677241
 20
1443.995929182091
  0
SPLINE
  5
3E4
330
1F
100
AcDbEntity
  8
D-STR
100
AcDbSpline
210
0.0
220
0.0
230
1.0
 70
    11
 71
     3
 72
    20
 73
    16
 74
     0
 42
0.0000000001
 43
0.0000000001
 40
0.0
 40
0.0
 40
0.0
 40
0.0
 40
1.0
 40
1.0
 40
1.0
 40
2.0
 40
2.0
 40
2.0
 40
3.0
 40
3.0
 40
3.0
 40
4.0
 40
4.0
 40
4.0
 40
5.0
 40
5.0
 40
5.0
 40
5.0
 10
648.8992440056408
 20
1460.02940395887
 30
0.0
 10
648.8992440056408
 20
1464.311657648105
 30
0.0
 10
651.4262215446997
 20
1505.384086033512
 30
0.0
 10
677.1783103033794
 20
1505.384086033512
 30
0.0
 10
702.9303990620624
 20
1505.384086033512
 30
0.0
 10
705.4556540533826
 20
1464.09461663248
 30
0.0
 10
705.4556540533826
 20
1460.02940395887
 30
0.0
 10
705.4556540533826
 20
1455.964191285261
 30
0.0
 10
705.4556540533826
 20
1443.995929566496
 30
0.0
 10
705.4556540533826
 20
1443.995929566496
 30
0.0
 10
705.4556540533826
 20
1443.995929566496
 30
0.0
 10
648.8992440056408
 20
1443.995929566496
 30
0.0
 10
648.8992440056408
 20
1443.995929566496
 30
0.0
 10
648.8992440056408
 20
1443.995929566496
 30
0.0
 10
648.8992440056408
 20
1455.75059536512
 30
0.0
 10
648.8992440056408
 20
1460.02940395887
 30
0.0
  0
SPLINE
  5
3E5
330
1F
100
AcDbEntity
  8
D-STR
100
AcDbSpline
210
0.0
220
0.0
230
1.0
 70
    11
 71
     3
 72
    20
 73
    16
 74
     0
 42
0.0000000001
 43
0.0000000001
 40
0.0
 40
0.0
 40
0.0
 40
0.0
 40
1.0
 40
1.0
 40
1.0
 40
2.0
 40
2.0
 40
2.0
 40
3.0
 40
3.0
 40
3.0
 40
4.0
 40
4.0
 40
4.0
 40
5.0
 40
5.0
 40
5.0
 40
5.0
 10
647.4850323085934
 20
1460.02940395887
 30
0.0
 10
647.4850323085934
 20
1463.881020712338
 30
0.0
 10
647.74685956553
 20
1507.475258993575
 30
0.0
 10
677.1783103033794
 20
1507.475258993575
 30
0.0
 10
706.6045933979953
 20
1507.475258993575
 30
0.0
 10
706.8698657504296
 20
1465.193602092543
 30
0.0
 10
706.8698657504296
 20
1460.02940395887
 30
0.0
 10
706.8698657504296
 20
1454.865205825196
 30
0.0
 10
705.4556540533826
 20
1443.995929566496
 30
0.0
 10
705.4556540533826
 20
1443.995929566496
 30
0.0
 10
705.4556540533826
 20
1443.995929566496
 30
0.0
 10
648.8992440056408
 20
1443.995929566496
 30
0.0
 10
648.8992440056408
 20
1443.995929566496
 30
0.0
 10
648.8992440056408
 20
1443.995929566496
 30
0.0
 10
647.4850323085934
 20
1456.191567587341
 30
0.0
 10
647.4850323085934
 20
1460.02940395887
 30
0.0
  0
CIRCLE
  5
3E6
330
1F
100
AcDbEntity
  8
D-STR
100
AcDbCircle
 10
677.180032567724
 20
1482.818710182092
 30
0.0
 40
16.186781
  0
CIRCLE
  5
3E7
330
1F
100
AcDbEntity
  8
D-STR
100
AcDbCircle
 10
677.1774485677247
 20
1482.808375182091
 30
0.0
 40
12.949253
  0
CIRCLE
  5
3E8
330
1F
100
AcDbEntity
  8
D-STR
100
AcDbCircle
 10
677.1981195677248
 20
1482.818710182092
 30
0.0
 40
5.161614
  0
CIRCLE
  5
3E9
330
1F
100
AcDbEntity
  8
D-STR
100
AcDbCircle
 10
677.1783105677245
 20
1482.808375182091
 30
0.0
 40
6.452663999999999
  0
CIRCLE
  5
3EA
330
1F
100
AcDbEntity
  8
D-STR
100
AcDbCircle
 10
677.180032567724
 20
1482.808375182091
 30
0.0
 40
9.291422999999999
  0
ARC
  5
3EB
330
1F
100
AcDbEntity
  8
D-STR
100
AcDbCircle
 10
741.2230695677249
 20
1383.582301182092
 30
0.0
 40
6.0
100
AcDbArc
 50
270.0
 51
0.0
  0
LINE
  5
3EC
330
1F
100
AcDbEntity
  8
D-STR
100
AcDbLine
 10
708.7302175677246
 20
1394.834417182091
 30
0.0
 11
708.7302175677246
 21
1387.892549182091
 31
0.0
  0
LINE
  5
3ED
330
1F
100
AcDbEntity
  8
D-STR
100
AcDbLine
 10
708.7302175677246
 20
1408.886961182091
 30
0.0
 11
708.7302175677246
 21
1401.945094182091
 31
0.0
  0
LWPOLYLINE
  5
3EE
330
1F
100
AcDbEntity
  8
D-STR
  6
DASHED
100
AcDbPolyline
 90
        3
 70
     0
 43
0.0
 10
731.6366575677243
 20
1478.588133182092
 10
731.6366575677243
 20
1464.773300182091
 10
747.2230695677248
 20
1458.702188182092
  0
LINE
  5
3EF
330
1F
100
AcDbEntity
  8
D-STR
  6
DASHED
100
AcDbLine
 10
731.6366575677243
 20
1499.971841182091
 30
0.0
 11
731.6366575677243
 21
1485.38186118209
 31
0.0
  0
LINE
  5
3F0
330
1F
100
AcDbEntity
  8
D-STR
100
AcDbLine
 10
708.7302175677246
 20
1436.978270182092
 30
0.0
 11
708.7302175677246
 21
1430.03640218209
 31
0.0
  0
LINE
  5
3F1
330
1F
100
AcDbEntity
  8
D-STR
100
AcDbLine
 10
708.7302175677246
 20
1422.925725182091
 30
0.0
 11
708.7302175677246
 21
1415.983858182091
 31
0.0
  0
ARC
  5
3F2
330
1F
100
AcDbEntity
  8
D-STR
100
AcDbCircle
 10
741.2230695677249
 20
1552.07934418209
 30
0.0
 40
6.0
100
AcDbArc
 50
0.0
 51
90.0
  0
LINE
  5
3F3
330
1F
100
AcDbEntity
  8
D-STR
  6
DASHED
100
AcDbLine
 10
747.2230695677248
 20
1518.528863182092
 30
0.0
 11
735.7828295677241
 21
1512.794486182091
 31
0.0
  0
LINE
  5
3F4
330
1F
100
AcDbEntity
  8
D-STR-DIM
100
AcDbLine
 10
2511.141481799256
 20
880.8288745360846
 30
0.0
 11
2511.141481799256
 21
380.8288745360845
 31
0.0
  0
LINE
  5
3F5
330
1F
100
AcDbEntity
  8
D-STR-DIM
100
AcDbLine
 10
2111.141481799256
 20
880.8288745360846
 30
0.0
 11
2111.141481799256
 21
380.8288745360845
 31
0.0
  0
LINE
  5
3F6
330
1F
100
AcDbEntity
  8
D-STR-DIM
100
AcDbLine
 10
2211.141481799256
 20
880.8288745360846
 30
0.0
 11
2211.141481799256
 21
380.8288745360845
 31
0.0
  0
LINE
  5
3F7
330
1F
100
AcDbEntity
  8
D-STR-DIM
100
AcDbLine
 10
2811.141481799257
 20
880.8288745360846
 30
0.0
 11
2811.141481799257
 21
380.8288745360845
 31
0.0
  0
LINE
  5
3F8
330
1F
100
AcDbEntity
  8
D-STR-DIM
100
AcDbLine
 10
1511.141481799256
 20
880.8288745360846
 30
0.0
 11
1511.141481799256
 21
380.8288745360845
 31
0.0
  0
LINE
  5
3F9
330
1F
100
AcDbEntity
  8
D-STR-DIM
100
AcDbLine
 10
1811.141481799256
 20
880.8288745360846
 30
0.0
 11
1811.141481799256
 21
380.8288745360845
 31
0.0
  0
LINE
  5
3FA
330
1F
100
AcDbEntity
  8
D-STR-DIM
100
AcDbLine
 10
1511.141481799256
 20
380.8288745360845
 30
0.0
 11
2811.141481799257
 21
380.8288745360845
 31
0.0
  0
LINE
  5
3FB
330
1F
100
AcDbEntity
  8
D-STR-DIM
100
AcDbLine
 10
1511.141481799256
 20
540.8288745360845
 30
0.0
 11
2811.141481799257
 21
540.8288745360845
 31
0.0
  0
LINE
  5
3FC
330
1F
100
AcDbEntity
  8
D-STR-DIM
100
AcDbLine
 10
1511.141481799256
 20
460.8288745360844
 30
0.0
 11
2811.141481799257
 21
460.8288745360844
 31
0.0
  0
LEADER
  5
400
330
1F
100
AcDbEntity
  8
D-STR-DIM
100
AcDbLeader
  3
Standard
 73
     0
 40
23.95939086294416
 41
163.9796954314721
 76
     3
 10
1731.259583591565
 20
1411.964213609389
 30
0.0
 10
1702.319122988371
 20
1339.659702427031
 30
0.0
 10
1699.242667586293
 20
1339.659702427031
 30
0.0
340
401
1001
ACAD
1000
DSTYLE
1002
{
1070
   147
1040
1.0
1070
    77
1070
     1
1002
}
  0
MTEXT
  5
401
102
{ACAD_REACTORS
330
400
102
}
330
1F
100
AcDbEntity
  8
D-STR-DIM
100
AcDbMText
 10
1689.242667586293
 20
1349.659702427031
 30
0.0
 40
20.0
 41
0.0
 71
     9
 72
     1
  1
パーキングボンド
 73
     1
 44
1.0
  0
LINE
  5
402
330
1F
100
AcDbEntity
  8
D-STR
 62
     0
100
AcDbLine
 10
1489.604541728057
 20
1408.366523968691
 30
0.0
 11
1750.352570728056
 21
1408.366523968691
 31
0.0
  0
SPLINE
  5
403
330
1F
100
AcDbEntity
  8
D-STR
 62
     0
100
AcDbSpline
210
0.0
220
0.0
230
1.0
 70
    11
 71
     3
 72
    26
 73
    22
 74
     0
 42
0.0000000001
 43
0.0000000001
 40
0.0
 40
0.0
 40
0.0
 40
0.0
 40
1.0
 40
1.0
 40
1.0
 40
2.0
 40
2.0
 40
2.0
 40
3.0
 40
3.0
 40
3.0
 40
4.0
 40
4.0
 40
4.0
 40
5.0
 40
5.0
 40
5.0
 40
6.0
 40
6.0
 40
6.0
 40
7.0
 40
7.0
 40
7.0
 40
7.0
 10
1588.696865914393
 20
1239.339849625438
 30
0.0
 10
1585.916146101387
 20
1247.677931762676
 30
0.0
 10
1596.737305021813
 20
1259.445024695757
 30
0.0
 10
1611.66838413509
 20
1249.683964237778
 30
0.0
 10
1626.603540550144
 20
1239.92290377975
 30
0.0
 10
1622.008421445654
 20
1238.764950074652
 30
0.0
 10
1621.433521894872
 20
1230.1536887182
 30
0.0
 10
1620.858622344083
 20
1221.534272758229
 30
0.0
 10
1620.283722793301
 20
1218.093030057078
 30
0.0
 10
1622.008421445654
 20
1214.072810503357
 30
0.0
 10
1623.733120098006
 20
1210.052590949674
 30
0.0
 10
1626.028640999363
 20
1202.582974091266
 30
0.0
 10
1622.008421445654
 20
1199.13765408834
 30
0.0
 10
1617.988201891942
 20
1195.69233408541
 30
0.0
 10
1611.097561886086
 20
1191.672114531673
 30
0.0
 10
1599.03282592318
 20
1194.542534983832
 30
0.0
 10
1586.972167262041
 20
1197.412955435969
 30
0.0
 10
1585.830522764031
 20
1209.473614097109
 30
0.0
 10
1587.54706681283
 20
1216.364254102929
 30
0.0
 10
1589.271765465174
 20
1223.263048712373
 30
0.0
 10
1589.271765465174
 20
1237.623305576642
 30
0.0
 10
1588.696865914393
 20
1239.339849625438
 30
0.0
  0
SPLINE
  5
405
330
1F
100
AcDbEntity
  8
D-STR
 62
     0
100
AcDbSpline
210
0.0
220
0.0
230
1.0
 70
    11
 71
     3
 72
    20
 73
    16
 74
     0
 42
0.0000000001
 43
0.0000000001
 40
0.0
 40
0.0
 40
0.0
 40
0.0
 40
1.0
 40
1.0
 40
1.0
 40
2.0
 40
2.0
 40
2.0
 40
3.0
 40
3.0
 40
3.0
 40
4.0
 40
4.0
 40
4.0
 40
5.0
 40
5.0
 40
5.0
 40
5.0
 10
1612.702359804136
 20
1185.468590054912
 30
0.0
 10
1615.405610883363
 20
1177.371068722602
 30
0.0
 10
1630.507936671338
 20
1161.343195430876
 30
0.0
 10
1627.637516219192
 20
1151.007235422124
 30
0.0
 10
1624.758941163499
 20
1140.667198111562
 30
0.0
 10
1612.127460253357
 20
1132.6308363059
 30
0.0
 10
1602.937222044366
 20
1137.225955410408
 30
0.0
 10
1593.746983835382
 20
1141.81699721309
 30
0.0
 10
1585.706544727953
 20
1157.327053178934
 30
0.0
 10
1587.427166078522
 20
1167.667090489532
 30
0.0
 10
1589.155942032659
 20
1178.003050498299
 30
0.0
 10
1590.30574113423
 20
1184.318790953384
 30
0.0
 10
1601.216600693789
 20
1187.18921140549
 30
0.0
 10
1612.127460253357
 20
1190.067786461214
 30
0.0
 10
1611.556638004352
 20
1188.913910057859
 30
0.0
 10
1612.702359804136
 20
1185.468590054912
 30
0.0
  0
SPLINE
  5
406
330
1F
100
AcDbEntity
  8
D-STR
 62
     0
100
AcDbSpline
210
0.0
220
0.0
230
1.0
 70
    11
 71
     3
 72
    29
 73
    25
 74
     0
 42
0.0000000001
 43
0.0000000001
 40
0.0
 40
0.0
 40
0.0
 40
0.0
 40
1.0
 40
1.0
 40
1.0
 40
2.0
 40
2.0
 40
2.0
 40
3.0
 40
3.0
 40
3.0
 40
4.0
 40
4.0
 40
4.0
 40
5.0
 40
5.0
 40
5.0
 40
6.0
 40
6.0
 40
6.0
 40
7.0
 40
7.0
 40
7.0
 40
8.0
 40
8.0
 40
8.0
 40
8.0
 10
1627.058539366625
 20
1294.022672608679
 30
0.0
 10
1614.814402125458
 20
1300.778761655855
 30
0.0
 10
1604.661920696718
 20
1301.488212165342
 30
0.0
 10
1595.471682487727
 20
1294.597572159468
 30
0.0
 10
1586.28552158052
 20
1287.702854851853
 30
0.0
 10
1589.155942032659
 20
1276.791995292292
 30
0.0
 10
1592.026362484806
 20
1268.751556184857
 30
0.0
 10
1594.896782936946
 20
1260.711117077399
 30
0.0
 10
1602.366399795359
 20
1258.411518874293
 30
0.0
 10
1606.38661934907
 20
1253.241500218992
 30
0.0
 10
1610.406838902781
 20
1248.071481563748
 30
0.0
 10
1611.556638004352
 20
1243.480439761034
 30
0.0
 10
1613.277259354919
 20
1237.739598856721
 30
0.0
 10
1614.997880705495
 20
1231.99060334889
 30
0.0
 10
1620.742798911559
 20
1217.634423786404
 30
0.0
 10
1626.487717117621
 20
1224.520986490449
 30
0.0
 10
1632.232635323691
 20
1231.419781099892
 30
0.0
 10
1633.953256674259
 20
1234.869178404567
 30
0.0
 10
1637.973476227978
 20
1237.160622004189
 30
0.0
 10
1641.993695781688
 20
1239.460220207295
 30
0.0
 10
1643.139417581474
 20
1255.53702112036
 30
0.0
 10
1641.993695781688
 20
1260.132140224867
 30
0.0
 10
1640.847973981892
 20
1264.731336631121
 30
0.0
 10
1643.714317132263
 20
1284.83651170149
 30
0.0
 10
1627.058539366625
 20
1294.022672608679
 30
0.0
  0
SPLINE
  5
408
330
1F
100
AcDbEntity
  8
D-STR-STR1
100
AcDbSpline
210
0.0
220
0.0
230
1.0
 70
    24
 71
     3
 72
     8
 73
     4
 74
     0
 42
0.0000000001
 43
0.0000000001
 40
1.0
 40
1.0
 40
1.0
 40
1.0
 40
2.0
 40
2.0
 40
2.0
 40
2.0
 10
1606.207218070809
 20
1415.461028782839
 30
0.0
 10
1606.207218070809
 20
1415.461028782839
 30
0.0
 10
1731.535320141773
 20
1415.42025576507
 30
0.0
 10
1731.535320141773
 20
1415.42025576507
 30
0.0
  0
LINE
  5
409
330
1F
100
AcDbEntity
  8
D-STR
100
AcDbLine
 10
1606.582329728056
 20
1462.863738968691
 30
0.0
 11
1665.762900728056
 21
1415.44165396869
 31
0.0
  0
LINE
  5
40A
330
1F
100
AcDbEntity
  8
D-STR
100
AcDbLine
 10
1607.348862728057
 20
1436.93209996869
 30
0.0
 11
1633.519515728056
 21
1415.452142968691
 31
0.0
  0
SPLINE
  5
40B
330
1F
100
AcDbEntity
  8
D-STR
100
AcDbSpline
210
0.0
220
0.0
230
1.0
 70
     8
 71
     3
 72
     8
 73
     4
 74
     0
 42
0.0000000001
 43
0.0000000001
 40
7.0
 40
7.0
 40
7.0
 40
7.0
 40
8.0
 40
8.0
 40
8.0
 40
8.0
 10
1609.566914736384
 20
1474.581904572741
 30
0.0
 10
1607.332553361713
 20
1472.526944476299
 30
0.0
 10
1606.460010781086
 20
1468.947073514672
 30
0.0
 10
1606.460010781086
 20
1465.668922884672
 30
0.0
  0
MTEXT
  5
40C
330
1F
100
AcDbEntity
  8
D-STR-TXT
370
    -3
100
AcDbMText
 10
2161.141416799256
 20
1985.118523699358
 30
0.0
 40
50.0
 41
0.0
 71
     5
 72
     1
  1
{\Lパーキングブロック　NSP-120B}
 73
     1
 44
1.0
  0
LINE
  5
40D
330
1F
100
AcDbEntity
  8
D-STR-DIM
100
AcDbLine
 10
1511.141481799256
 20
620.8288745360845
 30
0.0
 11
2811.141481799257
 21
620.8288745360845
 31
0.0
  0
LINE
  5
40E
330
1F
100
AcDbEntity
  8
D-STR-DIM
100
AcDbLine
 10
1511.141481799256
 20
700.8288745360845
 30
0.0
 11
2811.141481799257
 21
700.8288745360845
 31
0.0
  0
LINE
  5
40F
330
1F
100
AcDbEntity
  8
D-STR-DIM
100
AcDbLine
 10
1511.141481799256
 20
780.8288745360845
 30
0.0
 11
2811.141481799257
 21
780.8288745360845
 31
0.0
  0
LINE
  5
410
330
1F
100
AcDbEntity
  8
D-STR-DIM
100
AcDbLine
 10
1511.141481799256
 20
880.8288745360846
 30
0.0
 11
2811.141481799257
 21
880.8288745360846
 31
0.0
  0
DIMENSION
  5
411
330
1F
100
AcDbEntity
  8
D-STR-DIM
100
AcDbDimension
  2
*D12
 10
1213.923271567724
 20
1163.487179182092
 30
0.0
 11
1188.923271567723
 21
1103.487179182092
 31
0.0
 70
    32
 71
     5
 42
120.0
  3
Standard
100
AcDbAlignedDimension
 13
1107.923271567724
 23
1043.487179182092
 33
0.0
 14
1107.923271567724
 24
1163.487179182092
 34
0.0
 50
90.0
100
AcDbRotatedDimension
  0
DIMENSION
  5
412
330
1F
100
AcDbEntity
  8
D-STR-DIM
100
AcDbDimension
  2
*D13
 10
1107.923271567724
 20
1263.487179182092
 30
0.0
 11
1057.923271409864
 21
1288.487179182092
 31
0.0
 70
    32
 71
     5
 42
100.0000003157178
  3
Standard
100
AcDbAlignedDimension
 13
1007.923271252006
 23
1163.487179182092
 33
0.0
 14
1107.923271567724
 24
1043.487179182092
 34
0.0
100
AcDbRotatedDimension
1001
ACAD
1000
DSTYLE
1002
{
1070
   279
1070
     1
1002
}
  0
DIMENSION
  5
413
330
1F
100
AcDbEntity
  8
D-STR-DIM
100
AcDbDimension
  2
*D14
 10
1007.923271252006
 20
1263.487179182092
 30
0.0
 11
967.9232714098651
 21
1288.487179182092
 31
0.0
 70
    32
 71
     5
 42
79.9999996842821
  3
Standard
100
AcDbAlignedDimension
 13
927.923271567724
 23
1043.487179182092
 33
0.0
 14
1007.923271252006
 24
1163.487179182092
 34
0.0
100
AcDbRotatedDimension
  0
LINE
  5
414
330
1F
100
AcDbEntity
  8
D-STR
100
AcDbLine
 10
1004.972906533803
 20
1160.421865146849
 30
0.0
 11
933.4210165677246
 21
1086.082238182092
 31
0.0
  0
LINE
  5
415
330
1F
100
AcDbEntity
  8
D-STR
100
AcDbLine
 10
1009.295828567724
 20
1156.261053182091
 30
0.0
 11
937.7439375677244
 21
1081.921427182091
 31
0.0
  0
LINE
  5
416
330
1F
100
AcDbEntity
  8
D-STR
  6
DASHED
100
AcDbLine
 10
1038.173271567724
 20
1043.487179182092
 30
0.0
 11
1038.173271567724
 21
1136.487179182092
 31
0.0
  0
LINE
  5
417
330
1F
100
AcDbEntity
  8
D-STR
  6
DASHED
100
AcDbLine
 10
1027.673271567723
 20
1043.487179182092
 30
0.0
 11
1027.673271567723
 21
1136.487179182092
 31
0.0
  0
LINE
  5
418
330
1F
100
AcDbEntity
  8
D-STR
100
AcDbLine
 10
1103.721912567724
 20
1144.319790182092
 30
0.0
 11
1107.923271567724
 21
1043.487179182092
 31
0.0
  0
LINE
  5
419
330
1F
100
AcDbEntity
  8
D-STR
100
AcDbLine
 10
1097.727114567724
 20
1144.070007182092
 30
0.0
 11
1101.918065567724
 21
1043.487179182092
 31
0.0
  0
DIMENSION
  5
41A
330
1F
100
AcDbEntity
  8
D-STR-DIM
100
AcDbDimension
  2
*D15
 10
1107.923271567724
 20
943.4871791820922
 30
0.0
 11
1017.923271567724
 21
968.4871791820922
 31
0.0
 70
    32
 71
     5
 42
180.0
  3
Standard
100
AcDbAlignedDimension
 13
927.923271567724
 23
1043.487179182092
 33
0.0
 14
1107.923271567724
 24
1043.487179182092
 34
0.0
100
AcDbRotatedDimension
  0
LINE
  5
41B
330
1F
100
AcDbEntity
  8
D-STR
100
AcDbLine
 10
927.923271567724
 20
1043.487179182092
 30
0.0
 11
1107.923271567724
 21
1043.487179182092
 31
0.0
  0
LINE
  5
41C
330
1F
100
AcDbEntity
  8
D-STR
  6
DASHED
100
AcDbLine
 10
939.5857715677243
 20
1092.487179182092
 30
0.0
 11
945.8232715677246
 21
1092.487179182092
 31
0.0
  0
ARC
  5
41D
330
1F
100
AcDbEntity
  8
D-STR
100
AcDbCircle
 10
940.6258855677247
 20
1079.147553182091
 30
0.0
 40
10.0
100
AcDbArc
 50
136.0946910000012
 51
175.7108470000023
  0
ARC
  5
41E
330
1F
100
AcDbEntity
  8
D-STR
100
AcDbCircle
 10
940.6258855677247
 20
1079.147553182091
 30
0.0
 40
4.0
100
AcDbArc
 50
136.0946910000012
 51
175.7108470000023
  0
LINE
  5
41F
330
1F
100
AcDbEntity
  8
D-STR
100
AcDbLine
 10
930.6538925677246
 20
1079.89545218209
 30
0.0
 11
927.923271567724
 21
1043.487179182092
 31
0.0
  0
LINE
  5
420
330
1F
100
AcDbEntity
  8
D-STR
100
AcDbLine
 10
936.6370885677246
 20
1079.446712182091
 30
0.0
 11
933.9401235677247
 21
1043.487179182092
 31
0.0
  0
LINE
  5
421
330
1F
100
AcDbEntity
  8
D-STR
100
AcDbLine
 10
1014.923271567724
 20
1106.487179182092
 30
0.0
 11
1060.923271567724
 21
1106.487179182092
 31
0.0
  0
LINE
  5
422
330
1F
100
AcDbEntity
  8
D-STR
100
AcDbLine
 10
1007.923271567723
 20
1113.487179182092
 30
0.0
 11
1067.923271567724
 21
1113.487179182092
 31
0.0
  0
LINE
  5
423
330
1F
100
AcDbEntity
  8
D-STR
100
AcDbLine
 10
1014.923271567724
 20
1080.487179182092
 30
0.0
 11
1060.923271567724
 21
1080.487179182092
 31
0.0
  0
LINE
  5
424
330
1F
100
AcDbEntity
  8
D-STR
100
AcDbLine
 10
1007.923271567723
 20
1073.487179182092
 30
0.0
 11
1067.923271567724
 21
1073.487179182092
 31
0.0
  0
LINE
  5
425
330
1F
100
AcDbEntity
  8
D-STR
  6
DASHED
100
AcDbLine
 10
960.2795215677247
 20
1113.987179182092
 30
0.0
 11
959.7795215677248
 21
1106.987179182092
 31
0.0
  0
LINE
  5
426
330
1F
100
AcDbEntity
  8
D-STR
  6
DASHED
100
AcDbLine
 10
946.3232715677245
 20
1099.487179182092
 30
0.0
 11
945.8232715677246
 21
1092.487179182092
 31
0.0
  0
LINE
  5
427
330
1F
100
AcDbEntity
  8
D-STR
  6
DASHED
100
AcDbLine
 10
953.5420215677245
 20
1106.987179182092
 30
0.0
 11
959.7795215677248
 21
1106.987179182092
 31
0.0
  0
LINE
  5
428
330
1F
100
AcDbEntity
  8
D-STR
100
AcDbLine
 10
1014.923271567724
 20
1080.487179182092
 30
0.0
 11
1014.923271567724
 21
1106.487179182092
 31
0.0
  0
LINE
  5
429
330
1F
100
AcDbEntity
  8
D-STR
100
AcDbLine
 10
1007.923271567723
 20
1073.487179182092
 30
0.0
 11
1007.923271567723
 21
1113.487179182092
 31
0.0
  0
LINE
  5
42A
330
1F
100
AcDbEntity
  8
D-STR
100
AcDbLine
 10
1060.923271567724
 20
1080.487179182092
 30
0.0
 11
1060.923271567724
 21
1106.487179182092
 31
0.0
  0
LINE
  5
42B
330
1F
100
AcDbEntity
  8
D-STR
100
AcDbLine
 10
1067.923271567724
 20
1073.487179182092
 30
0.0
 11
1067.923271567724
 21
1113.487179182092
 31
0.0
  0
ARC
  5
42C
330
1F
100
AcDbEntity
  8
D-STR
100
AcDbCircle
 10
1083.739251567725
 20
1143.487179182092
 30
0.0
 40
20.0
100
AcDbArc
 50
2.38594399999829
 51
90.0
  0
LINE
  5
42D
330
1F
100
AcDbEntity
  8
D-STR
  6
DASHED
100
AcDbLine
 10
1046.923271567724
 20
1146.487179182092
 30
0.0
 11
1018.923271567724
 21
1146.487179182092
 31
0.0
  0
LINE
  5
42E
330
1F
100
AcDbEntity
  8
D-STR
  6
DASHED
100
AcDbLine
 10
1054.923271567724
 20
1148.487179182092
 30
0.0
 11
1010.923271567724
 21
1148.487179182092
 31
0.0
  0
LINE
  5
42F
330
1F
100
AcDbEntity
  8
D-STR
  6
DASHED
100
AcDbLine
 10
1023.936414567724
 20
1144.502832182092
 30
0.0
 11
1019.936414567724
 21
1148.502832182091
 31
0.0
  0
LINE
  5
430
330
1F
100
AcDbEntity
  8
D-STR
  6
DASHED
100
AcDbLine
 10
1023.923271567724
 20
1144.487179182092
 30
0.0
 11
1019.923271567723
 21
1148.487179182092
 31
0.0
  0
LINE
  5
431
330
1F
100
AcDbEntity
  8
D-STR
100
AcDbLine
 10
1012.177775567724
 20
1163.487179182092
 30
0.0
 11
1083.739251567725
 21
1163.487179182092
 31
0.0
  0
LINE
  5
432
330
1F
100
AcDbEntity
  8
D-STR
100
AcDbLine
 10
1012.177775567724
 20
1157.487179182092
 30
0.0
 11
1083.739251567725
 21
1157.487179182092
 31
0.0
  0
LINE
  5
433
330
1F
100
AcDbEntity
  8
D-STR
  6
DASHED
100
AcDbLine
 10
981.454521567724
 20
1135.987179182092
 30
0.0
 11
987.6920215677241
 21
1135.987179182092
 31
0.0
  0
LINE
  5
434
330
1F
100
AcDbEntity
  8
D-STR
  6
DASHED
100
AcDbLine
 10
967.4982715677247
 20
1121.487179182092
 30
0.0
 11
973.7357715677239
 21
1121.487179182092
 31
0.0
  0
LINE
  5
435
330
1F
100
AcDbEntity
  8
D-STR
  6
DASHED
100
AcDbLine
 10
974.235771567724
 20
1128.487179182092
 30
0.0
 11
973.7357715677239
 21
1121.487179182092
 31
0.0
  0
LINE
  5
436
330
1F
100
AcDbEntity
  8
D-STR
  6
DASHED
100
AcDbLine
 10
1016.936414567724
 20
1148.502832182091
 30
0.0
 11
1018.936414567724
 21
1146.502832182091
 31
0.0
  0
LINE
  5
437
330
1F
100
AcDbEntity
  8
D-STR
  6
DASHED
100
AcDbLine
 10
1018.936414567724
 20
1146.502832182091
 30
0.0
 11
1019.936414567724
 21
1148.502832182091
 31
0.0
  0
LINE
  5
438
330
1F
100
AcDbEntity
  8
D-STR
  6
DASHED
100
AcDbLine
 10
1016.923271567723
 20
1148.487179182092
 30
0.0
 11
1018.923271567724
 21
1146.487179182092
 31
0.0
  0
LINE
  5
439
330
1F
100
AcDbEntity
  8
D-STR
  6
DASHED
100
AcDbLine
 10
1018.923271567724
 20
1146.487179182092
 30
0.0
 11
1019.923271567723
 21
1148.487179182092
 31
0.0
  0
LINE
  5
43A
330
1F
100
AcDbEntity
  8
D-STR
  6
DASHED
100
AcDbLine
 10
1009.923271567724
 20
1149.487179182092
 30
0.0
 11
1010.923271567724
 21
1148.487179182092
 31
0.0
  0
LINE
  5
43B
330
1F
100
AcDbEntity
  8
D-STR
  6
DASHED
100
AcDbLine
 10
1010.923271567724
 20
1148.487179182092
 30
0.0
 11
1016.923271567723
 21
1148.487179182092
 31
0.0
  0
ARC
  5
43C
330
1F
100
AcDbEntity
  8
D-STR
100
AcDbCircle
 10
1012.177775567724
 20
1153.487179182092
 30
0.0
 40
4.0
100
AcDbArc
 50
90.0
 51
136.0946910000012
  0
LINE
  5
43D
330
1F
100
AcDbEntity
  8
D-STR
  6
DASHED
100
AcDbLine
 10
1009.923271567724
 20
1149.487179182092
 30
0.0
 11
994.4482715677246
 21
1149.487179182092
 31
0.0
  0
ARC
  5
43E
330
1F
100
AcDbEntity
  8
D-STR
100
AcDbCircle
 10
1012.177775567724
 20
1153.487179182092
 30
0.0
 40
10.0
100
AcDbArc
 50
90.0
 51
136.0946910000012
  0
LINE
  5
43F
330
1F
100
AcDbEntity
  8
D-STR
  6
DASHED
100
AcDbLine
 10
988.1920215677242
 20
1142.987179182092
 30
0.0
 11
987.6920215677241
 21
1135.987179182092
 31
0.0
  0
LINE
  5
440
330
1F
100
AcDbEntity
  8
D-STR
  6
DASHED
100
AcDbLine
 10
1041.936414567724
 20
1144.502832182092
 30
0.0
 11
1045.936414567724
 21
1148.502832182091
 31
0.0
  0
LINE
  5
441
330
1F
100
AcDbEntity
  8
D-STR
  6
DASHED
100
AcDbLine
 10
1041.923271567724
 20
1144.487179182092
 30
0.0
 11
1045.923271567724
 21
1148.487179182092
 31
0.0
  0
LINE
  5
442
330
1F
100
AcDbEntity
  8
D-STR
  6
DASHED
100
AcDbLine
 10
1054.936414567724
 20
1148.502832182091
 30
0.0
 11
1048.936414567724
 21
1148.502832182091
 31
0.0
  0
LINE
  5
443
330
1F
100
AcDbEntity
  8
D-STR
  6
DASHED
100
AcDbLine
 10
1046.936414567724
 20
1146.502832182091
 30
0.0
 11
1045.936414567724
 21
1148.502832182091
 31
0.0
  0
LINE
  5
444
330
1F
100
AcDbEntity
  8
D-STR
  6
DASHED
100
AcDbLine
 10
1048.923271567723
 20
1148.487179182092
 30
0.0
 11
1046.923271567724
 21
1146.487179182092
 31
0.0
  0
LINE
  5
445
330
1F
100
AcDbEntity
  8
D-STR
  6
DASHED
100
AcDbLine
 10
1046.923271567724
 20
1146.487179182092
 30
0.0
 11
1045.923271567724
 21
1148.487179182092
 31
0.0
  0
LINE
  5
446
330
1F
100
AcDbEntity
  8
D-STR
  6
DASHED
100
AcDbLine
 10
1056.807560567724
 20
1162.619342182091
 30
0.0
 11
1054.923271567724
 21
1148.487179182092
 31
0.0
  0
LINE
  5
447
330
1F
100
AcDbEntity
  8
D-STR
  6
DASHED
100
AcDbLine
 10
1025.936414567724
 20
1136.502832182092
 30
0.0
 11
1023.936414567724
 21
1144.502832182092
 31
0.0
  0
LINE
  5
448
330
1F
100
AcDbEntity
  8
D-STR
  6
DASHED
100
AcDbLine
 10
1025.923271567724
 20
1136.487179182092
 30
0.0
 11
1023.923271567724
 21
1144.487179182092
 31
0.0
  0
LINE
  5
449
330
1F
100
AcDbEntity
  8
D-STR
  6
DASHED
100
AcDbLine
 10
1025.936414567724
 20
1136.502832182092
 30
0.0
 11
1039.936414567724
 21
1136.502832182092
 31
0.0
  0
LINE
  5
44A
330
1F
100
AcDbEntity
  8
D-STR
  6
DASHED
100
AcDbLine
 10
1025.923271567724
 20
1136.487179182092
 30
0.0
 11
1039.923271567724
 21
1136.487179182092
 31
0.0
  0
LINE
  5
44B
330
1F
100
AcDbEntity
  8
D-STR
  6
DASHED
100
AcDbLine
 10
1039.936414567724
 20
1136.502832182092
 30
0.0
 11
1041.936414567724
 21
1144.502832182092
 31
0.0
  0
LINE
  5
44C
330
1F
100
AcDbEntity
  8
D-STR
  6
DASHED
100
AcDbLine
 10
1039.923271567724
 20
1136.487179182092
 30
0.0
 11
1041.923271567724
 21
1144.487179182092
 31
0.0
  0
LINE
  5
44D
330
1F
100
AcDbEntity
  8
D-STR
  6
DASHED
100
AcDbLine
 10
1041.923271567724
 20
1144.487179182092
 30
0.0
 11
1023.923271567724
 21
1144.487179182092
 31
0.0
  0
ARC
  5
44E
330
1F
100
AcDbEntity
  8
D-STR
  6
DASHED
100
AcDbCircle
 10
1057.798788567724
 20
1162.487179182092
 30
0.0
 40
1.0
100
AcDbArc
 50
90.0
 51
172.4053569999988
  0
ARC
  5
44F
330
1F
100
AcDbEntity
  8
D-STR
100
AcDbCircle
 10
1083.739251567725
 20
1143.487179182092
 30
0.0
 40
14.0
100
AcDbArc
 50
2.38594700000429
 51
90.0
  0
MTEXT
  5
450
330
1F
100
AcDbEntity
  8
D-STR-DIM
100
AcDbMText
 10
1661.141481799256
 20
660.8288745360844
 30
0.0
 40
30.0
 41
0.0
 71
     5
 72
     1
  1
付属品
 73
     1
 44
1.0
  0
MTEXT
  5
451
330
1F
100
AcDbEntity
  8
D-STR-DIM
100
AcDbMText
 10
1661.141481799256
 20
740.8288745360845
 30
0.0
 40
30.0
 41
0.0
 71
     5
 72
     1
  1
パーキングブロック
 73
     1
 44
1.0
  0
MTEXT
  5
452
330
1F
100
AcDbEntity
  8
D-STR-DIM
100
AcDbMText
 10
1580.239037512352
 20
914.3688696371832
 30
0.0
 40
30.0
 41
0.0
 71
     5
 72
     1
  1
材料表
 73
     1
 44
1.0
  0
MTEXT
  5
453
330
1F
100
AcDbEntity
  8
D-STR-DIM
100
AcDbMText
 10
1661.141481799256
 20
500.8288745360845
 30
0.0
 40
30.0
 41
0.0
 71
     5
 72
     1
  1
パーキングボンド
 73
     1
 44
1.0
  0
MTEXT
  5
454
330
1F
100
AcDbEntity
  8
D-STR-DIM
100
AcDbMText
 10
1661.141481799256
 20
830.8288745360846
 30
0.0
 40
30.0
 41
0.0
 71
     5
 72
     1
  1
名　称
 73
     1
 44
1.0
  0
MTEXT
  5
455
330
1F
100
AcDbEntity
  8
D-STR-DIM
100
AcDbMText
 10
1961.141481799256
 20
660.8288745360844
 30
0.0
 40
30.0
 41
0.0
 71
     5
 72
     1
  1
ﾎｲｰﾙｷｬｯﾌﾟ・ｱﾝｶｰﾋﾟﾝ
 73
     1
 44
1.0
  0
MTEXT
  5
456
330
1F
100
AcDbEntity
  8
D-STR-DIM
100
AcDbMText
 10
1961.141481799256
 20
740.8288745360845
 30
0.0
 40
30.0
 41
0.0
 71
     5
 72
     1
  1
NSP-120B
 73
     1
 44
1.0
  0
MTEXT
  5
457
330
1F
100
AcDbEntity
  8
D-STR-DIM
100
AcDbMText
 10
1961.141481799256
 20
500.8288745360845
 30
0.0
 40
30.0
 41
0.0
 71
     5
 72
     1
  1
M-100
 73
     1
 44
1.0
  0
MTEXT
  5
458
330
1F
100
AcDbEntity
  8
D-STR-DIM
100
AcDbMText
 10
1961.141481799256
 20
830.8288745360846
 30
0.0
 40
30.0
 41
0.0
 71
     5
 72
     1
  1
規　格
 73
     1
 44
1.0
  0
SPLINE
  5
45E
330
1F
100
AcDbEntity
  8
D-STR
 62
     0
100
AcDbSpline
210
0.0
220
0.0
230
1.0
 70
    11
 71
     3
 72
    20
 73
    16
 74
     0
 42
0.0000000001
 43
0.0000000001
 40
0.0
 40
0.0
 40
0.0
 40
0.0
 40
1.0
 40
1.0
 40
1.0
 40
2.0
 40
2.0
 40
2.0
 40
3.0
 40
3.0
 40
3.0
 40
4.0
 40
4.0
 40
4.0
 40
5.0
 40
5.0
 40
5.0
 40
5.0
 10
1550.103545597113
 20
1228.541206044169
 30
0.0
 10
1555.17570900971
 20
1221.67502984902
 30
0.0
 10
1558.14398470454
 20
1208.44418557742
 30
0.0
 10
1557.573162455538
 20
1201.54946826977
 30
0.0
 10
1556.99418560297
 20
1194.658828263896
 30
0.0
 10
1559.864606055117
 20
1169.962611390898
 30
0.0
 10
1552.973966049261
 20
1169.962611390898
 30
0.0
 10
1546.083326043402
 20
1169.962611390898
 30
0.0
 10
1534.018590080496
 20
1178.577950049088
 30
0.0
 10
1531.72306917914
 20
1190.638608710228
 30
0.0
 10
1529.427548277773
 20
1202.699267371352
 30
0.0
 10
1527.702849625428
 20
1218.20932333719
 30
0.0
 10
1532.872868280701
 20
1221.079743789297
 30
0.0
 10
1538.042886935983
 20
1223.950164241489
 30
0.0
 10
1540.338407837339
 20
1241.751663806869
 30
0.0
 10
1550.103545597113
 20
1228.541206044169
 30
0.0
  0
SPLINE
  5
45F
330
1F
100
AcDbEntity
  8
D-STR
 62
     0
100
AcDbSpline
210
0.0
220
0.0
230
1.0
 70
    11
 71
     3
 72
    20
 73
    16
 74
     0
 42
0.0000000001
 43
0.0000000001
 40
0.0
 40
0.0
 40
0.0
 40
0.0
 40
1.0
 40
1.0
 40
1.0
 40
2.0
 40
2.0
 40
2.0
 40
3.0
 40
3.0
 40
3.0
 40
4.0
 40
4.0
 40
4.0
 40
5.0
 40
5.0
 40
5.0
 40
5.0
 10
1525.407328724071
 20
1185.468590054912
 30
0.0
 10
1528.106502501512
 20
1177.371068722602
 30
0.0
 10
1543.20882828948
 20
1161.343195430876
 30
0.0
 10
1540.338407837339
 20
1151.007235422124
 30
0.0
 10
1537.463910083424
 20
1140.667198111562
 30
0.0
 10
1524.828351871504
 20
1132.6308363059
 30
0.0
 10
1515.638113662514
 20
1137.225955410408
 30
0.0
 10
1506.447875453522
 20
1141.81699721309
 30
0.0
 10
1498.411513647878
 20
1157.327053178934
 30
0.0
 10
1500.136212300232
 20
1167.667090489532
 30
0.0
 10
1501.856833650807
 20
1178.003050498299
 30
0.0
 10
1503.002555450601
 20
1184.318790953384
 30
0.0
 10
1513.917492311937
 20
1187.18921140549
 30
0.0
 10
1524.828351871504
 20
1190.067786461214
 30
0.0
 10
1524.253452320723
 20
1188.913910057859
 30
0.0
 10
1525.407328724071
 20
1185.468590054912
 30
0.0
  0
SPLINE
  5
460
330
1F
100
AcDbEntity
  8
D-STR
 62
     0
100
AcDbSpline
210
0.0
220
0.0
230
1.0
 70
    11
 71
     3
 72
    26
 73
    22
 74
     0
 42
0.0000000001
 43
0.0000000001
 40
0.0
 40
0.0
 40
0.0
 40
0.0
 40
1.0
 40
1.0
 40
1.0
 40
2.0
 40
2.0
 40
2.0
 40
3.0
 40
3.0
 40
3.0
 40
4.0
 40
4.0
 40
4.0
 40
5.0
 40
5.0
 40
5.0
 40
6.0
 40
6.0
 40
6.0
 40
7.0
 40
7.0
 40
7.0
 40
7.0
 10
1495.537015893963
 20
1234.286124250256
 30
0.0
 10
1492.760373382723
 20
1242.624206387493
 30
0.0
 10
1503.581532303159
 20
1254.391299320575
 30
0.0
 10
1518.512611416437
 20
1244.630238862595
 30
0.0
 10
1533.443690529715
 20
1234.869178404567
 30
0.0
 10
1528.852648726992
 20
1233.711224699469
 30
0.0
 10
1528.281826477986
 20
1225.099963343017
 30
0.0
 10
1527.702849625428
 20
1216.480547383046
 30
0.0
 10
1527.123872772862
 20
1213.039304681895
 30
0.0
 10
1528.852648726992
 20
1209.019085128175
 30
0.0
 10
1530.573270077568
 20
1204.998865574491
 30
0.0
 10
1532.872868280701
 20
1197.529248716084
 30
0.0
 10
1528.852648726992
 20
1194.083928713157
 30
0.0
 10
1524.828351871504
 20
1190.638608710228
 30
0.0
 10
1517.941789167432
 20
1186.61838915649
 30
0.0
 10
1505.87297590274
 20
1189.488809608649
 30
0.0
 10
1493.81231724161
 20
1192.359230060787
 30
0.0
 10
1492.666595441817
 20
1204.419888721926
 30
0.0
 10
1494.391294094169
 20
1211.310528727746
 30
0.0
 10
1496.111915444745
 20
1218.20932333719
 30
0.0
 10
1496.111915444745
 20
1232.56958020146
 30
0.0
 10
1495.537015893963
 20
1234.286124250256
 30
0.0
  0
SPLINE
  5
461
330
1F
100
AcDbEntity
  8
D-STR
 62
     0
100
AcDbSpline
210
0.0
220
0.0
230
1.0
 70
    11
 71
     3
 72
    29
 73
    25
 74
     0
 42
0.0000000001
 43
0.0000000001
 40
0.0
 40
0.0
 40
0.0
 40
0.0
 40
1.0
 40
1.0
 40
1.0
 40
2.0
 40
2.0
 40
2.0
 40
3.0
 40
3.0
 40
3.0
 40
4.0
 40
4.0
 40
4.0
 40
5.0
 40
5.0
 40
5.0
 40
6.0
 40
6.0
 40
6.0
 40
7.0
 40
7.0
 40
7.0
 40
8.0
 40
8.0
 40
8.0
 40
8.0
 10
1539.763508286558
 20
1294.022672608679
 30
0.0
 10
1527.515293743614
 20
1300.778761655855
 30
0.0
 10
1517.362812314867
 20
1301.488212165342
 30
0.0
 10
1508.172574105875
 20
1294.597572159468
 30
0.0
 10
1498.982335896883
 20
1287.702854851853
 30
0.0
 10
1501.856833650807
 20
1276.791995292292
 30
0.0
 10
1504.731331404733
 20
1268.751556184857
 30
0.0
 10
1507.601751856871
 20
1260.711117077399
 30
0.0
 10
1515.063214111731
 20
1258.411518874293
 30
0.0
 10
1519.091588269005
 20
1253.241500218992
 30
0.0
 10
1523.111807822715
 20
1248.071481563748
 30
0.0
 10
1524.253452320723
 20
1243.480439761034
 30
0.0
 10
1525.982228274853
 20
1237.739598856721
 30
0.0
 10
1527.702849625428
 20
1231.99060334889
 30
0.0
 10
1533.443690529715
 20
1217.634423786404
 30
0.0
 10
1539.192686037554
 20
1224.520986490449
 30
0.0
 10
1544.933526941841
 20
1231.419781099892
 30
0.0
 10
1546.654148292415
 20
1234.869178404567
 30
0.0
 10
1550.678445147902
 20
1237.160622004189
 30
0.0
 10
1554.694587399838
 20
1239.460220207295
 30
0.0
 10
1555.844386501407
 20
1255.53702112036
 30
0.0
 10
1554.694587399838
 20
1260.132140224867
 30
0.0
 10
1553.552942901819
 20
1264.731336631121
 30
0.0
 10
1556.419286052181
 20
1284.83651170149
 30
0.0
 10
1539.763508286558
 20
1294.022672608679
 30
0.0
  0
SPLINE
  5
462
330
1F
100
AcDbEntity
  8
D-STR
 62
     0
100
AcDbSpline
210
0.0
220
0.0
230
1.0
 70
     8
 71
     3
 72
     8
 73
     4
 74
     0
 42
0.0000000001
 43
0.0000000001
 40
0.0
 40
0.0
 40
0.0
 40
0.0
 40
0.4444415384443898
 40
0.4444415384443898
 40
0.4444415384443898
 40
0.4444415384443898
 10
1494.962116343173
 20
1186.61838915649
 30
0.0
 10
1493.313085072754
 20
1183.081126475323
 30
0.0
 10
1491.315323218011
 20
1178.716736057212
 30
0.0
 10
1489.60454180606
 20
1174.354219444258
 30
0.0
  0
SPLINE
  5
463
330
1F
100
AcDbEntity
  8
D-STR
 62
     0
100
AcDbSpline
210
0.0
220
0.0
230
1.0
 70
     8
 71
     3
 72
    11
 73
     7
 74
     0
 42
0.0000000001
 43
0.0000000001
 40
5.317871350436046
 40
5.317871350436046
 40
5.317871350436046
 40
5.317871350436046
 40
6.0
 40
6.0
 40
6.0
 40
7.0
 40
7.0
 40
7.0
 40
7.0
 10
1489.604541806078
 20
1214.444774247919
 30
0.0
 10
1491.807241904053
 20
1212.791863352993
 30
0.0
 10
1492.43051682311
 20
1214.058398151611
 30
0.0
 10
1494.391294094169
 20
1211.310528727746
 30
0.0
 10
1497.265791848092
 20
1207.298463777634
 30
0.0
 10
1498.982335896883
 20
1195.229650512941
 30
0.0
 10
1494.962116343173
 20
1186.61838915649
 30
0.0
  0
SPLINE
  5
464
330
1F
100
AcDbEntity
  8
D-STR
 62
     0
100
AcDbSpline
210
0.0
220
0.0
230
1.0
 70
     8
 71
     3
 72
    23
 73
    19
 74
     0
 42
0.0000000001
 43
0.0000000001
 40
0.8999239428818841
 40
0.8999239428818841
 40
0.8999239428818841
 40
0.8999239428818841
 40
1.0
 40
1.0
 40
1.0
 40
2.0
 40
2.0
 40
2.0
 40
3.0
 40
3.0
 40
3.0
 40
4.0
 40
4.0
 40
4.0
 40
5.0
 40
5.0
 40
5.0
 40
5.125320423609301
 40
5.125320423609301
 40
5.125320423609301
 40
5.125320423609301
 10
1489.604541806093
 20
1300.610148206365
 30
0.0
 10
1490.611347599232
 20
1299.981141702879
 30
0.0
 10
1491.632213317607
 20
1299.134807966888
 30
0.0
 10
1492.666595441817
 20
1298.042892162396
 30
0.0
 10
1503.002555450601
 20
1287.132032602799
 30
0.0
 10
1500.711111851014
 20
1288.273677100849
 30
0.0
 10
1498.982335896883
 20
1280.808137544184
 30
0.0
 10
1497.265791848092
 20
1273.34259798757
 30
0.0
 10
1496.682737693749
 20
1270.472177535431
 30
0.0
 10
1498.411513647878
 20
1264.152359778555
 30
0.0
 10
1500.136212300232
 20
1257.83661932352
 30
0.0
 10
1501.281934100027
 20
1251.520878868417
 30
0.0
 10
1498.411513647878
 20
1245.201061111592
 30
0.0
 10
1495.537015893963
 20
1238.88124335473
 30
0.0
 10
1503.581532303159
 20
1231.99060334889
 30
0.0
 10
1493.241494992597
 20
1228.541206044169
 30
0.0
 10
1491.945677136703
 20
1228.109948051118
 30
0.0
 10
1490.740148454349
 20
1227.777816044336
 30
0.0
 10
1489.604541806078
 20
1227.535790061352
 30
0.0
  0
SPLINE
  5
466
330
1F
100
AcDbEntity
  8
D-STR
 62
     0
100
AcDbSpline
210
0.0
220
0.0
230
1.0
 70
    11
 71
     3
 72
    26
 73
    22
 74
     0
 42
0.0000000001
 43
0.0000000001
 40
0.0
 40
0.0
 40
0.0
 40
0.0
 40
1.0
 40
1.0
 40
1.0
 40
2.0
 40
2.0
 40
2.0
 40
3.0
 40
3.0
 40
3.0
 40
4.0
 40
4.0
 40
4.0
 40
5.0
 40
5.0
 40
5.0
 40
6.0
 40
6.0
 40
6.0
 40
7.0
 40
7.0
 40
7.0
 40
7.0
 10
1590.30574113423
 20
1186.61838915649
 30
0.0
 10
1586.587241912133
 20
1178.659496084641
 30
0.0
 10
1581.115502925239
 20
1166.513214086174
 30
0.0
 10
1581.115502925239
 20
1159.622574080299
 30
0.0
 10
1581.115502925239
 20
1152.736011376221
 30
0.0
 10
1566.755246060965
 20
1134.347380354684
 30
0.0
 10
1558.14398470454
 20
1158.476852280513
 30
0.0
 10
1549.524568744554
 20
1182.598169602772
 30
0.0
 10
1553.552942901819
 20
1180.869393648663
 30
0.0
 10
1554.694587399838
 20
1187.18921140549
 30
0.0
 10
1555.844386501407
 20
1193.509029162368
 30
0.0
 10
1555.273564252395
 20
1204.998865574491
 30
0.0
 10
1562.164204258251
 20
1212.460327829327
 30
0.0
 10
1569.058921565877
 20
1219.929944687769
 30
0.0
 10
1574.22486291938
 20
1227.970383795172
 30
0.0
 10
1580.544680676234
 20
1219.359122438755
 30
0.0
 10
1586.856343829516
 20
1210.739706478786
 30
0.0
 10
1586.856343829516
 20
1215.338902885055
 30
0.0
 10
1589.73084158345
 20
1211.310528727746
 30
0.0
 10
1592.605339337365
 20
1207.298463777634
 30
0.0
 10
1594.32596068794
 20
1195.229650512941
 30
0.0
 10
1590.30574113423
 20
1186.61838915649
 30
0.0
  0
SPLINE
  5
467
330
1F
100
AcDbEntity
  8
D-STR
 62
     0
100
AcDbSpline
210
0.0
220
0.0
230
1.0
 70
    11
 71
     3
 72
    29
 73
    25
 74
     0
 42
0.0000000001
 43
0.0000000001
 40
0.0
 40
0.0
 40
0.0
 40
0.0
 40
1.0
 40
1.0
 40
1.0
 40
2.0
 40
2.0
 40
2.0
 40
3.0
 40
3.0
 40
3.0
 40
4.0
 40
4.0
 40
4.0
 40
5.0
 40
5.0
 40
5.0
 40
6.0
 40
6.0
 40
6.0
 40
7.0
 40
7.0
 40
7.0
 40
8.0
 40
8.0
 40
8.0
 40
8.0
 10
1561.585227405684
 20
1285.403256648709
 30
0.0
 10
1568.687887104034
 20
1295.34371838493
 30
0.0
 10
1577.67018292231
 20
1308.953751721956
 30
0.0
 10
1588.014297534651
 20
1298.042892162396
 30
0.0
 10
1598.350257543427
 20
1287.132032602799
 30
0.0
 10
1596.046582038515
 20
1288.273677100849
 30
0.0
 10
1594.32596068794
 20
1280.808137544184
 30
0.0
 10
1592.605339337365
 20
1273.34259798757
 30
0.0
 10
1592.030439786583
 20
1270.472177535431
 30
0.0
 10
1593.746983835382
 20
1264.152359778555
 30
0.0
 10
1595.475759789511
 20
1257.83661932352
 30
0.0
 10
1596.625558891075
 20
1251.520878868417
 30
0.0
 10
1593.746983835382
 20
1245.201061111592
 30
0.0
 10
1590.884717986787
 20
1238.88124335473
 30
0.0
 10
1598.921079792432
 20
1231.99060334889
 30
0.0
 10
1588.585119783655
 20
1228.541206044169
 30
0.0
 10
1578.249159774876
 20
1225.099963343017
 30
0.0
 10
1573.6499633686
 20
1227.970383795172
 30
0.0
 10
1564.463802461386
 20
1232.56958020146
 30
0.0
 10
1555.273564252395
 20
1237.160622004189
 30
0.0
 10
1552.399066498478
 20
1238.88124335473
 30
0.0
 10
1553.552942901819
 20
1250.941902015852
 30
0.0
 10
1554.694587399838
 20
1263.002560677024
 30
0.0
 10
1558.714806953546
 20
1281.387114396767
 30
0.0
 10
1561.585227405684
 20
1285.403256648709
 30
0.0
  0
SPLINE
  5
46D
330
1F
100
AcDbEntity
  8
D-STR-STR1
100
AcDbSpline
210
0.0
220
0.0
230
1.0
 70
     8
 71
     3
 72
    11
 73
     7
 74
     0
 42
0.0000000001
 43
0.0000000001
 40
10.0
 40
10.0
 40
10.0
 40
10.0
 40
11.0
 40
11.0
 40
11.0
 40
12.0
 40
12.0
 40
12.0
 40
12.0
 10
1606.794349526938
 20
1408.382832895185
 30
0.0
 10
1602.553955677182
 20
1408.382832895185
 30
0.0
 10
1601.485702611179
 20
1409.940362174623
 30
0.0
 10
1601.485702611179
 20
1411.860771312326
 30
0.0
 10
1601.485702611179
 20
1413.67517060382
 30
0.0
 10
1602.186998517108
 20
1415.142999244118
 30
0.0
 10
1606.101208224572
 20
1415.306091315272
 30
0.0
  0
SPLINE
  5
471
330
1F
100
AcDbEntity
  8
D-STR
100
AcDbSpline
210
0.0
220
0.0
230
1.0
 70
    24
 71
     3
 72
     8
 73
     4
 74
     0
 42
0.0000000001
 43
0.0000000001
 40
0.0
 40
0.0
 40
0.0
 40
0.0
 40
1.0
 40
1.0
 40
1.0
 40
1.0
 10
1606.101208224572
 20
1415.306091315272
 30
0.0
 10
1606.101208224572
 20
1415.306091315272
 30
0.0
 10
1606.207218070809
 20
1415.461028782839
 30
0.0
 10
1606.207218070809
 20
1415.461028782839
 30
0.0
  0
SPLINE
  5
472
330
1F
100
AcDbEntity
  8
D-STR
100
AcDbSpline
210
0.0
220
0.0
230
1.0
 70
     8
 71
     3
 72
     8
 73
     4
 74
     0
 42
0.0000000001
 43
0.0000000001
 40
8.0
 40
8.0
 40
8.0
 40
8.0
 40
8.839860836341189
 40
8.839860836341189
 40
8.839860836341189
 40
8.839860836341189
 10
1606.460010781086
 20
1465.668922884672
 30
0.0
 10
1606.460010781086
 20
1462.919156920988
 30
0.0
 10
1606.695842039925
 20
1426.92005945258
 30
0.0
 10
1606.771373681035
 20
1415.460845245976
 30
0.0
  0
MTEXT
  5
473
330
1F
100
AcDbEntity
  8
D-STR-DIM
100
AcDbMText
 10
2661.141481799257
 20
830.8288745360846
 30
0.0
 40
30.0
 41
0.0
 71
     5
 72
     1
  1
摘　要
 73
     1
 44
1.0
  0
MTEXT
  5
474
330
1F
100
AcDbEntity
  8
D-STR-DIM
100
AcDbMText
 10
2720.031392026003
 20
914.3688696371832
 30
0.0
 40
30.0
 41
0.0
 71
     5
 72
     1
  1
1箇所当り
 73
     1
 44
1.0
  0
MTEXT
  5
476
330
1F
100
AcDbEntity
  8
D-STR-DIM
100
AcDbMText
 10
2361.141481799256
 20
830.8288745360846
 30
0.0
 40
30.0
 41
0.0
 71
     5
 72
     1
  1
数　量
 73
     1
 44
1.0
  0
MTEXT
  5
477
330
1F
100
AcDbEntity
  8
D-STR-DIM
100
AcDbMText
 10
2361.141481799256
 20
740.8288745360845
 30
0.0
 40
30.0
 41
0.0
 71
     5
 72
     1
  1
2.0
 73
     1
 44
1.0
  0
MTEXT
  5
478
330
1F
100
AcDbEntity
  8
D-STR-DIM
100
AcDbMText
 10
2361.141481799256
 20
660.8288745360844
 30
0.0
 40
30.0
 41
0.0
 71
     5
 72
     1
  1
2.0
 73
     1
 44
1.0
  0
MTEXT
  5
479
330
1F
100
AcDbEntity
  8
D-STR-DIM
100
AcDbMText
 10
2661.141481799257
 20
500.8288745360845
 30
0.0
 40
30.0
 41
0.0
 71
     5
 72
     1
  1
約30個分
 73
     1
 44
1.0
  0
MTEXT
  5
47A
330
1F
100
AcDbEntity
  8
D-STR-DIM
100
AcDbMText
 10
2161.141481799256
 20
740.8288745360845
 30
0.0
 40
30.0
 41
0.0
 71
     5
 72
     1
  1
個
 73
     1
 44
1.0
  0
MTEXT
  5
47B
330
1F
100
AcDbEntity
  8
D-STR-DIM
100
AcDbMText
 10
2161.141481799256
 20
660.8288745360844
 30
0.0
 40
30.0
 41
0.0
 71
     5
 72
     1
  1
ｾｯﾄ
 73
     1
 44
1.0
  0
MTEXT
  5
47D
330
1F
100
AcDbEntity
  8
D-STR-DIM
100
AcDbMText
 10
2161.141481799256
 20
830.8288745360846
 30
0.0
 40
30.0
 41
0.0
 71
     5
 72
     1
  1
単位
 73
     1
 44
1.0
  0
SPLINE
  5
47E
330
1F
100
AcDbEntity
  8
D-STR
 62
     0
100
AcDbSpline
210
0.0
220
0.0
230
1.0
 70
     8
 71
     3
 72
    26
 73
    22
 74
     0
 42
0.0000000001
 43
0.0000000001
 40
1.646944437325039
 40
1.646944437325039
 40
1.646944437325039
 40
1.646944437325039
 40
2.0
 40
2.0
 40
2.0
 40
3.0
 40
3.0
 40
3.0
 40
4.0
 40
4.0
 40
4.0
 40
5.0
 40
5.0
 40
5.0
 40
6.0
 40
6.0
 40
6.0
 40
7.0
 40
7.0
 40
7.0
 40
7.528378438961335
 40
7.528378438961335
 40
7.528378438961335
 40
7.528378438961335
 10
1937.683698068376
 20
1144.409385733069
 30
0.0
 10
1934.871245533615
 20
1142.855244433147
 30
0.0
 10
1931.806042223469
 20
1142.698674053709
 30
0.0
 10
1929.170291954627
 20
1144.116595416231
 30
0.0
 10
1921.700675096218
 20
1148.13681496997
 30
0.0
 10
1917.680455542501
 20
1149.861513622322
 30
0.0
 10
1914.810035090361
 20
1164.213615883031
 30
0.0
 10
1911.939614638214
 20
1178.577950049088
 30
0.0
 10
1911.360637785656
 20
1171.687310043216
 30
0.0
 10
1905.048974632367
 20
1173.403854091998
 30
0.0
 10
1898.729156875513
 20
1175.132630046162
 30
0.0
 10
1890.688717768094
 20
1180.302648701408
 30
0.0
 10
1887.818297315954
 20
1186.61838915649
 30
0.0
 10
1884.94379956203
 20
1192.938206913353
 30
0.0
 10
1875.757638654824
 20
1200.399669168189
 30
0.0
 10
1887.239320463387
 20
1214.75992603247
 30
0.0
 10
1898.729156875513
 20
1229.120182896753
 30
0.0
 10
1894.708937321803
 20
1238.302266502198
 30
0.0
 10
1912.510436887228
 20
1237.160622004189
 30
0.0
 10
1921.920674155469
 20
1236.553092949779
 30
0.0
 10
1930.848265227127
 20
1238.030959725906
 30
0.0
 10
1937.683698068376
 20
1233.459450188547
 30
0.0
  0
SPLINE
  5
47F
330
1F
100
AcDbEntity
  8
D-STR
 62
     0
100
AcDbSpline
210
0.0
220
0.0
230
1.0
 70
    11
 71
     3
 72
    20
 73
    16
 74
     0
 42
0.0000000001
 43
0.0000000001
 40
0.0
 40
0.0
 40
0.0
 40
0.0
 40
1.0
 40
1.0
 40
1.0
 40
2.0
 40
2.0
 40
2.0
 40
3.0
 40
3.0
 40
3.0
 40
4.0
 40
4.0
 40
4.0
 40
5.0
 40
5.0
 40
5.0
 40
5.0
 10
1910.789815536652
 20
1260.132140224867
 30
0.0
 10
1906.965306468318
 20
1256.47072322769
 30
0.0
 10
1899.878955977084
 20
1254.391299320575
 30
0.0
 10
1906.769595982942
 20
1242.901462908452
 30
0.0
 10
1913.66023598879
 20
1231.419781099892
 30
0.0
 10
1917.109633293496
 20
1239.460220207295
 30
0.0
 10
1922.850474197782
 20
1241.180841557873
 30
0.0
 10
1928.591315102068
 20
1242.901462908452
 30
0.0
 10
1933.765411059127
 20
1241.751663806869
 30
0.0
 10
1937.781553311058
 20
1248.650458416281
 30
0.0
 10
1941.801772864768
 20
1255.53702112036
 30
0.0
 10
1938.360530163617
 20
1261.860916178981
 30
0.0
 10
1935.490109711479
 20
1265.872981129165
 30
0.0
 10
1932.611534655778
 20
1269.901355286438
 30
0.0
 10
1924.575172850135
 20
1273.34259798757
 30
0.0
 10
1910.789815536652
 20
1260.132140224867
 30
0.0
  0
SPLINE
  5
480
330
1F
100
AcDbEntity
  8
D-STR
 62
     0
100
AcDbSpline
210
0.0
220
0.0
230
1.0
 70
    11
 71
     3
 72
    17
 73
    13
 74
     0
 42
0.0000000001
 43
0.0000000001
 40
0.0
 40
0.0
 40
0.0
 40
0.0
 40
1.0
 40
1.0
 40
1.0
 40
2.0
 40
2.0
 40
2.0
 40
3.0
 40
3.0
 40
3.0
 40
4.0
 40
4.0
 40
4.0
 40
4.0
 10
1907.919395084504
 20
1284.25345754713
 30
0.0
 10
1903.850247909448
 20
1282.357512220089
 30
0.0
 10
1893.55913822024
 20
1265.872981129165
 30
0.0
 10
1912.510436887228
 20
1267.601757083276
 30
0.0
 10
1931.461735554214
 20
1269.326455735646
 30
0.0
 10
1927.441516000495
 20
1269.326455735646
 30
0.0
 10
1930.320091056195
 20
1272.771775738575
 30
0.0
 10
1933.190511508345
 20
1276.213018439727
 30
0.0
 10
1934.340310609906
 20
1279.662415744398
 30
0.0
 10
1930.320091056195
 20
1281.96201394756
 30
0.0
 10
1926.299871502487
 20
1284.25345754713
 30
0.0
 10
1916.530656440938
 20
1288.273677100849
 30
0.0
 10
1907.919395084504
 20
1284.25345754713
 30
0.0
  0
SPLINE
  5
481
330
1F
100
AcDbEntity
  8
D-STR
 62
     0
100
AcDbSpline
210
0.0
220
0.0
230
1.0
 70
     8
 71
     3
 72
    11
 73
     7
 74
     0
 42
0.0000000001
 43
0.0000000001
 40
3.294362419883181
 40
3.294362419883181
 40
3.294362419883181
 40
3.294362419883181
 40
4.0
 40
4.0
 40
4.0
 40
5.0
 40
5.0
 40
5.0
 40
5.0
 10
1937.683698068411
 20
1281.286523263648
 30
0.0
 10
1934.537622993575
 20
1278.046279047534
 30
0.0
 10
1929.119426915745
 20
1276.134288795903
 30
0.0
 10
1926.299871502487
 20
1284.25345754713
 30
0.0
 10
1922.295961155893
 20
1295.767757769931
 30
0.0
 10
1925.724971951706
 20
1300.334335761986
 30
0.0
 10
1930.890913305202
 20
1304.362709919226
 30
0.0
  0
LINE
  5
485
330
1F
100
AcDbEntity
  8
D-STR
 62
     0
100
AcDbLine
 10
1768.712366728057
 20
1408.366523968691
 30
0.0
 11
1937.683697728055
 21
1408.366523968691
 31
0.0
  0
LINE
  5
486
330
1F
100
AcDbEntity
  8
D-STR-STR1
100
AcDbLine
 10
1768.589838728056
 20
1431.240186968691
 30
0.0
 11
1768.589838728056
 21
1566.329348968692
 31
0.0
  0
SPLINE
  5
487
330
1F
100
AcDbEntity
  8
D-STR
100
AcDbSpline
210
0.0
220
0.0
230
1.0
 70
     8
 71
     3
 72
     8
 73
     4
 74
     0
 42
0.0000000001
 43
0.0000000001
 40
0.0909775063852306
 40
0.0909775063852306
 40
0.0909775063852306
 40
0.0909775063852306
 40
1.0
 40
1.0
 40
1.0
 40
1.0
 10
1886.459624467632
 20
1415.273609171371
 30
0.0
 10
1883.324062296808
 20
1439.573907954557
 30
0.0
 10
1866.06176592999
 20
1573.344895988523
 30
0.0
 10
1865.409446740709
 20
1578.177988163662
 30
0.0
  0
SPLINE
  5
488
330
1F
100
AcDbEntity
  8
D-STR
100
AcDbSpline
210
0.0
220
0.0
230
1.0
 70
    24
 71
     3
 72
     8
 73
     4
 74
     0
 42
0.0000000001
 43
0.0000000001
 40
8.0
 40
8.0
 40
8.0
 40
8.0
 40
9.0
 40
9.0
 40
9.0
 40
9.0
 10
1768.744776173382
 20
1465.530294624198
 30
0.0
 10
1768.744776173382
 20
1465.530294624198
 30
0.0
 10
1768.744776173382
 20
1517.719757390405
 30
0.0
 10
1768.744776173382
 20
1517.719757390405
 30
0.0
  0
LINE
  5
489
330
1F
100
AcDbEntity
  8
D-STR
100
AcDbLine
 10
1774.803646728056
 20
1528.997573968691
 30
0.0
 11
1882.693128728056
 21
1443.080670968692
 31
0.0
  0
LINE
  5
48A
330
1F
100
AcDbEntity
  8
D-STR
100
AcDbLine
 10
1774.803646728056
 20
1554.321694968691
 30
0.0
 11
1879.712621728056
 21
1469.90931696869
 31
0.0
  0
LINE
  5
48B
330
1F
100
AcDbEntity
  8
D-STR
100
AcDbLine
 10
1787.777620728057
 20
1569.799132968691
 30
0.0
 11
1875.737251728057
 21
1500.713331968691
 31
0.0
  0
SPLINE
  5
48C
330
1F
100
AcDbEntity
  8
D-STR
100
AcDbSpline
210
0.0
220
0.0
230
1.0
 70
    24
 71
     3
 72
     8
 73
     4
 74
     0
 42
0.0000000001
 43
0.0000000001
 40
2.0
 40
2.0
 40
2.0
 40
2.0
 40
3.0
 40
3.0
 40
3.0
 40
3.0
 10
1774.143123728261
 20
1551.90385550231
 30
0.0
 10
1774.143123728261
 20
1549.844818104112
 30
0.0
 10
1774.143123728261
 20
1483.01784195267
 30
0.0
 10
1774.143123728261
 20
1483.01784195267
 30
0.0
  0
LINE
  5
48D
330
1F
100
AcDbEntity
  8
D-STR
100
AcDbLine
 10
1642.438121728056
 20
1509.402061968691
 30
0.0
 11
1736.419609728057
 21
1434.530962968691
 31
0.0
  0
LINE
  5
48E
330
1F
100
AcDbEntity
  8
D-STR-STR1
100
AcDbLine
 10
1750.610922728056
 20
1566.329348968692
 30
0.0
 11
1750.610922728056
 21
1431.14664696869
 31
0.0
  0
LINE
  5
48F
330
1F
100
AcDbEntity
  8
D-STR
100
AcDbLine
 10
1654.262296728056
 20
1523.13441396869
 30
0.0
 11
1746.066823728056
 21
1451.121650968691
 31
0.0
  0
LINE
  5
490
330
1F
100
AcDbEntity
  8
D-STR
100
AcDbLine
 10
1680.299945728057
 20
1552.191354968691
 30
0.0
 11
1745.430764728056
 21
1499.004941968692
 31
0.0
  0
LINE
  5
491
330
1F
100
AcDbEntity
  8
D-STR
100
AcDbLine
 10
1668.377915728056
 20
1537.62922196869
 30
0.0
 11
1746.193219728057
 21
1475.45444696869
 31
0.0
  0
SPLINE
  5
492
330
1F
100
AcDbEntity
  8
D-STR
100
AcDbSpline
210
0.0
220
0.0
230
1.0
 70
     8
 71
     3
 72
     8
 73
     4
 74
     0
 42
0.0000000001
 43
0.0000000001
 40
6.0
 40
6.0
 40
6.0
 40
6.0
 40
7.0
 40
7.0
 40
7.0
 40
7.0
 10
1705.489516380008
 20
1583.233842369164
 30
0.0
 10
1704.266325846421
 20
1581.84348246267
 30
0.0
 10
1611.801276111065
 20
1476.636864669139
 30
0.0
 10
1609.566914736384
 20
1474.581904572741
 30
0.0
  0
SPLINE
  5
493
330
1F
100
AcDbEntity
  8
D-STR
100
AcDbSpline
210
0.0
220
0.0
230
1.0
 70
    24
 71
     3
 72
    11
 73
     7
 74
     0
 42
0.0000000001
 43
0.0000000001
 40
4.654201830603356
 40
4.654201830603356
 40
4.654201830603356
 40
4.654201830603356
 40
5.485135531041105
 40
5.485135531041105
 40
5.485135531041105
 40
5.510595196241362
 40
5.510595196241362
 40
5.510595196241362
 40
5.510595196241362
 10
1750.437691187423
 20
1465.530294624198
 30
0.0
 10
1750.437691187423
 20
1465.530294624198
 30
0.0
 10
1750.437691187423
 20
1514.662808349351
 30
0.0
 10
1750.437691187423
 20
1517.58412324991
 30
0.0
 10
1750.437691187423
 20
1517.673631834378
 30
0.0
 10
1750.437691187423
 20
1517.719757390405
 30
0.0
 10
1750.437691187423
 20
1517.719757390405
 30
0.0
  0
SPLINE
  5
494
330
1F
100
AcDbEntity
  8
D-STR
100
AcDbSpline
210
0.0
220
0.0
230
1.0
 70
     8
 71
     3
 72
    20
 73
    16
 74
     0
 42
0.0000000001
 43
0.0000000001
 40
10.1376407514415
 40
10.1376407514415
 40
10.1376407514415
 40
10.1376407514415
 40
10.50817914365188
 40
10.50817914365188
 40
10.50817914365188
 40
11.33911284408963
 40
11.33911284408963
 40
11.33911284408963
 40
11.36457250928988
 40
11.36457250928988
 40
11.36457250928988
 40
12.22096587492789
 40
12.22096587492789
 40
12.22096587492789
 40
12.54058493673775
 40
12.54058493673775
 40
12.54058493673775
 40
12.54058493673775
 10
1743.24940815172
 20
1555.76098298489
 30
0.0
 10
1743.720953700362
 20
1555.52206657358
 30
0.0
 10
1744.07111670248
 20
1555.25910633516
 30
0.0
 10
1744.329916775524
 20
1554.94937825643
 30
0.0
 10
1744.91027688635
 20
1554.254811906493
 30
0.0
 10
1745.031189028981
 20
1553.325058381346
 30
0.0
 10
1745.031189028981
 20
1551.90385550231
 30
0.0
 10
1745.031189028981
 20
1551.860223691704
 30
0.0
 10
1745.031189028981
 20
1551.78750895651
 30
0.0
 10
1745.031189028981
 20
1551.686963446019
 30
0.0
 10
1745.031189028981
 20
1548.304888015994
 30
0.0
 10
1745.031189028981
 20
1513.433258062742
 30
0.0
 10
1745.031189028981
 20
1494.728110923902
 30
0.0
 10
1745.031189028981
 20
1487.747064807229
 30
0.0
 10
1745.031189028981
 20
1483.01784195267
 30
0.0
 10
1745.031189028981
 20
1483.01784195267
 30
0.0
  0
DIMENSION
  5
495
330
1F
100
AcDbEntity
  8
D-STR-DIM
100
AcDbDimension
  2
*D2
 10
1825.937344268871
 20
1310.821155968691
 30
0.0
 11
1800.937344268871
 21
1359.613140970039
 31
0.0
 70
    32
  1
85
 71
     5
 42
97.58397000269452
  3
Standard
100
AcDbAlignedDimension
 13
1768.712159459456
 23
1408.405125971386
 33
0.0
 14
1759.269126728056
 24
1310.821155968691
 34
0.0
 50
90.0
100
AcDbRotatedDimension
  0
SPLINE
  5
496
330
1F
100
AcDbEntity
  8
D-STR
 62
     0
100
AcDbSpline
210
0.0
220
0.0
230
1.0
 70
    11
 71
     3
 72
    26
 73
    22
 74
     0
 42
0.0000000001
 43
0.0000000001
 40
0.0
 40
0.0
 40
0.0
 40
0.0
 40
1.0
 40
1.0
 40
1.0
 40
2.0
 40
2.0
 40
2.0
 40
3.0
 40
3.0
 40
3.0
 40
4.0
 40
4.0
 40
4.0
 40
5.0
 40
5.0
 40
5.0
 40
6.0
 40
6.0
 40
6.0
 40
7.0
 40
7.0
 40
7.0
 40
7.0
 10
1742.50326192624
 20
1296.893093060835
 30
0.0
 10
1736.37100005121
 20
1288.714025692937
 30
0.0
 10
1735.612621920383
 20
1280.241392596979
 30
0.0
 10
1741.353462824668
 20
1273.34259798757
 30
0.0
 10
1747.102458332508
 20
1266.451957981697
 30
0.0
 10
1752.84737653857
 20
1268.18073393586
 30
0.0
 10
1753.422276089361
 20
1260.711117077399
 30
0.0
 10
1753.993098338365
 20
1253.241500218992
 30
0.0
 10
1758.584140141081
 20
1240.03919705988
 30
0.0
 10
1763.183336547358
 20
1234.869178404567
 30
0.0
 10
1767.774378350071
 20
1229.691005145749
 30
0.0
 10
1778.685237909638
 20
1234.286124250256
 30
0.0
 10
1782.134635214344
 20
1240.601864705341
 30
0.0
 10
1785.584032519041
 20
1246.921682462168
 30
0.0
 10
1793.624471626469
 20
1275.071373941683
 30
0.0
 10
1782.709534765124
 20
1282.536913498346
 30
0.0
 10
1771.802752507336
 20
1290.006530356737
 30
0.0
 10
1768.353355202638
 20
1299.76759081477
 30
0.0
 10
1758.013317892077
 20
1300.913312614553
 30
0.0
 10
1747.673280581512
 20
1302.067189017909
 30
0.0
 10
1744.23203788037
 20
1299.192691263978
 30
0.0
 10
1742.50326192624
 20
1296.893093060835
 30
0.0
  0
SPLINE
  5
497
330
1F
100
AcDbEntity
  8
D-STR
 62
     0
100
AcDbSpline
210
0.0
220
0.0
230
1.0
 70
    11
 71
     3
 72
    20
 73
    16
 74
     0
 42
0.0000000001
 43
0.0000000001
 40
0.0
 40
0.0
 40
0.0
 40
0.0
 40
1.0
 40
1.0
 40
1.0
 40
2.0
 40
2.0
 40
2.0
 40
3.0
 40
3.0
 40
3.0
 40
4.0
 40
4.0
 40
4.0
 40
5.0
 40
5.0
 40
5.0
 40
5.0
 10
1775.243995208487
 20
1228.541206044169
 30
0.0
 10
1780.316158621083
 20
1221.67502984902
 30
0.0
 10
1783.284434315915
 20
1208.44418557742
 30
0.0
 10
1782.709534765124
 20
1201.54946826977
 30
0.0
 10
1782.134635214344
 20
1194.658828263896
 30
0.0
 10
1785.005055666482
 20
1169.962611390898
 30
0.0
 10
1778.114415660633
 20
1169.962611390898
 30
0.0
 10
1771.219698353
 20
1169.962611390898
 30
0.0
 10
1759.15903969187
 20
1178.577950049088
 30
0.0
 10
1756.863518790514
 20
1190.638608710228
 30
0.0
 10
1754.567997889147
 20
1202.699267371352
 30
0.0
 10
1752.84737653857
 20
1218.20932333719
 30
0.0
 10
1758.013317892077
 20
1221.079743789297
 30
0.0
 10
1763.183336547358
 20
1223.950164241489
 30
0.0
 10
1765.482934750499
 20
1241.751663806869
 30
0.0
 10
1775.243995208487
 20
1228.541206044169
 30
0.0
  0
LINE
  5
499
330
1F
100
AcDbEntity
  8
D-STR-STR1
100
AcDbLine
 10
1760.989747728056
 20
1313.976987968692
 30
0.0
 11
1768.744775728056
 21
1329.487043968691
 31
0.0
  0
LINE
  5
49A
330
1F
100
AcDbEntity
  8
D-STR-STR1
100
AcDbLine
 10
1759.269126728056
 20
1310.821155968691
 30
0.0
 11
1760.989747728056
 21
1313.976987968692
 31
0.0
  0
LINE
  5
49B
330
1F
100
AcDbEntity
  8
D-STR-STR1
100
AcDbLine
 10
1757.687133728056
 20
1314.27055296869
 30
0.0
 11
1759.269126728056
 21
1310.821155968691
 31
0.0
  0
SPLINE
  5
4A2
330
1F
100
AcDbEntity
  8
D-STR
 62
     0
100
AcDbSpline
210
0.0
220
0.0
230
1.0
 70
    11
 71
     3
 72
    29
 73
    25
 74
     0
 42
0.0000000001
 43
0.0000000001
 40
0.0
 40
0.0
 40
0.0
 40
0.0
 40
1.0
 40
1.0
 40
1.0
 40
2.0
 40
2.0
 40
2.0
 40
3.0
 40
3.0
 40
3.0
 40
4.0
 40
4.0
 40
4.0
 40
5.0
 40
5.0
 40
5.0
 40
6.0
 40
6.0
 40
6.0
 40
7.0
 40
7.0
 40
7.0
 40
8.0
 40
8.0
 40
8.0
 40
8.0
 10
1716.661323253395
 20
1200.974568718981
 30
0.0
 10
1717.517556626907
 20
1190.671227124424
 30
0.0
 10
1712.062126847127
 20
1183.16491455003
 30
0.0
 10
1713.211925948698
 20
1165.942391837178
 30
0.0
 10
1714.361725050261
 20
1148.715791822536
 30
0.0
 10
1703.450865490694
 20
1140.10045316434
 30
0.0
 10
1695.981248632278
 20
1144.116595416231
 30
0.0
 10
1688.519786377427
 20
1148.13681496997
 30
0.0
 10
1684.499566823715
 20
1149.861513622322
 30
0.0
 10
1681.625069069792
 20
1164.213615883031
 30
0.0
 10
1678.750571315867
 20
1178.577950049088
 30
0.0
 10
1678.175671765088
 20
1171.687310043216
 30
0.0
 10
1671.859931310019
 20
1173.403854091998
 30
0.0
 10
1665.540113553166
 20
1175.132630046162
 30
0.0
 10
1657.503751747523
 20
1180.302648701408
 30
0.0
 10
1654.629253993599
 20
1186.61838915649
 30
0.0
 10
1651.758833541459
 20
1192.938206913353
 30
0.0
 10
1642.568595332468
 20
1200.399669168189
 30
0.0
 10
1654.054354442819
 20
1214.75992603247
 30
0.0
 10
1665.540113553166
 20
1229.120182896753
 30
0.0
 10
1661.519893999456
 20
1238.302266502198
 30
0.0
 10
1679.325470866658
 20
1237.160622004189
 30
0.0
 10
1697.131047733849
 20
1236.01082290261
 30
0.0
 10
1713.211925948698
 20
1242.330640659456
 30
0.0
 10
1716.661323253395
 20
1200.974568718981
 30
0.0
  0
SPLINE
  5
4A3
330
1F
100
AcDbEntity
  8
D-STR
 62
     0
100
AcDbSpline
210
0.0
220
0.0
230
1.0
 70
    11
 71
     3
 72
    20
 73
    16
 74
     0
 42
0.0000000001
 43
0.0000000001
 40
0.0
 40
0.0
 40
0.0
 40
0.0
 40
1.0
 40
1.0
 40
1.0
 40
2.0
 40
2.0
 40
2.0
 40
3.0
 40
3.0
 40
3.0
 40
4.0
 40
4.0
 40
4.0
 40
5.0
 40
5.0
 40
5.0
 40
5.0
 10
1677.600772214305
 20
1260.132140224867
 30
0.0
 10
1673.780340447739
 20
1256.47072322769
 30
0.0
 10
1666.68991265473
 20
1254.391299320575
 30
0.0
 10
1673.584629962362
 20
1242.901462908452
 30
0.0
 10
1680.475269968221
 20
1231.419781099892
 30
0.0
 10
1683.92058997115
 20
1239.460220207295
 30
0.0
 10
1689.661430875434
 20
1241.180841557873
 30
0.0
 10
1695.410426383273
 20
1242.901462908452
 30
0.0
 10
1700.580445038556
 20
1241.751663806869
 30
0.0
 10
1704.600664592265
 20
1248.650458416281
 30
0.0
 10
1708.6168068442
 20
1255.53702112036
 30
0.0
 10
1705.17148684127
 20
1261.860916178981
 30
0.0
 10
1702.301066389132
 20
1265.872981129165
 30
0.0
 10
1699.426568635208
 20
1269.901355286438
 30
0.0
 10
1691.390206829565
 20
1273.34259798757
 30
0.0
 10
1677.600772214305
 20
1260.132140224867
 30
0.0
  0
SPLINE
  5
4A4
330
1F
100
AcDbEntity
  8
D-STR
 62
     0
100
AcDbSpline
210
0.0
220
0.0
230
1.0
 70
    11
 71
     3
 72
    17
 73
    13
 74
     0
 42
0.0000000001
 43
0.0000000001
 40
0.0
 40
0.0
 40
0.0
 40
0.0
 40
1.0
 40
1.0
 40
1.0
 40
2.0
 40
2.0
 40
2.0
 40
3.0
 40
3.0
 40
3.0
 40
4.0
 40
4.0
 40
4.0
 40
4.0
 10
1674.730351762157
 20
1284.25345754713
 30
0.0
 10
1670.669359190664
 20
1282.357512220089
 30
0.0
 10
1660.374172199661
 20
1265.872981129165
 30
0.0
 10
1679.325470866658
 20
1267.601757083276
 30
0.0
 10
1698.280846835421
 20
1269.326455735646
 30
0.0
 10
1694.260627281703
 20
1269.326455735646
 30
0.0
 10
1697.131047733849
 20
1272.771775738575
 30
0.0
 10
1700.001468185998
 20
1276.213018439727
 30
0.0
 10
1701.15126728756
 20
1279.662415744398
 30
0.0
 10
1697.131047733849
 20
1281.96201394756
 30
0.0
 10
1693.110828180132
 20
1284.25345754713
 30
0.0
 10
1683.349767722145
 20
1288.273677100849
 30
0.0
 10
1674.730351762157
 20
1284.25345754713
 30
0.0
  0
SPLINE
  5
4A5
330
1F
100
AcDbEntity
  8
D-STR
 62
     0
100
AcDbSpline
210
0.0
220
0.0
230
1.0
 70
    11
 71
     3
 72
    26
 73
    22
 74
     0
 42
0.0000000001
 43
0.0000000001
 40
0.0
 40
0.0
 40
0.0
 40
0.0
 40
1.0
 40
1.0
 40
1.0
 40
2.0
 40
2.0
 40
2.0
 40
3.0
 40
3.0
 40
3.0
 40
4.0
 40
4.0
 40
4.0
 40
5.0
 40
5.0
 40
5.0
 40
6.0
 40
6.0
 40
6.0
 40
7.0
 40
7.0
 40
7.0
 40
7.0
 10
1654.629253993599
 20
1186.61838915649
 30
0.0
 10
1654.629253993599
 20
1179.063148960707
 30
0.0
 10
1660.374172199661
 20
1155.02745497579
 30
0.0
 10
1649.459235338327
 20
1152.736011376221
 30
0.0
 10
1638.548375778758
 20
1150.436413173112
 30
0.0
 10
1637.398576677187
 20
1153.30683362525
 30
0.0
 10
1632.803457572696
 20
1161.343195430876
 30
0.0
 10
1628.208338468196
 20
1169.387711840073
 30
0.0
 10
1624.758941163499
 20
1176.278351845948
 30
0.0
 10
1624.188118914486
 20
1184.318790953384
 30
0.0
 10
1623.617296665481
 20
1192.359230060787
 30
0.0
 10
1620.167899360785
 20
1206.144587374275
 30
0.0
 10
1621.89259801313
 20
1213.039304681895
 30
0.0
 10
1623.617296665481
 20
1219.929944687769
 30
0.0
 10
1631.65773577291
 20
1227.399561546174
 30
0.0
 10
1639.698174880323
 20
1218.780145586189
 30
0.0
 10
1647.738613987749
 20
1210.16888422974
 30
0.0
 10
1647.738613987749
 20
1206.719486925069
 30
0.0
 10
1651.188011292455
 20
1200.399669168189
 30
0.0
 10
1654.629253993599
 20
1194.083928713157
 30
0.0
 10
1654.629253993599
 20
1190.638608710228
 30
0.0
 10
1654.629253993599
 20
1186.61838915649
 30
0.0
  0
SPLINE
  5
4A6
330
1F
100
AcDbEntity
  8
D-STR
 62
     0
100
AcDbSpline
210
0.0
220
0.0
230
1.0
 70
    11
 71
     3
 72
    26
 73
    22
 74
     0
 42
0.0000000001
 43
0.0000000001
 40
0.0
 40
0.0
 40
0.0
 40
0.0
 40
1.0
 40
1.0
 40
1.0
 40
2.0
 40
2.0
 40
2.0
 40
3.0
 40
3.0
 40
3.0
 40
4.0
 40
4.0
 40
4.0
 40
5.0
 40
5.0
 40
5.0
 40
6.0
 40
6.0
 40
6.0
 40
7.0
 40
7.0
 40
7.0
 40
7.0
 10
1684.499566823715
 20
1149.861513622322
 30
0.0
 10
1684.499566823715
 20
1140.512260643978
 30
0.0
 10
1679.325470866658
 20
1137.225955410408
 30
0.0
 10
1679.325470866658
 20
1132.055936755109
 30
0.0
 10
1679.325470866658
 20
1126.894072703383
 30
0.0
 10
1677.029949965292
 20
1114.825259438726
 30
0.0
 10
1664.969291304161
 20
1119.995278093989
 30
0.0
 10
1652.908632643024
 20
1125.165296749287
 30
0.0
 10
1653.483532193813
 20
1129.181439001214
 30
0.0
 10
1651.758833541459
 20
1138.367599908418
 30
0.0
 10
1650.030057587331
 20
1147.561915419177
 30
0.0
 10
1640.268997129327
 20
1152.157034523686
 30
0.0
 10
1652.908632643024
 20
1160.19747363109
 30
0.0
 10
1665.540113553166
 20
1168.237912738492
 30
0.0
 10
1659.799272648888
 20
1171.687310043216
 30
0.0
 10
1669.564410408653
 20
1172.833031843
 30
0.0
 10
1679.325470866658
 20
1173.986908246372
 30
0.0
 10
1678.750571315867
 20
1176.853251396738
 30
0.0
 10
1682.770790869577
 20
1169.387711840073
 30
0.0
 10
1686.791010423296
 20
1161.926249585236
 30
0.0
 10
1684.499566823715
 20
1153.877655874263
 30
0.0
 10
1684.499566823715
 20
1149.861513622322
 30
0.0
  0
SPLINE
  5
4A7
330
1F
100
AcDbEntity
  8
D-STR
 62
     0
100
AcDbSpline
210
0.0
220
0.0
230
1.0
 70
    11
 71
     3
 72
    20
 73
    16
 74
     0
 42
0.0000000001
 43
0.0000000001
 40
0.0
 40
0.0
 40
0.0
 40
0.0
 40
1.0
 40
1.0
 40
1.0
 40
2.0
 40
2.0
 40
2.0
 40
3.0
 40
3.0
 40
3.0
 40
4.0
 40
4.0
 40
4.0
 40
5.0
 40
5.0
 40
5.0
 40
5.0
 10
1648.309436236755
 20
1297.467992611625
 30
0.0
 10
1639.086579613541
 20
1296.656609557647
 30
0.0
 10
1640.268997129327
 20
1284.83651170149
 30
0.0
 10
1640.847973981892
 20
1279.091593495403
 30
0.0
 10
1641.422873532683
 20
1273.34259798757
 30
0.0
 10
1636.819599824629
 20
1268.18073393586
 30
0.0
 10
1637.973476227978
 20
1261.860916178981
 30
0.0
 10
1639.119198027763
 20
1255.53702112036
 30
0.0
 10
1641.993695781688
 20
1257.83661932352
 30
0.0
 10
1649.459235338327
 20
1260.132140224867
 30
0.0
 10
1656.928852196742
 20
1262.431738428013
 30
0.0
 10
1664.390314451603
 20
1266.451957981697
 30
0.0
 10
1666.68991265473
 20
1269.901355286438
 30
0.0
 10
1668.98951085787
 20
1273.34259798757
 30
0.0
 10
1667.8397117563
 20
1299.192691263978
 30
0.0
 10
1648.309436236755
 20
1297.467992611625
 30
0.0
  0
SPLINE
  5
4A8
330
1F
100
AcDbEntity
  8
D-STR
 62
     0
100
AcDbSpline
210
0.0
220
0.0
230
1.0
 70
    11
 71
     3
 72
    20
 73
    16
 74
     0
 42
0.0000000001
 43
0.0000000001
 40
0.0
 40
0.0
 40
0.0
 40
0.0
 40
1.0
 40
1.0
 40
1.0
 40
2.0
 40
2.0
 40
2.0
 40
3.0
 40
3.0
 40
3.0
 40
4.0
 40
4.0
 40
4.0
 40
5.0
 40
5.0
 40
5.0
 40
5.0
 10
1667.8397117563
 20
1260.132140224867
 30
0.0
 10
1665.381098783805
 20
1263.512223399319
 30
0.0
 10
1647.16371443696
 20
1267.601757083276
 30
0.0
 10
1644.293293984822
 20
1255.53702112036
 30
0.0
 10
1641.422873532683
 20
1243.480439761034
 30
0.0
 10
1636.248777575624
 20
1238.88124335473
 30
0.0
 10
1637.973476227978
 20
1231.99060334889
 30
0.0
 10
1639.698174880323
 20
1225.099963343017
 30
0.0
 10
1640.847973981892
 20
1211.310528727746
 30
0.0
 10
1653.483532193813
 20
1218.780145586189
 30
0.0
 10
1666.119090405723
 20
1226.24160784106
 30
0.0
 10
1668.98951085787
 20
1231.99060334889
 30
0.0
 10
1670.139309959442
 20
1238.302266502198
 30
0.0
 10
1671.289109061016
 20
1244.630238862595
 30
0.0
 10
1672.438908162577
 20
1253.812322468042
 30
0.0
 10
1667.8397117563
 20
1260.132140224867
 30
0.0
  0
SPLINE
  5
4A9
330
1F
100
AcDbEntity
  8
D-STR
 62
     0
100
AcDbSpline
210
0.0
220
0.0
230
1.0
 70
    11
 71
     3
 72
    23
 73
    19
 74
     0
 42
0.0000000001
 43
0.0000000001
 40
0.0
 40
0.0
 40
0.0
 40
0.0
 40
1.0
 40
1.0
 40
1.0
 40
2.0
 40
2.0
 40
2.0
 40
3.0
 40
3.0
 40
3.0
 40
4.0
 40
4.0
 40
4.0
 40
5.0
 40
5.0
 40
5.0
 40
6.0
 40
6.0
 40
6.0
 40
6.0
 10
1728.721981914535
 20
1224.520986490449
 30
0.0
 10
1726.410151806061
 20
1231.460554117679
 30
0.0
 10
1747.673280581512
 20
1244.630238862595
 30
0.0
 10
1758.584140141081
 20
1219.929944687769
 30
0.0
 10
1769.503154304202
 20
1195.229650512941
 30
0.0
 10
1760.883738344214
 20
1195.229650512941
 30
0.0
 10
1758.584140141081
 20
1188.339010507066
 30
0.0
 10
1756.288619239723
 20
1181.448370501195
 30
0.0
 10
1747.102458332508
 20
1166.513214086174
 30
0.0
 10
1743.078161477021
 20
1163.067894083245
 30
0.0
 10
1739.057941923312
 20
1159.622574080299
 30
0.0
 10
1726.422383711399
 20
1151.007235422124
 30
0.0
 10
1721.252365056111
 20
1167.667090489532
 30
0.0
 10
1716.086423702614
 20
1184.318790953384
 30
0.0
 10
1716.661323253395
 20
1187.768188258072
 30
0.0
 10
1720.102565954546
 20
1197.529248716084
 30
0.0
 10
1723.551963259252
 20
1207.298463777634
 30
0.0
 10
1729.292804163539
 20
1222.808519743443
 30
0.0
 10
1728.721981914535
 20
1224.520986490449
 30
0.0
  0
SPLINE
  5
4AA
330
1F
100
AcDbEntity
  8
D-STR
 62
     0
100
AcDbSpline
210
0.0
220
0.0
230
1.0
 70
    11
 71
     3
 72
    20
 73
    16
 74
     0
 42
0.0000000001
 43
0.0000000001
 40
0.0
 40
0.0
 40
0.0
 40
0.0
 40
1.0
 40
1.0
 40
1.0
 40
2.0
 40
2.0
 40
2.0
 40
3.0
 40
3.0
 40
3.0
 40
4.0
 40
4.0
 40
4.0
 40
5.0
 40
5.0
 40
5.0
 40
5.0
 10
1697.705947284631
 20
1304.362709919226
 30
0.0
 10
1701.579383974312
 20
1307.371758631859
 30
0.0
 10
1717.802967751404
 20
1310.103550823537
 30
0.0
 10
1722.402164157681
 20
1307.233130371382
 30
0.0
 10
1726.993205960395
 20
1304.362709919226
 30
0.0
 10
1735.037722369602
 20
1299.76759081477
 30
0.0
 10
1728.721981914535
 20
1297.467992611625
 30
0.0
 10
1722.402164157681
 20
1295.172471710257
 30
0.0
 10
1707.471085044403
 20
1289.42755350417
 30
0.0
 10
1706.900262795398
 20
1285.403256648709
 30
0.0
 10
1706.321285942832
 20
1281.387114396767
 30
0.0
 10
1697.110661224958
 20
1272.747311927897
 30
0.0
 10
1693.110828180132
 20
1284.25345754713
 30
0.0
 10
1689.115072437098
 20
1295.767757769931
 30
0.0
 10
1692.540005931128
 20
1300.334335761986
 30
0.0
 10
1697.705947284631
 20
1304.362709919226
 30
0.0
  0
SPLINE
  5
4AB
330
1F
100
AcDbEntity
  8
D-STR
 62
     0
100
AcDbSpline
210
0.0
220
0.0
230
1.0
 70
    11
 71
     3
 72
    29
 73
    25
 74
     0
 42
0.0000000001
 43
0.0000000001
 40
0.0
 40
0.0
 40
0.0
 40
0.0
 40
1.0
 40
1.0
 40
1.0
 40
2.0
 40
2.0
 40
2.0
 40
3.0
 40
3.0
 40
3.0
 40
4.0
 40
4.0
 40
4.0
 40
5.0
 40
5.0
 40
5.0
 40
6.0
 40
6.0
 40
6.0
 40
7.0
 40
7.0
 40
7.0
 40
8.0
 40
8.0
 40
8.0
 40
8.0
 10
1725.272584609828
 20
1291.723074405536
 30
0.0
 10
1730.140882933489
 20
1293.545628300597
 30
0.0
 10
1740.207741024883
 20
1290.57327530396
 30
0.0
 10
1739.632841474102
 20
1283.682635298134
 30
0.0
 10
1739.057941923312
 20
1276.791995292292
 30
0.0
 10
1736.762421021954
 20
1269.901355286438
 30
0.0
 10
1739.057941923312
 20
1263.573382926022
 30
0.0
 10
1741.353462824668
 20
1257.269874376301
 30
0.0
 10
1744.23203788037
 20
1245.201061111592
 30
0.0
 10
1738.48304237253
 20
1240.03919705988
 30
0.0
 10
1732.742201468235
 20
1234.869178404567
 30
0.0
 10
1732.742201468235
 20
1226.820584693592
 30
0.0
 10
1724.701762360825
 20
1226.24160784106
 30
0.0
 10
1716.661323253395
 20
1225.670785592032
 30
0.0
 10
1710.920482349118
 20
1233.136325148694
 30
0.0
 10
1710.920482349118
 20
1237.739598856721
 30
0.0
 10
1710.920482349118
 20
1242.330640659456
 30
0.0
 10
1710.341505496551
 20
1252.662523366463
 30
0.0
 10
1708.6168068442
 20
1255.53702112036
 30
0.0
 10
1706.900262795398
 20
1258.411518874293
 30
0.0
 10
1704.600664592265
 20
1273.921574840104
 30
0.0
 10
1709.19170639498
 20
1279.662415744398
 30
0.0
 10
1713.790902801257
 20
1285.403256648709
 30
0.0
 10
1720.681542807105
 20
1290.006530356737
 30
0.0
 10
1725.272584609828
 20
1291.723074405536
 30
0.0
  0
LINE
  5
4AC
330
1F
100
AcDbEntity
  8
D-STR
100
AcDbLine
 10
1615.597243728056
 20
1481.415461968691
 30
0.0
 11
1694.993296728056
 21
1415.432143968691
 31
0.0
  0
LINE
  5
4AD
330
1F
100
AcDbEntity
  8
D-STR
100
AcDbLine
 10
1633.386511728056
 20
1490.70763296869
 30
0.0
 11
1724.800578728056
 21
1415.422446968691
 31
0.0
  0
LINE
  5
4B1
330
1F
100
AcDbEntity
  8
D-STR
100
AcDbLine
 10
1632.571051728057
 20
1500.53800796869
 30
0.0
 11
1632.571051728057
 21
1484.130944968691
 31
0.0
  0
LINE
  5
4B2
330
1F
100
AcDbEntity
  8
D-STR
100
AcDbLine
 10
1632.571051728057
 20
1484.130944968691
 30
0.0
 11
1617.860146728056
 21
1483.984162968691
 31
0.0
  0
LINE
  5
4B3
330
1F
100
AcDbEntity
  8
D-STR-STR1
100
AcDbLine
 10
1750.610922728056
 20
1431.14664696869
 30
0.0
 11
1750.364299728056
 21
1330.066019968691
 31
0.0
  0
LINE
  5
4B7
330
1F
100
AcDbEntity
  8
D-STR-STR1
100
AcDbLine
 10
1750.364299728056
 20
1330.066019968691
 30
0.0
 11
1757.687133728056
 21
1314.27055296869
 31
0.0
  0
SPLINE
  5
4B8
330
1F
100
AcDbEntity
  8
D-STR
100
AcDbSpline
210
0.0
220
0.0
230
1.0
 70
    24
 71
     3
 72
     8
 73
     4
 74
     0
 42
0.0000000001
 43
0.0000000001
 40
3.082191345744857
 40
3.082191345744857
 40
3.082191345744857
 40
3.082191345744857
 40
3.797808464965351
 40
3.797808464965351
 40
3.797808464965351
 40
3.797808464965351
 10
1749.149263825374
 20
1438.829900607615
 30
0.0
 10
1749.149263825374
 20
1445.436157345641
 30
0.0
 10
1749.149263825374
 20
1465.530294624198
 30
0.0
 10
1749.149263825374
 20
1465.530294624198
 30
0.0
  0
SPLINE
  5
4B9
330
1F
100
AcDbEntity
  8
D-STR
100
AcDbSpline
210
0.0
220
0.0
230
1.0
 70
    24
 71
     3
 72
    11
 73
     7
 74
     0
 42
0.0000000001
 43
0.0000000001
 40
3.797808464965351
 40
3.797808464965351
 40
3.797808464965351
 40
3.797808464965351
 40
4.283663438392983
 40
4.283663438392983
 40
4.283663438392983
 40
4.654201830603356
 40
4.654201830603356
 40
4.654201830603356
 40
4.654201830603356
 10
1749.149263825374
 20
1465.530294624198
 30
0.0
 10
1749.149263825374
 20
1465.530294624198
 30
0.0
 10
1749.563956779271
 20
1465.530294624198
 30
0.0
 10
1749.922809770345
 20
1465.530294624198
 30
0.0
 10
1750.196489814031
 20
1465.530294624198
 30
0.0
 10
1750.437691187423
 20
1465.530294624198
 30
0.0
 10
1750.437691187423
 20
1465.530294624198
 30
0.0
  0
SPLINE
  5
4BA
330
1F
100
AcDbEntity
  8
D-STR
100
AcDbSpline
210
0.0
220
0.0
230
1.0
 70
    24
 71
     3
 72
    11
 73
     7
 74
     0
 42
0.0000000001
 43
0.0000000001
 40
12.54058493673775
 40
12.54058493673775
 40
12.54058493673775
 40
12.54058493673775
 40
13.07735924056589
 40
13.07735924056589
 40
13.07735924056589
 40
13.74205702938588
 40
13.74205702938588
 40
13.74205702938588
 40
13.74205702938588
 10
1745.031189028981
 20
1483.01784195267
 30
0.0
 10
1745.031189028981
 20
1483.01784195267
 30
0.0
 10
1745.237899574308
 20
1482.914486680004
 30
0.0
 10
1745.46661906475
 20
1482.800126934779
 30
0.0
 10
1745.749846742513
 20
1482.658513095892
 30
0.0
 10
1746.066823680744
 20
1482.500024626772
 30
0.0
 10
1746.066823680744
 20
1482.500024626772
 30
0.0
  0
SPLINE
  5
4BB
330
1F
100
AcDbEntity
  8
D-STR
100
AcDbSpline
210
0.0
220
0.0
230
1.0
 70
    24
 71
     3
 72
    11
 73
     7
 74
     0
 42
0.0000000001
 43
0.0000000001
 40
13.74205702938588
 40
13.74205702938588
 40
13.74205702938588
 40
13.74205702938588
 40
13.93375260620389
 40
13.93375260620389
 40
13.93375260620389
 40
14.7901459718419
 40
14.7901459718419
 40
14.7901459718419
 40
14.7901459718419
 10
1746.066823680744
 20
1482.500024626772
 30
0.0
 10
1746.066823680744
 20
1482.500024626772
 30
0.0
 10
1746.066823680744
 20
1481.335462874442
 30
0.0
 10
1746.066823680744
 20
1479.377952390535
 30
0.0
 10
1746.066823680744
 20
1470.632841942965
 30
0.0
 10
1746.066823680744
 20
1446.061864445023
 30
0.0
 10
1746.066823680744
 20
1438.799070333763
 30
0.0
  0
LINE
  5
4BC
330
1F
100
AcDbEntity
  8
D-STR
100
AcDbLine
 10
1737.255774728056
 20
1437.853569968691
 30
0.0
 11
1737.471871728056
 21
1438.722034968691
 31
0.0
  0
LINE
  5
4BD
330
1F
100
AcDbEntity
  8
D-STR
100
AcDbLine
 10
1737.471871728056
 20
1438.722034968691
 30
0.0
 11
1738.364800728056
 21
1438.722034968691
 31
0.0
  0
LINE
  5
4BE
330
1F
100
AcDbEntity
  8
D-STR
100
AcDbLine
 10
1738.364800728056
 20
1438.722034968691
 30
0.0
 11
1750.610922728056
 21
1438.844519968691
 31
0.0
  0
LINE
  5
4BF
330
1F
100
AcDbEntity
  8
D-STR
100
AcDbLine
 10
1750.329714728056
 20
1415.07151096869
 30
0.0
 11
1731.535319728056
 21
1415.122612968692
 31
0.0
  0
SPLINE
  5
4C0
330
1F
100
AcDbEntity
  8
D-STR
100
AcDbSpline
210
0.0
220
0.0
230
1.0
 70
    24
 71
     3
 72
     8
 73
     4
 74
     0
 42
0.0000000001
 43
0.0000000001
 40
2.0
 40
2.0
 40
2.0
 40
2.0
 40
2.021362722453635
 40
2.021362722453635
 40
2.021362722453635
 40
2.021362722453635
 10
1731.535320141773
 20
1415.42025576507
 30
0.0
 10
1731.535320141773
 20
1415.420255765072
 30
0.0
 10
1731.560641112638
 20
1415.420224132466
 30
0.0
 10
1731.610201204619
 20
1415.420162218774
 30
0.0
  0
LINE
  5
4C1
330
1F
100
AcDbEntity
  8
D-STR
100
AcDbLine
 10
1731.535319728056
 20
1415.122612968692
 30
0.0
 11
1737.255774728056
 21
1437.853569968691
 31
0.0
  0
SPLINE
  5
4C7
330
1F
100
AcDbEntity
  8
D-STR
 62
     0
100
AcDbSpline
210
0.0
220
0.0
230
1.0
 70
    11
 71
     3
 72
    26
 73
    22
 74
     0
 42
0.0000000001
 43
0.0000000001
 40
0.0
 40
0.0
 40
0.0
 40
0.0
 40
1.0
 40
1.0
 40
1.0
 40
2.0
 40
2.0
 40
2.0
 40
3.0
 40
3.0
 40
3.0
 40
4.0
 40
4.0
 40
4.0
 40
5.0
 40
5.0
 40
5.0
 40
6.0
 40
6.0
 40
6.0
 40
7.0
 40
7.0
 40
7.0
 40
7.0
 10
1816.02516759816
 20
1234.286124250256
 30
0.0
 10
1813.244447785145
 20
1242.624206387493
 30
0.0
 10
1824.065606705583
 20
1254.391299320575
 30
0.0
 10
1838.996685818859
 20
1244.630238862595
 30
0.0
 10
1853.927764932136
 20
1234.869178404567
 30
0.0
 10
1849.336723129421
 20
1233.711224699469
 30
0.0
 10
1848.757746276855
 20
1225.099963343017
 30
0.0
 10
1848.186924027851
 20
1216.480547383046
 30
0.0
 10
1847.607947175284
 20
1213.039304681895
 30
0.0
 10
1849.336723129421
 20
1209.019085128175
 30
0.0
 10
1851.05734447999
 20
1204.998865574491
 30
0.0
 10
1853.356942683122
 20
1197.529248716084
 30
0.0
 10
1849.336723129421
 20
1194.083928713157
 30
0.0
 10
1845.312426273927
 20
1190.638608710228
 30
0.0
 10
1838.421786268078
 20
1186.61838915649
 30
0.0
 10
1826.357050305162
 20
1189.488809608649
 30
0.0
 10
1814.296391644032
 20
1192.359230060787
 30
0.0
 10
1813.154747146014
 20
1204.419888721926
 30
0.0
 10
1814.875368496591
 20
1211.310528727746
 30
0.0
 10
1816.595989847165
 20
1218.20932333719
 30
0.0
 10
1816.595989847165
 20
1232.56958020146
 30
0.0
 10
1816.02516759816
 20
1234.286124250256
 30
0.0
  0
SPLINE
  5
4C8
330
1F
100
AcDbEntity
  8
D-STR
 62
     0
100
AcDbSpline
210
0.0
220
0.0
230
1.0
 70
    11
 71
     3
 72
    20
 73
    16
 74
     0
 42
0.0000000001
 43
0.0000000001
 40
0.0
 40
0.0
 40
0.0
 40
0.0
 40
1.0
 40
1.0
 40
1.0
 40
2.0
 40
2.0
 40
2.0
 40
3.0
 40
3.0
 40
3.0
 40
4.0
 40
4.0
 40
4.0
 40
5.0
 40
5.0
 40
5.0
 40
5.0
 10
1845.887325824707
 20
1185.468590054912
 30
0.0
 10
1848.586499602148
 20
1177.371068722602
 30
0.0
 10
1863.69290269191
 20
1161.343195430876
 30
0.0
 10
1860.818404937985
 20
1151.007235422124
 30
0.0
 10
1857.947984485846
 20
1140.667198111562
 30
0.0
 10
1845.312426273927
 20
1132.6308363059
 30
0.0
 10
1836.126265366722
 20
1137.225955410408
 30
0.0
 10
1826.93602715772
 20
1141.81699721309
 30
0.0
 10
1818.895588050308
 20
1157.327053178934
 30
0.0
 10
1820.616209400877
 20
1167.667090489532
 30
0.0
 10
1822.336830751452
 20
1178.003050498299
 30
0.0
 10
1823.490707154801
 20
1184.318790953384
 30
0.0
 10
1834.405644016144
 20
1187.18921140549
 30
0.0
 10
1845.312426273927
 20
1190.067786461214
 30
0.0
 10
1844.741604024922
 20
1188.913910057859
 30
0.0
 10
1845.887325824707
 20
1185.468590054912
 30
0.0
  0
SPLINE
  5
4C9
330
1F
100
AcDbEntity
  8
D-STR
 62
     0
100
AcDbSpline
210
0.0
220
0.0
230
1.0
 70
    11
 71
     3
 72
    29
 73
    25
 74
     0
 42
0.0000000001
 43
0.0000000001
 40
0.0
 40
0.0
 40
0.0
 40
0.0
 40
1.0
 40
1.0
 40
1.0
 40
2.0
 40
2.0
 40
2.0
 40
3.0
 40
3.0
 40
3.0
 40
4.0
 40
4.0
 40
4.0
 40
5.0
 40
5.0
 40
5.0
 40
6.0
 40
6.0
 40
6.0
 40
7.0
 40
7.0
 40
7.0
 40
8.0
 40
8.0
 40
8.0
 40
8.0
 10
1860.24758268898
 20
1294.022672608679
 30
0.0
 10
1847.999368146036
 20
1300.778761655855
 30
0.0
 10
1837.846886717289
 20
1301.488212165342
 30
0.0
 10
1828.656648508296
 20
1294.597572159468
 30
0.0
 10
1819.466410299306
 20
1287.702854851853
 30
0.0
 10
1822.336830751452
 20
1276.791995292292
 30
0.0
 10
1825.215405807143
 20
1268.751556184857
 30
0.0
 10
1828.085826259292
 20
1260.711117077399
 30
0.0
 10
1835.547288514154
 20
1258.411518874293
 30
0.0
 10
1839.567508067863
 20
1253.241500218992
 30
0.0
 10
1843.591804923351
 20
1248.071481563748
 30
0.0
 10
1844.741604024922
 20
1243.480439761034
 30
0.0
 10
1846.466302677274
 20
1237.739598856721
 30
0.0
 10
1848.186924027851
 20
1231.99060334889
 30
0.0
 10
1853.927764932136
 20
1217.634423786404
 30
0.0
 10
1859.676760439975
 20
1224.520986490449
 30
0.0
 10
1865.417601344262
 20
1231.419781099892
 30
0.0
 10
1867.142299996613
 20
1234.869178404567
 30
0.0
 10
1871.158442248547
 20
1237.160622004189
 30
0.0
 10
1875.178661802257
 20
1239.460220207295
 30
0.0
 10
1876.32846090382
 20
1255.53702112036
 30
0.0
 10
1875.178661802257
 20
1260.132140224867
 30
0.0
 10
1874.032940002472
 20
1264.731336631121
 30
0.0
 10
1876.90336045461
 20
1284.83651170149
 30
0.0
 10
1860.24758268898
 20
1294.022672608679
 30
0.0
  0
SPLINE
  5
4CA
330
1F
100
AcDbEntity
  8
D-STR
 62
     0
100
AcDbSpline
210
0.0
220
0.0
230
1.0
 70
    11
 71
     3
 72
    26
 73
    22
 74
     0
 42
0.0000000001
 43
0.0000000001
 40
0.0
 40
0.0
 40
0.0
 40
0.0
 40
1.0
 40
1.0
 40
1.0
 40
2.0
 40
2.0
 40
2.0
 40
3.0
 40
3.0
 40
3.0
 40
4.0
 40
4.0
 40
4.0
 40
5.0
 40
5.0
 40
5.0
 40
6.0
 40
6.0
 40
6.0
 40
7.0
 40
7.0
 40
7.0
 40
7.0
 10
1815.45026804738
 20
1186.61838915649
 30
0.0
 10
1811.731768825284
 20
1178.659496084641
 30
0.0
 10
1806.255952536604
 20
1166.513214086174
 30
0.0
 10
1806.255952536604
 20
1159.622574080299
 30
0.0
 10
1806.255952536604
 20
1152.736011376221
 30
0.0
 10
1791.899772974117
 20
1134.347380354684
 30
0.0
 10
1783.284434315915
 20
1158.476852280513
 30
0.0
 10
1774.669095657704
 20
1182.598169602772
 30
0.0
 10
1778.685237909638
 20
1180.869393648663
 30
0.0
 10
1779.839114312986
 20
1187.18921140549
 30
0.0
 10
1780.984836112773
 20
1193.509029162368
 30
0.0
 10
1780.409936561992
 20
1204.998865574491
 30
0.0
 10
1787.304653869616
 20
1212.460327829327
 30
0.0
 10
1794.195293875473
 20
1219.929944687769
 30
0.0
 10
1799.365312530754
 20
1227.970383795172
 30
0.0
 10
1805.685130287609
 20
1219.359122438755
 30
0.0
 10
1812.004948044443
 20
1210.739706478786
 30
0.0
 10
1812.004948044443
 20
1215.338902885055
 30
0.0
 10
1814.875368496591
 20
1211.310528727746
 30
0.0
 10
1817.745788948738
 20
1207.298463777634
 30
0.0
 10
1819.466410299306
 20
1195.229650512941
 30
0.0
 10
1815.45026804738
 20
1186.61838915649
 30
0.0
  0
SPLINE
  5
4CB
330
1F
100
AcDbEntity
  8
D-STR
 62
     0
100
AcDbSpline
210
0.0
220
0.0
230
1.0
 70
    11
 71
     3
 72
    29
 73
    25
 74
     0
 42
0.0000000001
 43
0.0000000001
 40
0.0
 40
0.0
 40
0.0
 40
0.0
 40
1.0
 40
1.0
 40
1.0
 40
2.0
 40
2.0
 40
2.0
 40
3.0
 40
3.0
 40
3.0
 40
4.0
 40
4.0
 40
4.0
 40
5.0
 40
5.0
 40
5.0
 40
6.0
 40
6.0
 40
6.0
 40
7.0
 40
7.0
 40
7.0
 40
8.0
 40
8.0
 40
8.0
 40
8.0
 10
1786.729754318835
 20
1285.403256648709
 30
0.0
 10
1793.828336715399
 20
1295.34371838493
 30
0.0
 10
1802.814709835461
 20
1308.953751721956
 30
0.0
 10
1813.154747146014
 20
1298.042892162396
 30
0.0
 10
1823.490707154801
 20
1287.132032602799
 30
0.0
 10
1821.187031649881
 20
1288.273677100849
 30
0.0
 10
1819.466410299306
 20
1280.808137544184
 30
0.0
 10
1817.745788948738
 20
1273.34259798757
 30
0.0
 10
1817.174966699732
 20
1270.472177535431
 30
0.0
 10
1818.895588050308
 20
1264.152359778555
 30
0.0
 10
1820.616209400877
 20
1257.83661932352
 30
0.0
 10
1821.766008502447
 20
1251.520878868417
 30
0.0
 10
1818.895588050308
 20
1245.201061111592
 30
0.0
 10
1816.02516759816
 20
1238.88124335473
 30
0.0
 10
1824.065606705583
 20
1231.99060334889
 30
0.0
 10
1813.725569395019
 20
1228.541206044169
 30
0.0
 10
1803.385532084466
 20
1225.099963343017
 30
0.0
 10
1798.790412979974
 20
1227.970383795172
 30
0.0
 10
1789.600174770973
 20
1232.56958020146
 30
0.0
 10
1780.409936561992
 20
1237.160622004189
 30
0.0
 10
1777.539516109844
 20
1238.88124335473
 30
0.0
 10
1778.685237909638
 20
1250.941902015852
 30
0.0
 10
1779.839114312986
 20
1263.002560677024
 30
0.0
 10
1783.863411168473
 20
1281.387114396767
 30
0.0
 10
1786.729754318835
 20
1285.403256648709
 30
0.0
  0
CIRCLE
  5
4CC
330
1F
100
AcDbEntity
  8
D-STR
 62
     0
100
AcDbCircle
 10
1783.708473728057
 20
1288.921967968692
 30
0.0
 40
1.219112999999999
  0
CIRCLE
  5
4CD
330
1F
100
AcDbEntity
  8
D-STR
 62
     0
100
AcDbCircle
 10
1786.008071728056
 20
1293.01150196869
 30
0.0
 40
2.030495999999999
  0
CIRCLE
  5
4CE
330
1F
100
AcDbEntity
  8
D-STR
 62
     0
100
AcDbCircle
 10
1819.319627728057
 20
1299.262004968691
 30
0.0
 40
1.219112999999999
  0
CIRCLE
  5
4CF
330
1F
100
AcDbEntity
  8
D-STR
 62
     0
100
AcDbCircle
 10
1817.452222728056
 20
1289.423475968691
 30
0.0
 40
1.219112999999999
  0
SPLINE
  5
4D0
330
1F
100
AcDbEntity
  8
D-STR
 62
     0
100
AcDbSpline
210
0.0
220
0.0
230
1.0
 70
    11
 71
     3
 72
    26
 73
    22
 74
     0
 42
0.0000000001
 43
0.0000000001
 40
0.0
 40
0.0
 40
0.0
 40
0.0
 40
1.0
 40
1.0
 40
1.0
 40
2.0
 40
2.0
 40
2.0
 40
3.0
 40
3.0
 40
3.0
 40
4.0
 40
4.0
 40
4.0
 40
5.0
 40
5.0
 40
5.0
 40
6.0
 40
6.0
 40
6.0
 40
7.0
 40
7.0
 40
7.0
 40
7.0
 10
1887.818297315954
 20
1186.61838915649
 30
0.0
 10
1887.818297315954
 20
1179.063148960707
 30
0.0
 10
1893.55913822024
 20
1155.02745497579
 30
0.0
 10
1882.648278660673
 20
1152.736011376221
 30
0.0
 10
1871.737419101114
 20
1150.436413173112
 30
0.0
 10
1870.583542697757
 20
1153.30683362525
 30
0.0
 10
1865.988423593266
 20
1161.343195430876
 30
0.0
 10
1861.393304488776
 20
1169.387711840073
 30
0.0
 10
1857.947984485846
 20
1176.278351845948
 30
0.0
 10
1857.373084935056
 20
1184.318790953384
 30
0.0
 10
1856.802262686051
 20
1192.359230060787
 30
0.0
 10
1853.356942683122
 20
1206.144587374275
 30
0.0
 10
1855.077564033698
 20
1213.039304681895
 30
0.0
 10
1856.802262686051
 20
1219.929944687769
 30
0.0
 10
1864.838624491695
 20
1227.399561546174
 30
0.0
 10
1872.883140900901
 20
1218.780145586189
 30
0.0
 10
1880.927657310097
 20
1210.16888422974
 30
0.0
 10
1880.927657310097
 20
1206.719486925069
 30
0.0
 10
1884.368900011249
 20
1200.399669168189
 30
0.0
 10
1887.818297315954
 20
1194.083928713157
 30
0.0
 10
1887.818297315954
 20
1190.638608710228
 30
0.0
 10
1887.818297315954
 20
1186.61838915649
 30
0.0
  0
SPLINE
  5
4D1
330
1F
100
AcDbEntity
  8
D-STR
 62
     0
100
AcDbSpline
210
0.0
220
0.0
230
1.0
 70
    11
 71
     3
 72
    26
 73
    22
 74
     0
 42
0.0000000001
 43
0.0000000001
 40
0.0
 40
0.0
 40
0.0
 40
0.0
 40
1.0
 40
1.0
 40
1.0
 40
2.0
 40
2.0
 40
2.0
 40
3.0
 40
3.0
 40
3.0
 40
4.0
 40
4.0
 40
4.0
 40
5.0
 40
5.0
 40
5.0
 40
6.0
 40
6.0
 40
6.0
 40
7.0
 40
7.0
 40
7.0
 40
7.0
 10
1917.680455542501
 20
1149.861513622322
 30
0.0
 10
1917.680455542501
 20
1140.512260643978
 30
0.0
 10
1912.510436887228
 20
1137.225955410408
 30
0.0
 10
1912.510436887228
 20
1132.055936755109
 30
0.0
 10
1912.510436887228
 20
1126.894072703383
 30
0.0
 10
1910.214915985862
 20
1114.825259438726
 30
0.0
 10
1898.154257324731
 20
1119.995278093989
 30
0.0
 10
1886.093598663602
 20
1125.165296749287
 30
0.0
 10
1886.668498214383
 20
1129.181439001214
 30
0.0
 10
1884.94379956203
 20
1138.367599908418
 30
0.0
 10
1883.223178211455
 20
1147.561915419177
 30
0.0
 10
1873.458040451681
 20
1152.157034523686
 30
0.0
 10
1886.093598663602
 20
1160.19747363109
 30
0.0
 10
1898.729156875513
 20
1168.237912738492
 30
0.0
 10
1892.988315971226
 20
1171.687310043216
 30
0.0
 10
1902.749376429223
 20
1172.833031843
 30
0.0
 10
1912.510436887228
 20
1173.986908246372
 30
0.0
 10
1911.939614638214
 20
1176.853251396738
 30
0.0
 10
1915.959834191924
 20
1169.387711840073
 30
0.0
 10
1919.980053745643
 20
1161.926249585236
 30
0.0
 10
1917.680455542501
 20
1153.877655874263
 30
0.0
 10
1917.680455542501
 20
1149.861513622322
 30
0.0
  0
SPLINE
  5
4D2
330
1F
100
AcDbEntity
  8
D-STR
 62
     0
100
AcDbSpline
210
0.0
220
0.0
230
1.0
 70
    11
 71
     3
 72
    20
 73
    16
 74
     0
 42
0.0000000001
 43
0.0000000001
 40
0.0
 40
0.0
 40
0.0
 40
0.0
 40
1.0
 40
1.0
 40
1.0
 40
2.0
 40
2.0
 40
2.0
 40
3.0
 40
3.0
 40
3.0
 40
4.0
 40
4.0
 40
4.0
 40
5.0
 40
5.0
 40
5.0
 40
5.0
 10
1881.498479559101
 20
1297.467992611625
 30
0.0
 10
1872.275622935889
 20
1296.656609557647
 30
0.0
 10
1873.458040451681
 20
1284.83651170149
 30
0.0
 10
1874.032940002472
 20
1279.091593495403
 30
0.0
 10
1874.607839553253
 20
1273.34259798757
 30
0.0
 10
1870.008643146976
 20
1268.18073393586
 30
0.0
 10
1871.158442248547
 20
1261.860916178981
 30
0.0
 10
1872.30824135011
 20
1255.53702112036
 30
0.0
 10
1875.178661802257
 20
1257.83661932352
 30
0.0
 10
1882.648278660673
 20
1260.132140224867
 30
0.0
 10
1890.113818217312
 20
1262.431738428013
 30
0.0
 10
1897.579357773951
 20
1266.451957981697
 30
0.0
 10
1899.878955977084
 20
1269.901355286438
 30
0.0
 10
1902.17447687845
 20
1273.34259798757
 30
0.0
 10
1901.02467777688
 20
1299.192691263978
 30
0.0
 10
1881.498479559101
 20
1297.467992611625
 30
0.0
  0
SPLINE
  5
4D3
330
1F
100
AcDbEntity
  8
D-STR
 62
     0
100
AcDbSpline
210
0.0
220
0.0
230
1.0
 70
    11
 71
     3
 72
    20
 73
    16
 74
     0
 42
0.0000000001
 43
0.0000000001
 40
0.0
 40
0.0
 40
0.0
 40
0.0
 40
1.0
 40
1.0
 40
1.0
 40
2.0
 40
2.0
 40
2.0
 40
3.0
 40
3.0
 40
3.0
 40
4.0
 40
4.0
 40
4.0
 40
5.0
 40
5.0
 40
5.0
 40
5.0
 10
1901.02467777688
 20
1260.132140224867
 30
0.0
 10
1898.566064804377
 20
1263.512223399319
 30
0.0
 10
1880.348680457539
 20
1267.601757083276
 30
0.0
 10
1877.474182703615
 20
1255.53702112036
 30
0.0
 10
1874.607839553253
 20
1243.480439761034
 30
0.0
 10
1869.437820897972
 20
1238.88124335473
 30
0.0
 10
1871.158442248547
 20
1231.99060334889
 30
0.0
 10
1872.883140900901
 20
1225.099963343017
 30
0.0
 10
1874.032940002472
 20
1211.310528727746
 30
0.0
 10
1886.668498214383
 20
1218.780145586189
 30
0.0
 10
1899.299979124527
 20
1226.24160784106
 30
0.0
 10
1902.17447687845
 20
1231.99060334889
 30
0.0
 10
1903.32835328179
 20
1238.302266502198
 30
0.0
 10
1904.469997779799
 20
1244.630238862595
 30
0.0
 10
1905.619796881371
 20
1253.812322468042
 30
0.0
 10
1901.02467777688
 20
1260.132140224867
 30
0.0
  0
SPLINE
  5
4D4
330
1F
100
AcDbEntity
  8
D-STR-STR1
100
AcDbSpline
210
0.0
220
0.0
230
1.0
 70
    24
 71
     3
 72
     8
 73
     4
 74
     0
 42
0.0000000001
 43
0.0000000001
 40
3.0
 40
3.0
 40
3.0
 40
3.0
 40
4.0
 40
4.0
 40
4.0
 40
4.0
 10
1787.019242745127
 20
1415.350941634834
 30
0.0
 10
1787.019242745127
 20
1415.350941634834
 30
0.0
 10
1883.528975844863
 20
1415.350941634834
 30
0.0
 10
1883.528975844863
 20
1415.350941634834
 30
0.0
  0
LINE
  5
4D5
330
1F
100
AcDbEntity
  8
D-STR
100
AcDbLine
 10
1773.119720728057
 20
1478.512237968691
 30
0.0
 11
1852.427317728056
 21
1414.592563968691
 31
0.0
  0
LINE
  5
4D6
330
1F
100
AcDbEntity
  8
D-STR
100
AcDbLine
 10
1774.803646728056
 20
1502.340174968692
 30
0.0
 11
1883.528975728056
 21
1415.350941968691
 31
0.0
  0
LINE
  5
4D7
330
1F
100
AcDbEntity
  8
D-STR-STR1
100
AcDbLine
 10
1768.769239728056
 20
1397.749229968691
 30
0.0
 11
1768.589838728056
 21
1431.240186968691
 31
0.0
  0
LINE
  5
4D8
330
1F
100
AcDbEntity
  8
D-STR-STR1
100
AcDbLine
 10
1768.744775728056
 20
1329.487043968691
 30
0.0
 11
1768.769239728056
 21
1397.749229968691
 31
0.0
  0
LINE
  5
4D9
330
1F
100
AcDbEntity
  8
D-STR
100
AcDbLine
 10
1773.119720728057
 20
1452.510819968692
 30
0.0
 11
1819.694167728057
 21
1415.350941968691
 31
0.0
  0
LINE
  5
4DA
330
1F
100
AcDbEntity
  8
D-STR
100
AcDbLine
 10
1773.119720728057
 20
1482.500024968691
 30
0.0
 11
1773.119720728057
 21
1439.069650968692
 31
0.0
  0
LINE
  5
4DB
330
1F
100
AcDbEntity
  8
D-STR
100
AcDbLine
 10
1781.168314728057
 20
1439.15015196869
 30
0.0
 11
1782.118325728057
 21
1439.15015196869
 31
0.0
  0
SPLINE
  5
4DC
330
1F
100
AcDbEntity
  8
D-STR
100
AcDbSpline
210
0.0
220
0.0
230
1.0
 70
    24
 71
     3
 72
     8
 73
     4
 74
     0
 42
0.0000000001
 43
0.0000000001
 40
7.0
 40
7.0
 40
7.0
 40
7.0
 40
8.0
 40
8.0
 40
8.0
 40
8.0
 10
1770.03320353543
 20
1465.530294624198
 30
0.0
 10
1770.03320353543
 20
1465.530294624198
 30
0.0
 10
1768.744776173382
 20
1465.530294624198
 30
0.0
 10
1768.744776173382
 20
1465.530294624198
 30
0.0
  0
LINE
  5
4DD
330
1F
100
AcDbEntity
  8
D-STR
100
AcDbLine
 10
1768.589838728056
 20
1439.024342968691
 30
0.0
 11
1781.168314728057
 21
1439.15015196869
 31
0.0
  0
SPLINE
  5
4DE
330
1F
100
AcDbEntity
  8
D-STR
100
AcDbSpline
210
0.0
220
0.0
230
1.0
 70
    24
 71
     3
 72
     8
 73
     4
 74
     0
 42
0.0000000001
 43
0.0000000001
 40
6.173009375343247
 40
6.173009375343247
 40
6.173009375343247
 40
6.173009375343247
 40
7.0
 40
7.0
 40
7.0
 40
7.0
 10
1770.03320353543
 20
1439.038779791234
 30
0.0
 10
1770.03320353543
 20
1445.848908447781
 30
0.0
 10
1770.03320353543
 20
1465.530294624198
 30
0.0
 10
1770.03320353543
 20
1465.530294624198
 30
0.0
  0
LINE
  5
4DF
330
1F
100
AcDbEntity
  8
D-STR
100
AcDbLine
 10
1782.118325728057
 20
1439.15015196869
 30
0.0
 11
1782.293649728056
 21
1438.22052696869
 31
0.0
  0
SPLINE
  5
4E0
330
1F
100
AcDbEntity
  8
D-STR
100
AcDbSpline
210
0.0
220
0.0
230
1.0
 70
    24
 71
     3
 72
     8
 73
     4
 74
     0
 42
0.0000000001
 43
0.0000000001
 40
3.0
 40
3.0
 40
3.0
 40
3.0
 40
4.0
 40
4.0
 40
4.0
 40
4.0
 10
1774.143123728261
 20
1483.01784195267
 30
0.0
 10
1774.143123728261
 20
1483.01784195267
 30
0.0
 10
1773.119720981837
 20
1482.500024626772
 30
0.0
 10
1773.119720981837
 20
1482.500024626772
 30
0.0
  0
LINE
  5
4E1
330
1F
100
AcDbEntity
  8
D-STR
100
AcDbLine
 10
1787.019242728056
 20
1414.97175296869
 30
0.0
 11
1768.676716728056
 21
1415.021625968692
 31
0.0
  0
LINE
  5
4E2
330
1F
100
AcDbEntity
  8
D-STR
100
AcDbLine
 10
1782.293649728056
 20
1438.22052696869
 30
0.0
 11
1787.019242728056
 21
1414.97175296869
 31
0.0
  0
LINE
  5
4E3
330
1F
100
AcDbEntity
  8
D-STR
100
AcDbLine
 10
1786.045624728056
 20
1419.761716968691
 30
0.0
 11
1791.668643728056
 21
1415.350941968691
 31
0.0
  0
SPLINE
  5
4E4
330
1F
100
AcDbEntity
  8
D-STR-STR1
100
AcDbSpline
210
0.0
220
0.0
230
1.0
 70
     8
 71
     3
 72
    11
 73
     7
 74
     0
 42
0.0000000001
 43
0.0000000001
 40
5.0
 40
5.0
 40
5.0
 40
5.0
 40
6.0
 40
6.0
 40
6.0
 40
7.0
 40
7.0
 40
7.0
 40
7.0
 10
1883.528975844863
 20
1415.350941634834
 30
0.0
 10
1888.821313553486
 20
1415.399869256188
 30
0.0
 10
1889.893643921267
 20
1413.846417278527
 30
0.0
 10
1889.893643921267
 20
1411.921930839032
 30
0.0
 10
1889.893643921267
 20
1409.997444399531
 30
0.0
 10
1888.821313553486
 20
1408.439915120058
 30
0.0
 10
1884.576842401955
 20
1408.439915120058
 30
0.0
  0
SPLINE
  5
4E5
330
1F
100
AcDbEntity
  8
D-STR
100
AcDbSpline
210
0.0
220
0.0
230
1.0
 70
     8
 71
     3
 72
     8
 73
     4
 74
     0
 42
0.0000000001
 43
0.0000000001
 40
4.0
 40
4.0
 40
4.0
 40
4.0
 40
5.0
 40
5.0
 40
5.0
 40
5.0
 10
1883.528975844863
 20
1415.350941634834
 30
0.0
 10
1883.87146919426
 20
1415.371328143715
 30
0.0
 10
1884.213962543667
 20
1415.399869256188
 30
0.0
 10
1884.576842401955
 20
1415.399869256188
 30
0.0
  0
LINE
  5
4E6
330
1F
100
AcDbEntity
  8
D-STR-STR1
100
AcDbLine
 10
1768.589838728056
 20
1566.329348968692
 30
0.0
 11
1750.610922728056
 21
1566.329348968692
 31
0.0
  0
LINE
  5
4E7
330
1F
100
AcDbEntity
  8
D-STR-STR1
100
AcDbLine
 10
1742.894682728056
 20
1566.573986968692
 30
0.0
 11
1775.961600728056
 21
1566.573986968692
 31
0.0
  0
LINE
  5
4E8
330
1F
100
AcDbEntity
  8
D-STR-STR1
100
AcDbLine
 10
1777.796385728057
 20
1577.696866968691
 30
0.0
 11
1741.068051728056
 21
1577.696866968691
 31
0.0
  0
SPLINE
  5
4E9
330
1F
100
AcDbEntity
  8
D-STR-STR1
100
AcDbSpline
210
0.0
220
0.0
230
1.0
 70
    24
 71
     3
 72
     8
 73
     4
 74
     0
 42
0.0000000001
 43
0.0000000001
 40
11.0
 40
11.0
 40
11.0
 40
11.0
 40
12.0
 40
12.0
 40
12.0
 40
12.0
 10
1780.858439757643
 20
1606.943352211771
 30
0.0
 10
1780.858439757643
 20
1606.943352211771
 30
0.0
 10
1737.504489945658
 20
1606.943352211771
 30
0.0
 10
1737.504489945658
 20
1606.943352211771
 30
0.0
  0
SPLINE
  5
4EA
330
1F
100
AcDbEntity
  8
D-STR-STR1
100
AcDbSpline
210
0.0
220
0.0
230
1.0
 70
    24
 71
     3
 72
     8
 73
     4
 74
     0
 42
0.0000000001
 43
0.0000000001
 40
1.0
 40
1.0
 40
1.0
 40
1.0
 40
2.0
 40
2.0
 40
2.0
 40
2.0
 10
1728.273478718882
 20
1611.04511780109
 30
0.0
 10
1728.273478718882
 20
1611.04511780109
 30
0.0
 10
1805.350791541755
 20
1611.04511780109
 30
0.0
 10
1805.350791541755
 20
1611.04511780109
 30
0.0
  0
SPLINE
  5
4EB
330
1F
100
AcDbEntity
  8
D-STR
100
AcDbSpline
210
0.0
220
0.0
230
1.0
 70
     8
 71
     3
 72
    11
 73
     7
 74
     0
 42
0.0000000001
 43
0.0000000001
 40
4.0
 40
4.0
 40
4.0
 40
4.0
 40
5.0
 40
5.0
 40
5.0
 40
6.0
 40
6.0
 40
6.0
 40
6.0
 10
1796.959704481368
 20
1586.593539034747
 30
0.0
 10
1796.959704481368
 20
1586.593539034747
 30
0.0
 10
1717.525711230469
 20
1586.593539034747
 30
0.0
 10
1713.664506446119
 20
1586.593539034747
 30
0.0
 10
1709.803301661777
 20
1586.593539034747
 30
0.0
 10
1706.704552310031
 20
1584.620124973896
 30
0.0
 10
1705.489516380008
 20
1583.233842369164
 30
0.0
  0
LINE
  5
4EC
330
1F
100
AcDbEntity
  8
D-STR
100
AcDbLine
 10
1704.229629728055
 20
1564.714737968691
 30
0.0
 11
1688.593177728057
 21
1564.714737968691
 31
0.0
  0
LINE
  5
4ED
330
1F
100
AcDbEntity
  8
D-STR
100
AcDbLine
 10
1653.976885728056
 20
1509.68747296869
 30
0.0
 11
1639.412763728056
 21
1509.353133968691
 31
0.0
  0
LINE
  5
4EE
330
1F
100
AcDbEntity
  8
D-STR
100
AcDbLine
 10
1680.299945728057
 20
1553.934351968691
 30
0.0
 11
1680.299945728057
 21
1537.535443968691
 31
0.0
  0
LINE
  5
4EF
330
1F
100
AcDbEntity
  8
D-STR
100
AcDbLine
 10
1680.299945728057
 20
1537.535443968691
 30
0.0
 11
1664.659416728056
 21
1537.535443968691
 31
0.0
  0
LINE
  5
4F0
330
1F
100
AcDbEntity
  8
D-STR
100
AcDbLine
 10
1654.103281728056
 20
1524.99366396869
 30
0.0
 11
1653.976885728056
 21
1509.68747296869
 31
0.0
  0
SPLINE
  5
4F1
330
1F
100
AcDbEntity
  8
D-STR-STR1
100
AcDbSpline
210
0.0
220
0.0
230
1.0
 70
     8
 71
     3
 72
     8
 73
     4
 74
     0
 42
0.0000000001
 43
0.0000000001
 40
0.0
 40
0.0
 40
0.0
 40
0.0
 40
1.0
 40
1.0
 40
1.0
 40
1.0
 10
1725.354130645397
 20
1606.943352211771
 30
0.0
 10
1725.354130645397
 20
1608.84745214238
 30
0.0
 10
1726.577321178984
 20
1610.45390904316
 30
0.0
 10
1728.273478718882
 20
1611.04511780109
 30
0.0
  0
SPLINE
  5
4F2
330
1F
100
AcDbEntity
  8
D-STR-STR1
100
AcDbSpline
210
0.0
220
0.0
230
1.0
 70
    24
 71
     3
 72
     8
 73
     4
 74
     0
 42
0.0000000001
 43
0.0000000001
 40
27.87163973887916
 40
27.87163973887916
 40
27.87163973887916
 40
27.87163973887916
 40
28.45123025430126
 40
28.45123025430126
 40
28.45123025430126
 40
28.45123025430126
 10
1727.352008516918
 20
1553.754950509769
 30
0.0
 10
1727.352008516918
 20
1553.754950509769
 30
0.0
 10
1732.057214769432
 20
1553.754950509769
 30
0.0
 10
1732.057214769432
 20
1553.754950509769
 30
0.0
  0
SPLINE
  5
4F3
330
1F
100
AcDbEntity
  8
D-STR-STR1
100
AcDbSpline
210
0.0
220
0.0
230
1.0
 70
    24
 71
     3
 72
     8
 73
     4
 74
     0
 42
0.0000000001
 43
0.0000000001
 40
26.71245870803494
 40
26.71245870803494
 40
26.71245870803494
 40
26.71245870803494
 40
27.29204922345706
 40
27.29204922345706
 40
27.29204922345706
 40
27.29204922345706
 10
1729.627142909383
 20
1557.383749092757
 30
0.0
 10
1729.627142909383
 20
1557.383749092757
 30
0.0
 10
1727.352008516918
 20
1557.383749092757
 30
0.0
 10
1727.352008516918
 20
1557.383749092757
 30
0.0
  0
LINE
  5
4F4
330
1F
100
AcDbEntity
  8
D-STR-STR1
100
AcDbLine
 10
1733.875691728056
 20
1606.943351968691
 30
0.0
 11
1725.354130728057
 21
1606.943351968691
 31
0.0
  0
LINE
  5
4F5
330
1F
100
AcDbEntity
  8
D-STR
100
AcDbLine
 10
1694.790850728056
 20
1564.714737968691
 30
0.0
 11
1745.430764728056
 21
1524.284212968691
 31
0.0
  0
LINE
  5
4F6
330
1F
100
AcDbEntity
  8
D-STR
100
AcDbLine
 10
1704.229629728055
 20
1581.113644968692
 30
0.0
 11
1730.242815728056
 21
1559.794153968691
 31
0.0
  0
SPLINE
  5
4F7
330
1F
100
AcDbEntity
  8
D-STR-STR1
100
AcDbSpline
210
0.0
220
0.0
230
1.0
 70
    24
 71
     3
 72
     8
 73
     4
 74
     0
 42
0.0000000001
 43
0.0000000001
 40
27.29204922345706
 40
27.29204922345706
 40
27.29204922345706
 40
27.29204922345706
 40
27.87163973887916
 40
27.87163973887916
 40
27.87163973887916
 40
27.87163973887916
 10
1727.352008516918
 20
1557.383749092757
 30
0.0
 10
1727.352008516918
 20
1557.383749092757
 30
0.0
 10
1727.352008516918
 20
1553.754950509769
 30
0.0
 10
1727.352008516918
 20
1553.754950509769
 30
0.0
  0
LINE
  5
4F8
330
1F
100
AcDbEntity
  8
D-STR-STR1
100
AcDbLine
 10
1725.354130728057
 20
1606.943351968691
 30
0.0
 11
1725.354130728057
 21
1586.59353896869
 31
0.0
  0
LINE
  5
4F9
330
1F
100
AcDbEntity
  8
D-STR
100
AcDbLine
 10
1704.229629728055
 20
1581.113644968692
 30
0.0
 11
1704.229629728055
 21
1564.714737968691
 31
0.0
  0
SPLINE
  5
4FA
330
1F
100
AcDbEntity
  8
D-STR-STR1
100
AcDbSpline
210
0.0
220
0.0
230
1.0
 70
    24
 71
     3
 72
     8
 73
     4
 74
     0
 42
0.0000000001
 43
0.0000000001
 40
29.61041128514548
 40
29.61041128514548
 40
29.61041128514548
 40
29.61041128514548
 40
29.90875263163247
 40
29.90875263163247
 40
29.90875263163247
 40
29.90875263163247
 10
1733.875691362699
 20
1555.695746156426
 30
0.0
 10
1733.875691362699
 20
1555.695746156426
 30
0.0
 10
1733.875691362699
 20
1558.165384922974
 30
0.0
 10
1733.875691362699
 20
1560.56219381539
 30
0.0
  0
SPLINE
  5
4FB
330
1F
100
AcDbEntity
  8
D-STR-STR1
100
AcDbSpline
210
0.0
220
0.0
230
1.0
 70
    24
 71
     3
 72
     8
 73
     4
 74
     0
 42
0.0000000001
 43
0.0000000001
 40
29.03082076972337
 40
29.03082076972337
 40
29.03082076972337
 40
29.03082076972337
 40
29.61041128514548
 40
29.61041128514548
 40
29.61041128514548
 40
29.61041128514548
 10
1733.875691362699
 20
1555.581581706629
 30
0.0
 10
1733.875691362699
 20
1555.581581706629
 30
0.0
 10
1733.875691362699
 20
1555.695746156426
 30
0.0
 10
1733.875691362699
 20
1555.695746156426
 30
0.0
  0
SPLINE
  5
4FC
330
1F
100
AcDbEntity
  8
D-STR-STR1
100
AcDbSpline
210
0.0
220
0.0
230
1.0
 70
    24
 71
     3
 72
     8
 73
     4
 74
     0
 42
0.0000000001
 43
0.0000000001
 40
28.45123025430126
 40
28.45123025430126
 40
28.45123025430126
 40
28.45123025430126
 40
29.03082076972337
 40
29.03082076972337
 40
29.03082076972337
 40
29.03082076972337
 10
1732.057214769432
 20
1553.754950509769
 30
0.0
 10
1732.057214769432
 20
1553.754950509769
 30
0.0
 10
1733.875691362699
 20
1555.581581706629
 30
0.0
 10
1733.875691362699
 20
1555.581581706629
 30
0.0
  0
SPLINE
  5
4FD
330
1F
100
AcDbEntity
  8
D-STR-STR1
100
AcDbSpline
210
0.0
220
0.0
230
1.0
 70
    24
 71
     3
 72
    11
 73
     7
 74
     0
 42
0.0000000001
 43
0.0000000001
 40
26.13286819261285
 40
26.13286819261285
 40
26.13286819261285
 40
26.13286819261285
 40
26.26767484523873
 40
26.26767484523873
 40
26.26767484523873
 40
26.71245870803494
 40
26.71245870803494
 40
26.71245870803494
 40
26.71245870803494
 10
1730.242815477948
 20
1558.003498963106
 30
0.0
 10
1730.242815477948
 20
1558.003498963106
 30
0.0
 10
1730.209508907668
 20
1557.969971819512
 30
0.0
 10
1730.158389282376
 20
1557.918513653655
 30
0.0
 10
1729.989724131515
 20
1557.748731515038
 30
0.0
 10
1729.627142909383
 20
1557.383749092757
 30
0.0
 10
1729.627142909383
 20
1557.383749092757
 30
0.0
  0
SPLINE
  5
4FE
330
1F
100
AcDbEntity
  8
D-STR-STR1
100
AcDbSpline
210
0.0
220
0.0
230
1.0
 70
    24
 71
     3
 72
     8
 73
     4
 74
     0
 42
0.0000000001
 43
0.0000000001
 40
25.55327767719074
 40
25.55327767719074
 40
25.55327767719074
 40
25.55327767719074
 40
26.13286819261285
 40
26.13286819261285
 40
26.13286819261285
 40
26.13286819261285
 10
1730.242815477948
 20
1586.878950159233
 30
0.0
 10
1730.242815477948
 20
1586.878950159233
 30
0.0
 10
1730.242815477948
 20
1558.003498963106
 30
0.0
 10
1730.242815477948
 20
1558.003498963106
 30
0.0
  0
SPLINE
  5
4FF
330
1F
100
AcDbEntity
  8
D-STR-STR1
100
AcDbSpline
210
0.0
220
0.0
230
1.0
 70
    24
 71
     3
 72
     8
 73
     4
 74
     0
 42
0.0000000001
 43
0.0000000001
 40
24.97368716176864
 40
24.97368716176864
 40
24.97368716176864
 40
24.97368716176864
 40
25.55327767719074
 40
25.55327767719074
 40
25.55327767719074
 40
25.55327767719074
 10
1733.875691362699
 20
1586.878950159233
 30
0.0
 10
1733.875691362699
 20
1586.878950159233
 30
0.0
 10
1730.242815477948
 20
1586.878950159233
 30
0.0
 10
1730.242815477948
 20
1586.878950159233
 30
0.0
  0
SPLINE
  5
500
330
1F
100
AcDbEntity
  8
D-STR-STR1
100
AcDbSpline
210
0.0
220
0.0
230
1.0
 70
     8
 71
     3
 72
    14
 73
    10
 74
     0
 42
0.0000000001
 43
0.0000000001
 40
23.23491561550232
 40
23.23491561550232
 40
23.23491561550232
 40
23.23491561550232
 40
23.81450613092443
 40
23.81450613092443
 40
23.81450613092443
 40
24.39409664634653
 40
24.39409664634653
 40
24.39409664634653
 40
24.97368716176864
 40
24.97368716176864
 40
24.97368716176864
 40
24.97368716176864
 10
1733.875691362699
 20
1569.758359990856
 30
0.0
 10
1733.875691362699
 20
1569.803210310413
 30
0.0
 10
1733.859382155585
 20
1569.856215233513
 30
0.0
 10
1733.859382155585
 20
1569.909220156664
 30
0.0
 10
1733.859382155585
 20
1569.962225079795
 30
0.0
 10
1733.875691362699
 20
1569.998920795785
 30
0.0
 10
1733.875691362699
 20
1570.056003020657
 30
0.0
 10
1733.875691362699
 20
1570.056003020657
 30
0.0
 10
1733.875691362699
 20
1586.878950159233
 30
0.0
 10
1733.875691362699
 20
1586.878950159233
 30
0.0
  0
SPLINE
  5
501
330
1F
100
AcDbEntity
  8
D-STR-STR1
100
AcDbSpline
210
0.0
220
0.0
230
1.0
 70
     8
 71
     3
 72
    11
 73
     7
 74
     0
 42
0.0000000001
 43
0.0000000001
 40
22.62659705884501
 40
22.62659705884501
 40
22.62659705884501
 40
22.62659705884501
 40
22.65532510008021
 40
22.65532510008021
 40
22.65532510008021
 40
23.23491561550232
 40
23.23491561550232
 40
23.23491561550232
 40
23.23491561550232
 10
1735.813733785639
 20
1568.104480290548
 30
0.0
 10
1735.766239395393
 20
1568.100781383232
 30
0.0
 10
1735.718207172372
 20
1568.098898166962
 30
0.0
 10
1735.669704145281
 20
1568.098898166962
 30
0.0
 10
1734.723770132649
 20
1568.098898166962
 30
0.0
 10
1733.949082794706
 20
1568.824657883526
 30
0.0
 10
1733.875691362699
 20
1569.758359990856
 30
0.0
  0
SPLINE
  5
502
330
1F
100
AcDbEntity
  8
D-STR-STR1
100
AcDbSpline
210
0.0
220
0.0
230
1.0
 70
     8
 71
     3
 72
     8
 73
     4
 74
     0
 42
0.0000000001
 43
0.0000000001
 40
22.07573458465812
 40
22.07573458465812
 40
22.07573458465812
 40
22.07573458465812
 40
22.62659705884501
 40
22.62659705884501
 40
22.62659705884501
 40
22.62659705884501
 10
1737.480026134997
 20
1569.8439833282
 30
0.0
 10
1737.437398870828
 20
1568.9139339284
 30
0.0
 10
1736.724442493768
 20
1568.17540713234
 30
0.0
 10
1735.813733785639
 20
1568.104480290548
 30
0.0
  0
SPLINE
  5
503
330
1F
100
AcDbEntity
  8
D-STR-STR1
100
AcDbSpline
210
0.0
220
0.0
230
1.0
 70
     8
 71
     3
 72
    11
 73
     7
 74
     0
 42
0.0000000001
 43
0.0000000001
 40
20.9165535538139
 40
20.9165535538139
 40
20.9165535538139
 40
20.9165535538139
 40
21.49614406923601
 40
21.49614406923601
 40
21.49614406923601
 40
22.07573458465812
 40
22.07573458465812
 40
22.07573458465812
 40
22.07573458465812
 10
1737.480026134997
 20
1569.982611588679
 30
0.0
 10
1737.480026134997
 20
1569.958147778014
 30
0.0
 10
1737.48818073855
 20
1569.929606665547
 30
0.0
 10
1737.48818073855
 20
1569.909220156664
 30
0.0
 10
1737.48818073855
 20
1569.884756345983
 30
0.0
 10
1737.480026134997
 20
1569.860292535307
 30
0.0
 10
1737.480026134997
 20
1569.8439833282
 30
0.0
  0
SPLINE
  5
504
330
1F
100
AcDbEntity
  8
D-STR-STR1
100
AcDbSpline
210
0.0
220
0.0
230
1.0
 70
    24
 71
     3
 72
     8
 73
     4
 74
     0
 42
0.0000000001
 43
0.0000000001
 40
20.33696303839179
 40
20.33696303839179
 40
20.33696303839179
 40
20.33696303839179
 40
20.9165535538139
 40
20.9165535538139
 40
20.9165535538139
 40
20.9165535538139
 10
1737.480026134997
 20
1579.613198389767
 30
0.0
 10
1737.480026134997
 20
1579.613198389767
 30
0.0
 10
1737.480026134997
 20
1569.982611588679
 30
0.0
 10
1737.480026134997
 20
1569.982611588679
 30
0.0
  0
SPLINE
  5
505
330
1F
100
AcDbEntity
  8
D-STR-STR1
100
AcDbSpline
210
0.0
220
0.0
230
1.0
 70
    24
 71
     3
 72
     8
 73
     4
 74
     0
 42
0.0000000001
 43
0.0000000001
 40
19.75737252296969
 40
19.75737252296969
 40
19.75737252296969
 40
19.75737252296969
 40
20.33696303839179
 40
20.33696303839179
 40
20.33696303839179
 40
20.33696303839179
 10
1740.440147226257
 20
1584.24909051204
 30
0.0
 10
1740.440147226257
 20
1584.24909051204
 30
0.0
 10
1737.480026134997
 20
1579.613198389767
 30
0.0
 10
1737.480026134997
 20
1579.613198389767
 30
0.0
  0
SPLINE
  5
506
330
1F
100
AcDbEntity
  8
D-STR-STR1
100
AcDbSpline
210
0.0
220
0.0
230
1.0
 70
    24
 71
     3
 72
     8
 73
     4
 74
     0
 42
0.0000000001
 43
0.0000000001
 40
19.4590311764827
 40
19.4590311764827
 40
19.4590311764827
 40
19.4590311764827
 40
19.75737252296969
 40
19.75737252296969
 40
19.75737252296969
 40
19.75737252296969
 10
1740.526789402277
 20
1584.137061246813
 30
0.0
 10
1740.470696720727
 20
1584.209589687204
 30
0.0
 10
1740.440147226257
 20
1584.24909051204
 30
0.0
 10
1740.440147226257
 20
1584.24909051204
 30
0.0
  0
SPLINE
  5
507
330
1F
100
AcDbEntity
  8
D-STR-STR1
100
AcDbSpline
210
0.0
220
0.0
230
1.0
 70
    24
 71
     3
 72
    11
 73
     7
 74
     0
 42
0.0000000001
 43
0.0000000001
 40
18.29985014563848
 40
18.29985014563848
 40
18.29985014563848
 40
18.29985014563848
 40
18.8794406610606
 40
18.8794406610606
 40
18.8794406610606
 40
19.4590311764827
 40
19.4590311764827
 40
19.4590311764827
 40
19.4590311764827
 10
1742.043805891101
 20
1582.175542614745
 30
0.0
 10
1741.696047279253
 20
1582.625198239208
 30
0.0
 10
1741.371279044761
 20
1583.045127058539
 30
0.0
 10
1741.106207519373
 20
1583.387867391099
 30
0.0
 10
1740.841135993988
 20
1583.730607723656
 30
0.0
 10
1740.635761177705
 20
1583.996159569441
 30
0.0
 10
1740.526789402277
 20
1584.137061246813
 30
0.0
  0
SPLINE
  5
508
330
1F
100
AcDbEntity
  8
D-STR-STR1
100
AcDbSpline
210
0.0
220
0.0
230
1.0
 70
    24
 71
     3
 72
     8
 73
     4
 74
     0
 42
0.0000000001
 43
0.0000000001
 40
17.72025963021639
 40
17.72025963021639
 40
17.72025963021639
 40
17.72025963021639
 40
18.29985014563848
 40
18.29985014563848
 40
18.29985014563848
 40
18.29985014563848
 10
1743.119346526967
 20
1580.784857007615
 30
0.0
 10
1742.762313492154
 20
1581.246504560694
 30
0.0
 10
1742.39156450295
 20
1581.725886990286
 30
0.0
 10
1742.043805891101
 20
1582.175542614745
 30
0.0
  0
SPLINE
  5
509
330
1F
100
AcDbEntity
  8
D-STR-STR1
100
AcDbSpline
210
0.0
220
0.0
230
1.0
 70
    24
 71
     3
 72
     8
 73
     4
 74
     0
 42
0.0000000001
 43
0.0000000001
 40
17.14066911479427
 40
17.14066911479427
 40
17.14066911479427
 40
17.14066911479427
 40
17.72025963021639
 40
17.72025963021639
 40
17.72025963021639
 40
17.72025963021639
 10
1744.112591436476
 20
1579.50058065956
 30
0.0
 10
1743.819696642198
 20
1579.879296777969
 30
0.0
 10
1743.476379561778
 20
1580.323209454535
 30
0.0
 10
1743.119346526967
 20
1580.784857007615
 30
0.0
  0
SPLINE
  5
50A
330
1F
100
AcDbEntity
  8
D-STR-STR1
100
AcDbSpline
210
0.0
220
0.0
230
1.0
 70
    24
 71
     3
 72
     8
 73
     4
 74
     0
 42
0.0000000001
 43
0.0000000001
 40
16.56107859937218
 40
16.56107859937218
 40
16.56107859937218
 40
16.56107859937218
 40
17.14066911479427
 40
17.14066911479427
 40
17.14066911479427
 40
17.14066911479427
 10
1744.803302629137
 20
1578.607483660444
 30
0.0
 10
1744.64795873889
 20
1578.808344980897
 30
0.0
 10
1744.405486230753
 20
1579.121864541151
 30
0.0
 10
1744.112591436476
 20
1579.50058065956
 30
0.0
  0
SPLINE
  5
50B
330
1F
100
AcDbEntity
  8
D-STR-STR1
100
AcDbSpline
210
0.0
220
0.0
230
1.0
 70
    24
 71
     3
 72
     8
 73
     4
 74
     0
 42
0.0000000001
 43
0.0000000001
 40
16.11629473657597
 40
16.11629473657597
 40
16.11629473657597
 40
16.11629473657597
 40
16.56107859937218
 40
16.56107859937218
 40
16.56107859937218
 40
16.56107859937218
 10
1744.990416011189
 20
1578.365544045477
 30
0.0
 10
1744.990416011189
 20
1578.365544045477
 30
0.0
 10
1744.922515165794
 20
1578.453340568688
 30
0.0
 10
1744.803302629137
 20
1578.607483660444
 30
0.0
  0
SPLINE
  5
50C
330
1F
100
AcDbEntity
  8
D-STR-STR1
100
AcDbSpline
210
0.0
220
0.0
230
1.0
 70
    24
 71
     3
 72
    29
 73
    25
 74
     0
 42
0.0000000001
 43
0.0000000001
 40
12.47521695018224
 40
12.47521695018224
 40
12.47521695018224
 40
12.47521695018224
 40
12.50394499141744
 40
12.50394499141744
 40
12.50394499141744
 40
13.08353550683955
 40
13.08353550683955
 40
13.08353550683955
 40
13.66312602226166
 40
13.66312602226166
 40
13.66312602226166
 40
14.24271653768375
 40
14.24271653768375
 40
14.24271653768375
 40
14.82230705310587
 40
14.82230705310587
 40
14.82230705310587
 40
15.40189756852797
 40
15.40189756852797
 40
15.40189756852797
 40
15.98148808395007
 40
15.98148808395007
 40
15.98148808395007
 40
16.11629473657597
 40
16.11629473657597
 40
16.11629473657597
 40
16.11629473657597
 10
1740.656244220525
 20
1578.365544045477
 30
0.0
 10
1740.656244220525
 20
1578.365544045477
 30
0.0
 10
1740.656514030649
 20
1578.365544045477
 30
0.0
 10
1740.657049393296
 20
1578.365544045477
 30
0.0
 10
1740.667850377295
 20
1578.365544045477
 30
0.0
 10
1740.786740224157
 20
1578.365544045477
 30
0.0
 10
1740.978755823981
 20
1578.365544045477
 30
0.0
 10
1741.170771423804
 20
1578.365544045477
 30
0.0
 10
1741.435912776589
 20
1578.365544045477
 30
0.0
 10
1741.739216772438
 20
1578.365544045477
 30
0.0
 10
1742.042520768285
 20
1578.365544045477
 30
0.0
 10
1742.383987407195
 20
1578.365544045477
 30
0.0
 10
1742.728653579264
 20
1578.365544045477
 30
0.0
 10
1743.073319751333
 20
1578.365544045477
 30
0.0
 10
1743.421185456565
 20
1578.365544045477
 30
0.0
 10
1743.737287585057
 20
1578.365544045477
 30
0.0
 10
1744.05338971355
 20
1578.365544045477
 30
0.0
 10
1744.337728265304
 20
1578.365544045477
 30
0.0
 10
1744.555340130418
 20
1578.365544045477
 30
0.0
 10
1744.772951995531
 20
1578.365544045477
 30
0.0
 10
1744.923837174006
 20
1578.365544045477
 30
0.0
 10
1744.97303255594
 20
1578.365544045477
 30
0.0
 10
1744.984474883907
 20
1578.365544045477
 30
0.0
 10
1744.990416011189
 20
1578.365544045477
 30
0.0
 10
1744.990416011189
 20
1578.365544045477
 30
0.0
  0
SPLINE
  5
50D
330
1F
100
AcDbEntity
  8
D-STR-STR1
100
AcDbSpline
210
0.0
220
0.0
230
1.0
 70
    24
 71
     3
 72
    20
 73
    16
 74
     0
 42
0.0000000001
 43
0.0000000001
 40
9.60599241430693
 40
9.60599241430693
 40
9.60599241430693
 40
9.60599241430693
 40
10.18558292972902
 40
10.18558292972902
 40
10.18558292972902
 40
10.76517344515113
 40
10.76517344515113
 40
10.76517344515113
 40
11.34476396057323
 40
11.34476396057323
 40
11.34476396057323
 40
11.92435447599534
 40
11.92435447599534
 40
11.92435447599534
 40
12.47521695018224
 40
12.47521695018224
 40
12.47521695018224
 40
12.47521695018224
 10
1740.656244220525
 20
1566.561755396426
 30
0.0
 10
1740.656244220525
 20
1567.271679953969
 30
0.0
 10
1740.656244220525
 20
1568.17644513837
 30
0.0
 10
1740.656244220525
 20
1569.168365886774
 30
0.0
 10
1740.656244220525
 20
1570.160286635181
 30
0.0
 10
1740.656244220525
 20
1571.239362947591
 30
0.0
 10
1740.656244220525
 20
1572.29790976115
 30
0.0
 10
1740.656244220525
 20
1573.35645657471
 30
0.0
 10
1740.656244220525
 20
1574.394473889419
 30
0.0
 10
1740.656244220525
 20
1575.304276642427
 30
0.0
 10
1740.656244220525
 20
1576.214079395434
 30
0.0
 10
1740.656244220525
 20
1576.995667586735
 30
0.0
 10
1740.656244220525
 20
1577.541356153479
 30
0.0
 10
1740.656244220525
 20
1578.059997066352
 30
0.0
 10
1740.656244220525
 20
1578.365544045477
 30
0.0
 10
1740.656244220525
 20
1578.365544045477
 30
0.0
  0
LINE
  5
50E
330
1F
100
AcDbEntity
  8
D-STR-STR1
100
AcDbLine
 10
1767.166860728056
 20
1577.696866968691
 30
0.0
 11
1767.166860728056
 21
1587.84119296869
 31
0.0
  0
LINE
  5
50F
330
1F
100
AcDbEntity
  8
D-STR-STR1
100
AcDbLine
 10
1751.697577728056
 20
1587.84119296869
 30
0.0
 11
1751.697577728056
 21
1577.696866968691
 31
0.0
  0
LINE
  5
510
330
1F
100
AcDbEntity
  8
D-STR-STR1
100
AcDbLine
 10
1741.068051728056
 20
1577.696866968691
 30
0.0
 11
1742.894682728056
 21
1566.573986968692
 31
0.0
  0
LINE
  5
511
330
1F
100
AcDbEntity
  8
D-STR-STR1
100
AcDbLine
 10
1733.896077728056
 20
1569.90922196869
 30
0.0
 11
1737.500412728056
 21
1573.752225968691
 31
0.0
  0
SPLINE
  5
512
330
1F
100
AcDbEntity
  8
D-STR-STR1
100
AcDbSpline
210
0.0
220
0.0
230
1.0
 70
    24
 71
     3
 72
     8
 73
     4
 74
     0
 42
0.0000000001
 43
0.0000000001
 40
12.0
 40
12.0
 40
12.0
 40
12.0
 40
13.0
 40
13.0
 40
13.0
 40
13.0
 10
1737.504489945658
 20
1606.943352211771
 30
0.0
 10
1737.504489945658
 20
1606.943352211771
 30
0.0
 10
1737.504489945658
 20
1574.789750385643
 30
0.0
 10
1737.504489945658
 20
1574.789750385643
 30
0.0
  0
SPLINE
  5
513
330
1F
100
AcDbEntity
  8
D-STR-STR1
100
AcDbSpline
210
0.0
220
0.0
230
1.0
 70
    24
 71
     3
 72
     8
 73
     4
 74
     0
 42
0.0000000001
 43
0.0000000001
 40
14.0
 40
14.0
 40
14.0
 40
14.0
 40
15.0
 40
15.0
 40
15.0
 40
15.0
 10
1733.875691362699
 20
1570.920390997766
 30
0.0
 10
1733.875691362699
 20
1570.920390997766
 30
0.0
 10
1733.875691362699
 20
1606.943352211771
 30
0.0
 10
1733.875691362699
 20
1606.943352211771
 30
0.0
  0
LINE
  5
514
330
1F
100
AcDbEntity
  8
D-STR-STR1
100
AcDbLine
 10
1759.750248728057
 20
1605.536682968691
 30
0.0
 11
1759.750248728057
 21
1589.080692968692
 31
0.0
  0
LINE
  5
515
330
1F
100
AcDbEntity
  8
D-STR
100
AcDbLine
 10
1733.875691728056
 20
1556.81677696869
 30
0.0
 11
1745.031188728056
 21
1547.674123968691
 31
0.0
  0
SPLINE
  5
516
330
1F
100
AcDbEntity
  8
D-STR
100
AcDbSpline
210
0.0
220
0.0
230
1.0
 70
    24
 71
     3
 72
     8
 73
     4
 74
     0
 42
0.0000000001
 43
0.0000000001
 40
5.510595196241362
 40
5.510595196241362
 40
5.510595196241362
 40
5.510595196241362
 40
6.366988561879366
 40
6.366988561879366
 40
6.366988561879366
 40
6.366988561879366
 10
1750.437691187423
 20
1517.719757390405
 30
0.0
 10
1750.437691187423
 20
1517.719757390405
 30
0.0
 10
1749.149263825374
 20
1517.719757390405
 30
0.0
 10
1749.149263825374
 20
1517.719757390405
 30
0.0
  0
SPLINE
  5
517
330
1F
100
AcDbEntity
  8
D-STR
100
AcDbSpline
210
0.0
220
0.0
230
1.0
 70
    24
 71
     3
 72
    11
 73
     7
 74
     0
 42
0.0000000001
 43
0.0000000001
 40
6.366988561879366
 40
6.366988561879366
 40
6.366988561879366
 40
6.366988561879366
 40
6.686607623689232
 40
6.686607623689232
 40
6.686607623689232
 40
7.223381927517372
 40
7.223381927517372
 40
7.223381927517372
 40
7.223381927517372
 10
1749.149263825374
 20
1517.719757390405
 30
0.0
 10
1749.149263825374
 20
1517.719757390405
 30
0.0
 10
1749.149263825374
 20
1524.52294077548
 30
0.0
 10
1749.149263825374
 20
1533.051204005586
 30
0.0
 10
1749.149263825374
 20
1547.373730741884
 30
0.0
 10
1749.149263825374
 20
1566.561755396428
 30
0.0
 10
1749.149263825374
 20
1566.561755396428
 30
0.0
  0
SPLINE
  5
518
330
1F
100
AcDbEntity
  8
D-STR
100
AcDbSpline
210
0.0
220
0.0
230
1.0
 70
    24
 71
     3
 72
    11
 73
     7
 74
     0
 42
0.0000000001
 43
0.0000000001
 40
7.223381927517372
 40
7.223381927517372
 40
7.223381927517372
 40
7.223381927517372
 40
7.888079716337356
 40
7.888079716337356
 40
7.888079716337356
 40
8.079775293155378
 40
8.079775293155378
 40
8.079775293155378
 40
8.079775293155378
 10
1749.149263825374
 20
1566.561755396428
 30
0.0
 10
1749.149263825374
 20
1566.561755396428
 30
0.0
 10
1739.864592463538
 20
1566.561755396428
 30
0.0
 10
1735.708020253413
 20
1566.561755396428
 30
0.0
 10
1734.509285248111
 20
1566.561755396428
 30
0.0
 10
1733.737063102223
 20
1566.561755396428
 30
0.0
 10
1733.737063102223
 20
1566.561755396428
 30
0.0
  0
SPLINE
  5
519
330
1F
100
AcDbEntity
  8
D-STR
100
AcDbSpline
210
0.0
220
0.0
230
1.0
 70
    24
 71
     3
 72
     8
 73
     4
 74
     0
 42
0.0000000001
 43
0.0000000001
 40
8.079775293155378
 40
8.079775293155378
 40
8.079775293155378
 40
8.079775293155378
 40
8.936168658793382
 40
8.936168658793382
 40
8.936168658793382
 40
8.936168658793382
 10
1733.737063102223
 20
1566.561755396428
 30
0.0
 10
1733.737063102223
 20
1566.561755396428
 30
0.0
 10
1733.215168474557
 20
1560.902460527716
 30
0.0
 10
1733.215168474557
 20
1560.902460527716
 30
0.0
  0
SPLINE
  5
51A
330
1F
100
AcDbEntity
  8
D-STR
100
AcDbSpline
210
0.0
220
0.0
230
1.0
 70
     8
 71
     3
 72
    11
 73
     7
 74
     0
 42
0.0000000001
 43
0.0000000001
 40
8.936168658793382
 40
8.936168658793382
 40
8.936168658793382
 40
8.936168658793382
 40
9.651785778013875
 40
9.651785778013875
 40
9.651785778013875
 40
10.1376407514415
 40
10.1376407514415
 40
10.1376407514415
 40
10.1376407514415
 10
1733.215168474557
 20
1560.902460527716
 30
0.0
 10
1733.215168474557
 20
1560.902460527716
 30
0.0
 10
1736.226701632592
 20
1559.350407175846
 30
0.0
 10
1738.988850221916
 20
1557.933190012144
 30
0.0
 10
1740.864159788196
 20
1556.970996698263
 30
0.0
 10
1742.624516055416
 20
1556.070955845313
 30
0.0
 10
1743.24940815172
 20
1555.76098298489
 30
0.0
  0
LINE
  5
51B
330
1F
100
AcDbEntity
  8
D-STR-STR1
100
AcDbLine
 10
1751.697577728056
 20
1577.696866968691
 30
0.0
 11
1767.166860728056
 21
1577.696866968691
 31
0.0
  0
LINE
  5
51C
330
1F
100
AcDbEntity
  8
D-STR-STR1
100
AcDbLine
 10
1767.166860728056
 20
1587.84119296869
 30
0.0
 11
1751.697577728056
 21
1587.84119296869
 31
0.0
  0
LINE
  5
51D
330
1F
100
AcDbEntity
  8
D-STR
100
AcDbLine
 10
1805.046701728056
 20
1606.943351968691
 30
0.0
 11
1868.781375728056
 21
1555.365484968692
 31
0.0
  0
LINE
  5
51E
330
1F
100
AcDbEntity
  8
D-STR
100
AcDbLine
 10
1797.493830728056
 20
1588.155145968691
 30
0.0
 11
1871.761882728056
 21
1527.546054968691
 31
0.0
  0
LINE
  5
51F
330
1F
100
AcDbEntity
  8
D-STR
100
AcDbLine
 10
1831.529313728056
 20
1610.745447968692
 30
0.0
 11
1863.698167728056
 21
1584.992222968691
 31
0.0
  0
SPLINE
  5
520
330
1F
100
AcDbEntity
  8
D-STR
100
AcDbSpline
210
0.0
220
0.0
230
1.0
 70
     8
 71
     3
 72
     8
 73
     4
 74
     0
 42
0.0000000001
 43
0.0000000001
 40
1.0
 40
1.0
 40
1.0
 40
1.0
 40
2.0
 40
2.0
 40
2.0
 40
2.0
 10
1865.409446740709
 20
1578.177988163662
 30
0.0
 10
1862.930447259314
 20
1596.505459658511
 30
0.0
 10
1844.109622249241
 20
1611.04511780109
 30
0.0
 10
1827.266288601796
 20
1611.04511780109
 30
0.0
  0
SPLINE
  5
521
330
1F
100
AcDbEntity
  8
D-STR-STR1
100
AcDbSpline
210
0.0
220
0.0
230
1.0
 70
    24
 71
     3
 72
     8
 73
     4
 74
     0
 42
0.0000000001
 43
0.0000000001
 40
2.0
 40
2.0
 40
2.0
 40
2.0
 40
3.0
 40
3.0
 40
3.0
 40
3.0
 10
1805.350791541755
 20
1611.04511780109
 30
0.0
 10
1805.350791541755
 20
1611.04511780109
 30
0.0
 10
1805.350791541755
 20
1606.943352211771
 30
0.0
 10
1805.350791541755
 20
1606.943352211771
 30
0.0
  0
SPLINE
  5
522
330
1F
100
AcDbEntity
  8
D-STR-STR1
100
AcDbSpline
210
0.0
220
0.0
230
1.0
 70
    24
 71
     3
 72
     8
 73
     4
 74
     0
 42
0.0000000001
 43
0.0000000001
 40
29.59629719033576
 40
29.59629719033576
 40
29.59629719033576
 40
29.59629719033576
 40
29.87535447403475
 40
29.87535447403475
 40
29.87535447403475
 40
29.87535447403475
 10
1784.409769606809
 20
1555.695746156426
 30
0.0
 10
1784.409769606809
 20
1555.695746156426
 30
0.0
 10
1784.409769606809
 20
1557.855306878925
 30
0.0
 10
1784.409769606809
 20
1560.095432656004
 30
0.0
  0
SPLINE
  5
523
330
1F
100
AcDbEntity
  8
D-STR-STR1
100
AcDbSpline
210
0.0
220
0.0
230
1.0
 70
    24
 71
     3
 72
     8
 73
     4
 74
     0
 42
0.0000000001
 43
0.0000000001
 40
29.01655461703194
 40
29.01655461703194
 40
29.01655461703194
 40
29.01655461703194
 40
29.59629719033576
 40
29.59629719033576
 40
29.59629719033576
 40
29.59629719033576
 10
1784.409769606809
 20
1555.581581706629
 30
0.0
 10
1784.409769606809
 20
1555.581581706629
 30
0.0
 10
1784.409769606809
 20
1555.695746156426
 30
0.0
 10
1784.409769606809
 20
1555.695746156426
 30
0.0
  0
SPLINE
  5
524
330
1F
100
AcDbEntity
  8
D-STR-STR1
100
AcDbSpline
210
0.0
220
0.0
230
1.0
 70
    24
 71
     3
 72
     8
 73
     4
 74
     0
 42
0.0000000001
 43
0.0000000001
 40
28.43681204372812
 40
28.43681204372812
 40
28.43681204372812
 40
28.43681204372812
 40
29.01655461703194
 40
29.01655461703194
 40
29.01655461703194
 40
29.01655461703194
 10
1786.22824620007
 20
1553.754950509769
 30
0.0
 10
1786.22824620007
 20
1553.754950509769
 30
0.0
 10
1784.409769606809
 20
1555.581581706629
 30
0.0
 10
1784.409769606809
 20
1555.581581706629
 30
0.0
  0
SPLINE
  5
525
330
1F
100
AcDbEntity
  8
D-STR-STR1
100
AcDbSpline
210
0.0
220
0.0
230
1.0
 70
    24
 71
     3
 72
     8
 73
     4
 74
     0
 42
0.0000000001
 43
0.0000000001
 40
27.8570694704243
 40
27.8570694704243
 40
27.8570694704243
 40
27.8570694704243
 40
28.43681204372812
 40
28.43681204372812
 40
28.43681204372812
 40
28.43681204372812
 10
1790.933452452583
 20
1553.754950509769
 30
0.0
 10
1790.933452452583
 20
1553.754950509769
 30
0.0
 10
1786.22824620007
 20
1553.754950509769
 30
0.0
 10
1786.22824620007
 20
1553.754950509769
 30
0.0
  0
SPLINE
  5
526
330
1F
100
AcDbEntity
  8
D-STR-STR1
100
AcDbSpline
210
0.0
220
0.0
230
1.0
 70
    24
 71
     3
 72
     8
 73
     4
 74
     0
 42
0.0000000001
 43
0.0000000001
 40
27.27732689712048
 40
27.27732689712048
 40
27.27732689712048
 40
27.27732689712048
 40
27.8570694704243
 40
27.8570694704243
 40
27.8570694704243
 40
27.8570694704243
 10
1790.933452452583
 20
1557.383749092757
 30
0.0
 10
1790.933452452583
 20
1557.383749092757
 30
0.0
 10
1790.933452452583
 20
1553.754950509769
 30
0.0
 10
1790.933452452583
 20
1553.754950509769
 30
0.0
  0
SPLINE
  5
527
330
1F
100
AcDbEntity
  8
D-STR-STR1
100
AcDbSpline
210
0.0
220
0.0
230
1.0
 70
    24
 71
     3
 72
     8
 73
     4
 74
     0
 42
0.0000000001
 43
0.0000000001
 40
26.69758432381666
 40
26.69758432381666
 40
26.69758432381666
 40
26.69758432381666
 40
27.27732689712048
 40
27.27732689712048
 40
27.27732689712048
 40
27.27732689712048
 10
1788.650163456563
 20
1557.383749092757
 30
0.0
 10
1788.650163456563
 20
1557.383749092757
 30
0.0
 10
1790.933452452583
 20
1557.383749092757
 30
0.0
 10
1790.933452452583
 20
1557.383749092757
 30
0.0
  0
SPLINE
  5
528
330
1F
100
AcDbEntity
  8
D-STR-STR1
100
AcDbSpline
210
0.0
220
0.0
230
1.0
 70
    24
 71
     3
 72
     8
 73
     4
 74
     0
 42
0.0000000001
 43
0.0000000001
 40
26.24026628158953
 40
26.24026628158953
 40
26.24026628158953
 40
26.24026628158953
 40
26.69758432381666
 40
26.69758432381666
 40
26.69758432381666
 40
26.69758432381666
 10
1788.101651044853
 20
1557.932261504466
 30
0.0
 10
1788.264522875964
 20
1557.769389673353
 30
0.0
 10
1788.650163456563
 20
1557.383749092757
 30
0.0
 10
1788.650163456563
 20
1557.383749092757
 30
0.0
  0
SPLINE
  5
529
330
1F
100
AcDbEntity
  8
D-STR-STR1
100
AcDbSpline
210
0.0
220
0.0
230
1.0
 70
    24
 71
     3
 72
     8
 73
     4
 74
     0
 42
0.0000000001
 43
0.0000000001
 40
26.11784175051285
 40
26.11784175051285
 40
26.11784175051285
 40
26.11784175051285
 40
26.24026628158953
 40
26.24026628158953
 40
26.24026628158953
 40
26.24026628158953
 10
1788.030413586213
 20
1558.003498963106
 30
0.0
 10
1788.030413586213
 20
1558.003498963106
 30
0.0
 10
1788.058050080733
 20
1557.975862468584
 30
0.0
 10
1788.101651044853
 20
1557.932261504466
 30
0.0
  0
SPLINE
  5
52A
330
1F
100
AcDbEntity
  8
D-STR-STR1
100
AcDbSpline
210
0.0
220
0.0
230
1.0
 70
    24
 71
     3
 72
     8
 73
     4
 74
     0
 42
0.0000000001
 43
0.0000000001
 40
25.53809917720903
 40
25.53809917720903
 40
25.53809917720903
 40
25.53809917720903
 40
26.11784175051285
 40
26.11784175051285
 40
26.11784175051285
 40
26.11784175051285
 10
1788.030413586213
 20
1586.878950159233
 30
0.0
 10
1788.030413586213
 20
1586.878950159233
 30
0.0
 10
1788.030413586213
 20
1558.003498963106
 30
0.0
 10
1788.030413586213
 20
1558.003498963106
 30
0.0
  0
SPLINE
  5
52B
330
1F
100
AcDbEntity
  8
D-STR-STR1
100
AcDbSpline
210
0.0
220
0.0
230
1.0
 70
    24
 71
     3
 72
     8
 73
     4
 74
     0
 42
0.0000000001
 43
0.0000000001
 40
24.9583566039052
 40
24.9583566039052
 40
24.9583566039052
 40
24.9583566039052
 40
25.53809917720903
 40
25.53809917720903
 40
25.53809917720903
 40
25.53809917720903
 10
1784.409769606809
 20
1586.878950159233
 30
0.0
 10
1784.409769606809
 20
1586.878950159233
 30
0.0
 10
1788.030413586213
 20
1586.878950159233
 30
0.0
 10
1788.030413586213
 20
1586.878950159233
 30
0.0
  0
SPLINE
  5
52C
330
1F
100
AcDbEntity
  8
D-STR-STR1
100
AcDbSpline
210
0.0
220
0.0
230
1.0
 70
     8
 71
     3
 72
    14
 73
    10
 74
     0
 42
0.0000000001
 43
0.0000000001
 40
23.21912888399375
 40
23.21912888399375
 40
23.21912888399375
 40
23.21912888399375
 40
23.79887145729756
 40
23.79887145729756
 40
23.79887145729756
 40
24.37861403060139
 40
24.37861403060139
 40
24.37861403060139
 40
24.9583566039052
 40
24.9583566039052
 40
24.9583566039052
 40
24.9583566039052
 10
1784.409769606809
 20
1569.758359990856
 30
0.0
 10
1784.409769606809
 20
1569.803210310413
 30
0.0
 10
1784.422001512139
 20
1569.856215233513
 30
0.0
 10
1784.422001512139
 20
1569.909220156664
 30
0.0
 10
1784.422001512139
 20
1569.962225079795
 30
0.0
 10
1784.409769606809
 20
1569.998920795785
 30
0.0
 10
1784.409769606809
 20
1570.056003020657
 30
0.0
 10
1784.409769606809
 20
1570.056003020657
 30
0.0
 10
1784.409769606809
 20
1586.878950159233
 30
0.0
 10
1784.409769606809
 20
1586.878950159233
 30
0.0
  0
SPLINE
  5
52D
330
1F
100
AcDbEntity
  8
D-STR-STR1
100
AcDbSpline
210
0.0
220
0.0
230
1.0
 70
     8
 71
     3
 72
    11
 73
     7
 74
     0
 42
0.0000000001
 43
0.0000000001
 40
22.6051780891443
 40
22.6051780891443
 40
22.6051780891443
 40
22.6051780891443
 40
22.63938631068993
 40
22.63938631068993
 40
22.63938631068993
 40
23.21912888399375
 40
23.21912888399375
 40
23.21912888399375
 40
23.21912888399375
 10
1782.433697600734
 20
1568.106790744937
 30
0.0
 10
1782.489616985503
 20
1568.101566999418
 30
0.0
 10
1782.546265739969
 20
1568.098898166962
 30
0.0
 10
1782.603524918879
 20
1568.098898166962
 30
0.0
 10
1783.549458931521
 20
1568.098898166962
 30
0.0
 10
1784.324146269455
 20
1568.824657883526
 30
0.0
 10
1784.409769606809
 20
1569.758359990856
 30
0.0
  0
SPLINE
  5
52E
330
1F
100
AcDbEntity
  8
D-STR-STR1
100
AcDbSpline
210
0.0
220
0.0
230
1.0
 70
     8
 71
     3
 72
     8
 73
     4
 74
     0
 42
0.0000000001
 43
0.0000000001
 40
22.0596437373861
 40
22.0596437373861
 40
22.0596437373861
 40
22.0596437373861
 40
22.6051780891443
 40
22.6051780891443
 40
22.6051780891443
 40
22.6051780891443
 10
1780.797280230959
 20
1569.8439833282
 30
0.0
 10
1780.83564740089
 20
1568.923171249794
 30
0.0
 10
1781.541925273998
 20
1568.190096233948
 30
0.0
 10
1782.433697600734
 20
1568.106790744937
 30
0.0
  0
SPLINE
  5
52F
330
1F
100
AcDbEntity
  8
D-STR-STR1
100
AcDbSpline
210
0.0
220
0.0
230
1.0
 70
     8
 71
     3
 72
    11
 73
     7
 74
     0
 42
0.0000000001
 43
0.0000000001
 40
20.90015859077847
 40
20.90015859077847
 40
20.90015859077847
 40
20.90015859077847
 40
21.4799011640823
 40
21.4799011640823
 40
21.4799011640823
 40
22.0596437373861
 40
22.0596437373861
 40
22.0596437373861
 40
22.0596437373861
 10
1780.797280230959
 20
1569.982611588679
 30
0.0
 10
1780.797280230959
 20
1569.958147778014
 30
0.0
 10
1780.793202929181
 20
1569.929606665547
 30
0.0
 10
1780.793202929181
 20
1569.909220156664
 30
0.0
 10
1780.793202929181
 20
1569.884756345983
 30
0.0
 10
1780.797280230959
 20
1569.860292535307
 30
0.0
 10
1780.797280230959
 20
1569.8439833282
 30
0.0
  0
SPLINE
  5
530
330
1F
100
AcDbEntity
  8
D-STR-STR1
100
AcDbSpline
210
0.0
220
0.0
230
1.0
 70
    24
 71
     3
 72
     8
 73
     4
 74
     0
 42
0.0000000001
 43
0.0000000001
 40
20.32041601747466
 40
20.32041601747466
 40
20.32041601747466
 40
20.32041601747466
 40
20.90015859077847
 40
20.90015859077847
 40
20.90015859077847
 40
20.90015859077847
 10
1780.797280230959
 20
1579.613198389767
 30
0.0
 10
1780.797280230959
 20
1579.613198389767
 30
0.0
 10
1780.797280230959
 20
1569.982611588679
 30
0.0
 10
1780.797280230959
 20
1569.982611588679
 30
0.0
  0
SPLINE
  5
531
330
1F
100
AcDbEntity
  8
D-STR-STR1
100
AcDbSpline
210
0.0
220
0.0
230
1.0
 70
    24
 71
     3
 72
     8
 73
     4
 74
     0
 42
0.0000000001
 43
0.0000000001
 40
19.74067344417083
 40
19.74067344417083
 40
19.74067344417083
 40
19.74067344417083
 40
20.32041601747466
 40
20.32041601747466
 40
20.32041601747466
 40
20.32041601747466
 10
1777.829004536128
 20
1584.24909051204
 30
0.0
 10
1777.829004536128
 20
1584.24909051204
 30
0.0
 10
1780.797280230959
 20
1579.613198389767
 30
0.0
 10
1780.797280230959
 20
1579.613198389767
 30
0.0
  0
SPLINE
  5
532
330
1F
100
AcDbEntity
  8
D-STR-STR1
100
AcDbSpline
210
0.0
220
0.0
230
1.0
 70
    24
 71
     3
 72
     8
 73
     4
 74
     0
 42
0.0000000001
 43
0.0000000001
 40
19.46161616047184
 40
19.46161616047184
 40
19.46161616047184
 40
19.46161616047184
 40
19.74067344417083
 40
19.74067344417083
 40
19.74067344417083
 40
19.74067344417083
 10
1777.752810555666
 20
1584.150394000545
 30
0.0
 10
1777.802236601146
 20
1584.214417145634
 30
0.0
 10
1777.829004536128
 20
1584.24909051204
 30
0.0
 10
1777.829004536128
 20
1584.24909051204
 30
0.0
  0
SPLINE
  5
533
330
1F
100
AcDbEntity
  8
D-STR-STR1
100
AcDbSpline
210
0.0
220
0.0
230
1.0
 70
    24
 71
     3
 72
     8
 73
     4
 74
     0
 42
0.0000000001
 43
0.0000000001
 40
18.88187358716802
 40
18.88187358716802
 40
18.88187358716802
 40
18.88187358716802
 40
19.46161616047184
 40
19.46161616047184
 40
19.46161616047184
 40
19.46161616047184
 10
1777.188234398518
 20
1583.419080360717
 30
0.0
 10
1777.449652052629
 20
1583.757703049124
 30
0.0
 10
1777.650127757297
 20
1584.017385671958
 30
0.0
 10
1777.752810555666
 20
1584.150394000545
 30
0.0
  0
SPLINE
  5
534
330
1F
100
AcDbEntity
  8
D-STR-STR1
100
AcDbSpline
210
0.0
220
0.0
230
1.0
 70
    24
 71
     3
 72
     8
 73
     4
 74
     0
 42
0.0000000001
 43
0.0000000001
 40
18.3021310138642
 40
18.3021310138642
 40
18.3021310138642
 40
18.3021310138642
 40
18.88187358716802
 40
18.88187358716802
 40
18.88187358716802
 40
18.88187358716802
 10
1776.258006544698
 20
1582.214126327441
 30
0.0
 10
1776.604457140849
 20
1582.662894918324
 30
0.0
 10
1776.926816744405
 20
1583.080457672306
 30
0.0
 10
1777.188234398518
 20
1583.419080360717
 30
0.0
  0
SPLINE
  5
535
330
1F
100
AcDbEntity
  8
D-STR-STR1
100
AcDbSpline
210
0.0
220
0.0
230
1.0
 70
    24
 71
     3
 72
     8
 73
     4
 74
     0
 42
0.0000000001
 43
0.0000000001
 40
17.72238844056039
 40
17.72238844056039
 40
17.72238844056039
 40
17.72238844056039
 40
18.3021310138642
 40
18.3021310138642
 40
18.3021310138642
 40
18.3021310138642
 10
1775.183232735334
 20
1580.821937272753
 30
0.0
 10
1775.541014359812
 20
1581.285383308771
 30
0.0
 10
1775.911555948551
 20
1581.765357736557
 30
0.0
 10
1776.258006544698
 20
1582.214126327441
 30
0.0
  0
SPLINE
  5
536
330
1F
100
AcDbEntity
  8
D-STR-STR1
100
AcDbSpline
210
0.0
220
0.0
230
1.0
 70
    24
 71
     3
 72
     8
 73
     4
 74
     0
 42
0.0000000001
 43
0.0000000001
 40
17.14264586725656
 40
17.14264586725656
 40
17.14264586725656
 40
17.14264586725656
 40
17.72238844056039
 40
17.72238844056039
 40
17.72238844056039
 40
17.72238844056039
 10
1774.185018711546
 20
1579.528918568686
 30
0.0
 10
1774.480429450644
 20
1579.911573592488
 30
0.0
 10
1774.825451110858
 20
1580.358491236736
 30
0.0
 10
1775.183232735334
 20
1580.821937272753
 30
0.0
  0
SPLINE
  5
537
330
1F
100
AcDbEntity
  8
D-STR-STR1
100
AcDbSpline
210
0.0
220
0.0
230
1.0
 70
    24
 71
     3
 72
     8
 73
     4
 74
     0
 42
0.0000000001
 43
0.0000000001
 40
16.56290329395275
 40
16.56290329395275
 40
16.56290329395275
 40
16.56290329395275
 40
17.14264586725656
 40
17.14264586725656
 40
17.14264586725656
 40
17.14264586725656
 10
1773.484470214459
 20
1578.621475587263
 30
0.0
 10
1773.643808154469
 20
1578.827871141514
 30
0.0
 10
1773.88960797245
 20
1579.146263544878
 30
0.0
 10
1774.185018711546
 20
1579.528918568686
 30
0.0
  0
SPLINE
  5
538
330
1F
100
AcDbEntity
  8
D-STR-STR1
100
AcDbSpline
210
0.0
220
0.0
230
1.0
 70
    24
 71
     3
 72
     8
 73
     4
 74
     0
 42
0.0000000001
 43
0.0000000001
 40
16.10558525172561
 40
16.10558525172561
 40
16.10558525172561
 40
16.10558525172561
 40
16.56290329395275
 40
16.56290329395275
 40
16.56290329395275
 40
16.56290329395275
 10
1773.286890354759
 20
1578.365544045477
 30
0.0
 10
1773.286890354759
 20
1578.365544045477
 30
0.0
 10
1773.358779747459
 20
1578.458664686112
 30
0.0
 10
1773.484470214459
 20
1578.621475587263
 30
0.0
  0
SPLINE
  5
539
330
1F
100
AcDbEntity
  8
D-STR-STR1
100
AcDbSpline
210
0.0
220
0.0
230
1.0
 70
    24
 71
     3
 72
    29
 73
    25
 74
     0
 42
0.0000000001
 43
0.0000000001
 40
12.47049705928038
 40
12.47049705928038
 40
12.47049705928038
 40
12.47049705928038
 40
12.50470528082602
 40
12.50470528082602
 40
12.50470528082602
 40
13.08444785412984
 40
13.08444785412984
 40
13.08444785412984
 40
13.66419042743366
 40
13.66419042743366
 40
13.66419042743366
 40
14.24393300073747
 40
14.24393300073747
 40
14.24393300073747
 40
14.82367557404128
 40
14.82367557404128
 40
14.82367557404128
 40
15.4034181473451
 40
15.4034181473451
 40
15.4034181473451
 40
15.98316072064893
 40
15.98316072064893
 40
15.98316072064893
 40
16.10558525172561
 40
16.10558525172561
 40
16.10558525172561
 40
16.10558525172561
 10
1777.612907541868
 20
1578.365544045477
 30
0.0
 10
1777.612907541868
 20
1578.365544045477
 30
0.0
 10
1777.612524435537
 20
1578.365544045477
 30
0.0
 10
1777.611765433368
 20
1578.365544045477
 30
0.0
 10
1777.598902272064
 20
1578.365544045477
 30
0.0
 10
1777.478075620915
 20
1578.365544045477
 30
0.0
 10
1777.284383204535
 20
1578.365544045477
 30
0.0
 10
1777.090690788152
 20
1578.365544045477
 30
0.0
 10
1776.824132606539
 20
1578.365544045477
 30
0.0
 10
1776.519806384311
 20
1578.365544045477
 30
0.0
 10
1776.21548016208
 20
1578.365544045477
 30
0.0
 10
1775.873385899237
 20
1578.365544045477
 30
0.0
 10
1775.528621320392
 20
1578.365544045477
 30
0.0
 10
1775.183856741549
 20
1578.365544045477
 30
0.0
 10
1774.836421846706
 20
1578.365544045477
 30
0.0
 10
1774.521414360476
 20
1578.365544045477
 30
0.0
 10
1774.206406874249
 20
1578.365544045477
 30
0.0
 10
1773.923826796636
 20
1578.365544045477
 30
0.0
 10
1773.708771852256
 20
1578.365544045477
 30
0.0
 10
1773.493716907877
 20
1578.365544045477
 30
0.0
 10
1773.346187096729
 20
1578.365544045477
 30
0.0
 10
1773.301280143428
 20
1578.365544045477
 30
0.0
 10
1773.291797119491
 20
1578.365544045477
 30
0.0
 10
1773.286890354759
 20
1578.365544045477
 30
0.0
 10
1773.286890354759
 20
1578.365544045477
 30
0.0
  0
SPLINE
  5
53A
330
1F
100
AcDbEntity
  8
D-STR-STR1
100
AcDbSpline
210
0.0
220
0.0
230
1.0
 70
    24
 71
     3
 72
    20
 73
    16
 74
     0
 42
0.0000000001
 43
0.0000000001
 40
9.605992414306928
 40
9.605992414306928
 40
9.605992414306928
 40
9.605992414306928
 40
10.18573498761073
 40
10.18573498761073
 40
10.18573498761073
 40
10.76547756091456
 40
10.76547756091456
 40
10.76547756091456
 40
11.34522013421838
 40
11.34522013421838
 40
11.34522013421838
 40
11.92496270752219
 40
11.92496270752219
 40
11.92496270752219
 40
12.47049705928038
 40
12.47049705928038
 40
12.47049705928038
 40
12.47049705928038
 10
1777.612907541868
 20
1566.561755396426
 30
0.0
 10
1777.612907541868
 20
1567.273036266636
 30
0.0
 10
1777.612907541868
 20
1568.179902961902
 30
0.0
 10
1777.612907541868
 20
1569.174052041703
 30
0.0
 10
1777.612907541868
 20
1570.168201121504
 30
0.0
 10
1777.612907541868
 20
1571.249632585836
 30
0.0
 10
1777.612907541868
 20
1572.310042994186
 30
0.0
 10
1777.612907541868
 20
1573.370453402537
 30
0.0
 10
1777.612907541868
 20
1574.4098427549
 30
0.0
 10
1777.612907541868
 20
1575.319907610754
 30
0.0
 10
1777.612907541868
 20
1576.22997246661
 30
0.0
 10
1777.612907541868
 20
1577.010712825956
 30
0.0
 10
1777.612907541868
 20
1577.553825248279
 30
0.0
 10
1777.612907541868
 20
1578.0648908434
 30
0.0
 10
1777.612907541868
 20
1578.365544045477
 30
0.0
 10
1777.612907541868
 20
1578.365544045477
 30
0.0
  0
LINE
  5
53B
330
1F
100
AcDbEntity
  8
D-STR-STR1
100
AcDbLine
 10
1775.961600728056
 20
1566.573986968692
 30
0.0
 11
1777.796385728057
 21
1577.696866968691
 31
0.0
  0
LINE
  5
53C
330
1F
100
AcDbEntity
  8
D-STR-STR1
100
AcDbLine
 10
1784.462774728057
 20
1569.99200496869
 30
0.0
 11
1780.797280728057
 21
1573.89352496869
 31
0.0
  0
SPLINE
  5
53D
330
1F
100
AcDbEntity
  8
D-STR-STR1
100
AcDbSpline
210
0.0
220
0.0
230
1.0
 70
    24
 71
     3
 72
     8
 73
     4
 74
     0
 42
0.0000000001
 43
0.0000000001
 40
10.0
 40
10.0
 40
10.0
 40
10.0
 40
11.0
 40
11.0
 40
11.0
 40
11.0
 10
1780.858439757643
 20
1574.789750385643
 30
0.0
 10
1780.858439757643
 20
1574.789750385643
 30
0.0
 10
1780.858439757643
 20
1606.943352211771
 30
0.0
 10
1780.858439757643
 20
1606.943352211771
 30
0.0
  0
SPLINE
  5
53E
330
1F
100
AcDbEntity
  8
D-STR-STR1
100
AcDbSpline
210
0.0
220
0.0
230
1.0
 70
    24
 71
     3
 72
     8
 73
     4
 74
     0
 42
0.0000000001
 43
0.0000000001
 40
6.0
 40
6.0
 40
6.0
 40
6.0
 40
7.0
 40
7.0
 40
7.0
 40
7.0
 10
1792.792702063635
 20
1586.638389354309
 30
0.0
 10
1792.792702063635
 20
1586.638389354309
 30
0.0
 10
1792.792702063635
 20
1606.943352211771
 30
0.0
 10
1792.792702063635
 20
1606.943352211771
 30
0.0
  0
SPLINE
  5
53F
330
1F
100
AcDbEntity
  8
D-STR-STR1
100
AcDbSpline
210
0.0
220
0.0
230
1.0
 70
    24
 71
     3
 72
     8
 73
     4
 74
     0
 42
0.0000000001
 43
0.0000000001
 40
4.0
 40
4.0
 40
4.0
 40
4.0
 40
5.0
 40
5.0
 40
5.0
 40
5.0
 10
1796.409268741254
 20
1606.943352211771
 30
0.0
 10
1796.409268741254
 20
1606.943352211771
 30
0.0
 10
1796.409268741254
 20
1586.638389354309
 30
0.0
 10
1796.409268741254
 20
1586.638389354309
 30
0.0
  0
SPLINE
  5
540
330
1F
100
AcDbEntity
  8
D-STR-STR1
100
AcDbSpline
210
0.0
220
0.0
230
1.0
 70
    24
 71
     3
 72
     8
 73
     4
 74
     0
 42
0.0000000001
 43
0.0000000001
 40
3.0
 40
3.0
 40
3.0
 40
3.0
 40
4.0
 40
4.0
 40
4.0
 40
4.0
 10
1805.350791541755
 20
1606.943352211771
 30
0.0
 10
1805.350791541755
 20
1606.943352211771
 30
0.0
 10
1796.409268741254
 20
1606.943352211771
 30
0.0
 10
1796.409268741254
 20
1606.943352211771
 30
0.0
  0
SPLINE
  5
541
330
1F
100
AcDbEntity
  8
D-STR-STR1
100
AcDbSpline
210
0.0
220
0.0
230
1.0
 70
    24
 71
     3
 72
     8
 73
     4
 74
     0
 42
0.0000000001
 43
0.0000000001
 40
8.0
 40
8.0
 40
8.0
 40
8.0
 40
9.0
 40
9.0
 40
9.0
 40
9.0
 10
1784.475006435262
 20
1606.943352211771
 30
0.0
 10
1784.475006435262
 20
1606.943352211771
 30
0.0
 10
1784.475006435262
 20
1570.920390997766
 30
0.0
 10
1784.475006435262
 20
1570.920390997766
 30
0.0
  0
SPLINE
  5
542
330
1F
100
AcDbEntity
  8
D-STR-STR1
100
AcDbSpline
210
0.0
220
0.0
230
1.0
 70
    24
 71
     3
 72
     8
 73
     4
 74
     0
 42
0.0000000001
 43
0.0000000001
 40
7.0
 40
7.0
 40
7.0
 40
7.0
 40
8.0
 40
8.0
 40
8.0
 40
8.0
 10
1792.792702063635
 20
1606.943352211771
 30
0.0
 10
1792.792702063635
 20
1606.943352211771
 30
0.0
 10
1784.475006435262
 20
1606.943352211771
 30
0.0
 10
1784.475006435262
 20
1606.943352211771
 30
0.0
  0
SPLINE
  5
543
330
1F
100
AcDbEntity
  8
D-STR
100
AcDbSpline
210
0.0
220
0.0
230
1.0
 70
    24
 71
     3
 72
     8
 73
     4
 74
     0
 42
0.0000000001
 43
0.0000000001
 40
10.0
 40
10.0
 40
10.0
 40
10.0
 40
11.0
 40
11.0
 40
11.0
 40
11.0
 10
1770.03320353543
 20
1517.719757390405
 30
0.0
 10
1770.03320353543
 20
1517.719757390405
 30
0.0
 10
1770.03320353543
 20
1566.561755396428
 30
0.0
 10
1770.03320353543
 20
1566.561755396428
 30
0.0
  0
SPLINE
  5
544
330
1F
100
AcDbEntity
  8
D-STR
100
AcDbSpline
210
0.0
220
0.0
230
1.0
 70
     8
 71
     3
 72
     8
 73
     4
 74
     0
 42
0.0000000001
 43
0.0000000001
 40
0.0
 40
0.0
 40
0.0
 40
0.0
 40
1.0
 40
1.0
 40
1.0
 40
1.0
 10
1785.975453489793
 20
1560.902460527716
 30
0.0
 10
1785.975453489793
 20
1560.902460527716
 30
0.0
 10
1777.494665790284
 20
1556.527515719236
 30
0.0
 10
1775.945291114414
 20
1555.76098298489
 30
0.0
  0
SPLINE
  5
545
330
1F
100
AcDbEntity
  8
D-STR
100
AcDbSpline
210
0.0
220
0.0
230
1.0
 70
     8
 71
     3
 72
     8
 73
     4
 74
     0
 42
0.0000000001
 43
0.0000000001
 40
1.0
 40
1.0
 40
1.0
 40
1.0
 40
2.0
 40
2.0
 40
2.0
 40
2.0
 10
1775.945291114414
 20
1555.76098298489
 30
0.0
 10
1774.395916438537
 20
1554.986295646956
 30
0.0
 10
1774.143123728261
 20
1553.95881559871
 30
0.0
 10
1774.143123728261
 20
1551.90385550231
 30
0.0
  0
SPLINE
  5
546
330
1F
100
AcDbEntity
  8
D-STR
100
AcDbSpline
210
0.0
220
0.0
230
1.0
 70
    24
 71
     3
 72
     8
 73
     4
 74
     0
 42
0.0000000001
 43
0.0000000001
 40
9.0
 40
9.0
 40
9.0
 40
9.0
 40
10.0
 40
10.0
 40
10.0
 40
10.0
 10
1768.744776173382
 20
1517.719757390405
 30
0.0
 10
1768.744776173382
 20
1517.719757390405
 30
0.0
 10
1770.03320353543
 20
1517.719757390405
 30
0.0
 10
1770.03320353543
 20
1517.719757390405
 30
0.0
  0
SPLINE
  5
547
330
1F
100
AcDbEntity
  8
D-STR
100
AcDbSpline
210
0.0
220
0.0
230
1.0
 70
    24
 71
     3
 72
     8
 73
     4
 74
     0
 42
0.0000000001
 43
0.0000000001
 40
11.0
 40
11.0
 40
11.0
 40
11.0
 40
12.0
 40
12.0
 40
12.0
 40
12.0
 10
1770.03320353543
 20
1566.561755396428
 30
0.0
 10
1770.03320353543
 20
1566.561755396428
 30
0.0
 10
1785.461713465688
 20
1566.561755396428
 30
0.0
 10
1785.461713465688
 20
1566.561755396428
 30
0.0
  0
SPLINE
  5
548
330
1F
100
AcDbEntity
  8
D-STR
100
AcDbSpline
210
0.0
220
0.0
230
1.0
 70
    24
 71
     3
 72
     8
 73
     4
 74
     0
 42
0.0000000001
 43
0.0000000001
 40
5.0
 40
5.0
 40
5.0
 40
5.0
 40
6.0
 40
6.0
 40
6.0
 40
6.0
 10
1796.409268741254
 20
1586.638389354309
 30
0.0
 10
1796.409268741254
 20
1586.638389354309
 30
0.0
 10
1792.792702063635
 20
1586.638389354309
 30
0.0
 10
1792.792702063635
 20
1586.638389354309
 30
0.0
  0
SPLINE
  5
549
330
1F
100
AcDbEntity
  8
D-STR
100
AcDbSpline
210
0.0
220
0.0
230
1.0
 70
    24
 71
     3
 72
     8
 73
     4
 74
     0
 42
0.0000000001
 43
0.0000000001
 40
3.260088817204095
 40
3.260088817204095
 40
3.260088817204095
 40
3.260088817204095
 40
4.0
 40
4.0
 40
4.0
 40
4.0
 10
1801.018129787311
 20
1606.943352211786
 30
0.0
 10
1799.629409135668
 20
1599.980009613208
 30
0.0
 10
1796.959704481368
 20
1586.593539034747
 30
0.0
 10
1796.959704481368
 20
1586.593539034747
 30
0.0
  0
SPLINE
  5
54A
330
1F
100
AcDbEntity
  8
D-STR
100
AcDbSpline
210
0.0
220
0.0
230
1.0
 70
    24
 71
     3
 72
     8
 73
     4
 74
     0
 42
0.0000000001
 43
0.0000000001
 40
12.0
 40
12.0
 40
12.0
 40
12.0
 40
13.0
 40
13.0
 40
13.0
 40
13.0
 10
1785.461713465688
 20
1566.561755396428
 30
0.0
 10
1785.461713465688
 20
1566.561755396428
 30
0.0
 10
1785.975453489793
 20
1560.902460527716
 30
0.0
 10
1785.975453489793
 20
1560.902460527716
 30
0.0
  0
SPLINE
  5
54B
330
1F
100
AcDbEntity
  8
D-STR
100
AcDbSpline
210
0.0
220
0.0
230
1.0
 70
    24
 71
     3
 72
     8
 73
     4
 74
     0
 42
0.0000000001
 43
0.0000000001
 40
2.0
 40
2.0
 40
2.0
 40
2.0
 40
3.0
 40
3.0
 40
3.0
 40
3.0
 10
1827.266288601796
 20
1611.04511780109
 30
0.0
 10
1822.801643154212
 20
1611.04511780109
 30
0.0
 10
1801.836157408589
 20
1611.04511780109
 30
0.0
 10
1801.836157408589
 20
1611.04511780109
 30
0.0
  0
SPLINE
  5
54C
330
1F
100
AcDbEntity
  8
D-STR
 62
     0
100
AcDbSpline
210
0.0
220
0.0
230
1.0
 70
     8
 71
     3
 72
     8
 73
     4
 74
     0
 42
0.0000000001
 43
0.0000000001
 40
0.0
 40
0.0
 40
0.0
 40
0.0
 40
0.3223185762097519
 40
0.3223185762097519
 40
0.3223185762097519
 40
0.3223185762097519
 10
1930.890913305202
 20
1304.362709919226
 30
0.0
 10
1932.13939390406
 20
1305.332582216027
 30
0.0
 10
1934.671345789043
 20
1306.273650536771
 30
0.0
 10
1937.683698068378
 20
1307.007606383551
 30
0.0
  0
LINE
  5
92F
330
1F
100
AcDbEntity
  8
D-STR
 62
     0
100
AcDbLine
 10
1779.432600180871
 20
1307.007606383551
 30
0.0
 11
1678.073682595732
 21
1408.366523968691
 31
0.0
  0
LINE
  5
930
330
1F
100
AcDbEntity
  8
D-STR
 62
     0
100
AcDbLine
 10
1734.531319575526
 20
1307.00760638355
 30
0.0
 11
1708.15980263632
 21
1333.379123322756
 31
0.0
  0
LINE
  5
931
330
1F
100
AcDbEntity
  8
D-STR
 62
     0
100
AcDbLine
 10
1723.305999424189
 20
1307.007606383551
 30
0.0
 11
1696.934482484984
 21
1333.379123322756
 31
0.0
  0
LINE
  5
932
330
1F
100
AcDbEntity
  8
D-STR
 62
     0
100
AcDbLine
 10
1712.080679272853
 20
1307.007606383551
 30
0.0
 11
1685.709162333647
 21
1333.379123322756
 31
0.0
  0
LINE
  5
933
330
1F
100
AcDbEntity
  8
D-STR
 62
     0
100
AcDbLine
 10
1667.179398667507
 20
1307.00760638355
 30
0.0
 11
1640.807881728301
 21
1333.379123322756
 31
0.0
  0
LINE
  5
934
330
1F
100
AcDbEntity
  8
D-STR
 62
     0
100
AcDbLine
 10
1655.954078516171
 20
1307.007606383551
 30
0.0
 11
1629.582561576965
 21
1333.379123322756
 31
0.0
  0
LINE
  5
935
330
1F
100
AcDbEntity
  8
D-STR
 62
     0
100
AcDbLine
 10
1644.728758364834
 20
1307.007606383551
 30
0.0
 11
1618.357241425629
 21
1333.379123322756
 31
0.0
  0
LINE
  5
936
330
1F
100
AcDbEntity
  8
D-STR
 62
     0
100
AcDbLine
 10
1599.827477759489
 20
1307.007606383551
 30
0.0
 11
1573.455960820283
 21
1333.379123322756
 31
0.0
  0
LINE
  5
937
330
1F
100
AcDbEntity
  8
D-STR
 62
     0
100
AcDbLine
 10
1588.602157608152
 20
1307.007606383551
 30
0.0
 11
1562.230640668947
 21
1333.379123322756
 31
0.0
  0
LINE
  5
938
330
1F
100
AcDbEntity
  8
D-STR
 62
     0
100
AcDbLine
 10
1577.376837456816
 20
1307.007606383551
 30
0.0
 11
1551.00532051761
 21
1333.379123322756
 31
0.0
  0
LINE
  5
939
330
1F
100
AcDbEntity
  8
D-STR
 62
     0
100
AcDbLine
 10
1532.47555685147
 20
1307.007606383551
 30
0.0
 11
1489.604541728056
 21
1349.878621506965
 31
0.0
  0
LINE
  5
93A
330
1F
100
AcDbEntity
  8
D-STR
 62
     0
100
AcDbLine
 10
1521.250236700133
 20
1307.007606383551
 30
0.0
 11
1489.604541728057
 21
1338.653301355628
 31
0.0
  0
LINE
  5
93B
330
1F
100
AcDbEntity
  8
D-STR
 62
     0
100
AcDbLine
 10
1510.024916548797
 20
1307.007606383551
 30
0.0
 11
1489.604541728056
 21
1327.427981204292
 31
0.0
  0
LINE
  5
93C
330
1F
100
AcDbEntity
  8
D-STR
 62
     0
100
AcDbLine
 10
1937.683698068378
 20
1362.037591371437
 30
0.0
 11
1891.354765471124
 21
1408.36652396869
 31
0.0
  0
LINE
  5
93D
330
1F
100
AcDbEntity
  8
D-STR
 62
     0
100
AcDbLine
 10
1937.683698068378
 20
1350.8122712201
 30
0.0
 11
1880.129445319788
 21
1408.36652396869
 31
0.0
  0
LINE
  5
93E
330
1F
100
AcDbEntity
  8
D-STR
 62
     0
100
AcDbLine
 10
1936.587082299582
 20
1307.007606383551
 30
0.0
 11
1835.228164714441
 21
1408.366523968691
 31
0.0
  0
LINE
  5
93F
330
1F
100
AcDbEntity
  8
D-STR
 62
     0
100
AcDbLine
 10
1925.361762148245
 20
1307.007606383551
 30
0.0
 11
1824.002844563106
 21
1408.366523968691
 31
0.0
  0
LINE
  5
940
330
1F
100
AcDbEntity
  8
D-STR
 62
     0
100
AcDbLine
 10
1914.136441996909
 20
1307.00760638355
 30
0.0
 11
1812.777524411769
 21
1408.366523968691
 31
0.0
  0
LINE
  5
941
330
1F
100
AcDbEntity
  8
D-STR
 62
     0
100
AcDbLine
 10
1869.235161391563
 20
1307.007606383551
 30
0.0
 11
1820.545326295408
 21
1355.697441479706
 31
0.0
  0
LINE
  5
942
330
1F
100
AcDbEntity
  8
D-STR
 62
     0
100
AcDbLine
 10
1858.009841240227
 20
1307.007606383551
 30
0.0
 11
1820.545326295408
 21
1344.47212132837
 31
0.0
  0
LINE
  5
943
330
1F
100
AcDbEntity
  8
D-STR
 62
     0
100
AcDbLine
 10
1846.78452108889
 20
1307.007606383551
 30
0.0
 11
1814.645533879164
 21
1339.146593593277
 31
0.0
  0
LINE
  5
944
330
1F
100
AcDbEntity
  8
D-STR
 62
     0
100
AcDbLine
 10
1801.883240483544
 20
1307.007606383551
 30
0.0
 11
1700.524322898404
 21
1408.366523968691
 31
0.0
  0
LINE
  5
945
330
1F
100
AcDbEntity
  8
D-STR
 62
     0
100
AcDbLine
 10
1790.657920332208
 20
1307.007606383551
 30
0.0
 11
1689.299002747068
 21
1408.366523968691
 31
0.0
  0
LINE
  5
946
330
1F
100
AcDbEntity
  8
D-STR
 62
     0
100
AcDbLine
 10
1937.683698068378
 20
1373.262911522773
 30
0.0
 11
1902.58008562246
 21
1408.366523968691
 31
0.0
  0
LINE
  5
948
330
1F
100
AcDbEntity
  8
D-STR
 62
     0
100
AcDbLine
 10
1655.841508922181
 20
1385.697417036895
 30
0.0
 11
1633.172401990386
 21
1408.366523968691
 31
0.0
  0
LINE
  5
949
330
1F
100
AcDbEntity
  8
D-STR
 62
     0
100
AcDbLine
 10
1644.616188770845
 20
1385.697417036895
 30
0.0
 11
1621.94708183905
 21
1408.366523968691
 31
0.0
  0
LINE
  5
94A
330
1F
100
AcDbEntity
  8
D-STR
 62
     0
100
AcDbLine
 10
1633.390868619508
 20
1385.697417036895
 30
0.0
 11
1610.721761687713
 21
1408.366523968691
 31
0.0
  0
LINE
  5
94B
330
1F
100
AcDbEntity
  8
D-STR
 62
     0
100
AcDbLine
 10
1588.489588014162
 20
1385.697417036895
 30
0.0
 11
1565.820481082367
 21
1408.366523968691
 31
0.0
  0
LINE
  5
94C
330
1F
100
AcDbEntity
  8
D-STR
 62
     0
100
AcDbLine
 10
1577.264267862826
 20
1385.697417036895
 30
0.0
 11
1554.595160931031
 21
1408.366523968691
 31
0.0
  0
LINE
  5
94D
330
1F
100
AcDbEntity
  8
D-STR
 62
     0
100
AcDbLine
 10
1566.03894771149
 20
1385.697417036895
 30
0.0
 11
1543.369840779694
 21
1408.366523968691
 31
0.0
  0
LINE
  5
94E
330
1F
100
AcDbEntity
  8
D-STR
 62
     0
100
AcDbLine
 10
1521.137667106144
 20
1385.697417036895
 30
0.0
 11
1498.468560174348
 21
1408.366523968691
 31
0.0
  0
LINE
  5
94F
330
1F
100
AcDbEntity
  8
D-STR
 62
     0
100
AcDbLine
 10
1514.143020463849
 20
1381.466743527853
 30
0.0
 11
1489.604541728056
 21
1406.005222263646
 31
0.0
  0
LINE
  5
950
330
1F
100
AcDbEntity
  8
D-STR
 62
     0
100
AcDbLine
 10
1514.143020463849
 20
1370.241423376517
 30
0.0
 11
1489.604541728056
 21
1394.77990211231
 31
0.0
  0
LINE
  5
952
330
1F
100
AcDbEntity
  8
D-STR
 62
     0
100
AcDbLine
 10
1780.10612728756
 20
1373.686000184881
 30
0.0
 11
1745.42560350375
 21
1408.366523968691
 31
0.0
  0
LINE
  5
953
330
1F
100
AcDbEntity
  8
D-STR
 62
     0
100
AcDbLine
 10
1784.9729172243
 20
1380.044530399478
 30
0.0
 11
1756.650923655087
 21
1408.366523968691
 31
0.0
  0
LINE
  5
954
330
1F
100
AcDbEntity
  8
D-STR
 62
     0
100
AcDbLine
 10
1796.198237375635
 20
1380.044530399478
 30
0.0
 11
1767.876243806423
 21
1408.366523968691
 31
0.0
  0
MTEXT
  5
955
330
1F
100
AcDbEntity
  8
D-STR-DIM
100
AcDbMText
 10
1661.141481799256
 20
420.8288745360845
 30
0.0
 40
30.0
 41
0.0
 71
     5
 72
     1
  1
パーキングボンド
 73
     1
 44
1.0
  0
MTEXT
  5
956
330
1F
100
AcDbEntity
  8
D-STR-DIM
100
AcDbMText
 10
1961.141481799256
 20
420.8288745360845
 30
0.0
 40
30.0
 41
0.0
 71
     5
 72
     1
  1
ミニ
 73
     1
 44
1.0
  0
MTEXT
  5
957
330
1F
100
AcDbEntity
  8
D-STR-DIM
100
AcDbMText
 10
2661.141481799257
 20
420.8288745360845
 30
0.0
 40
30.0
 41
0.0
 71
     5
 72
     1
  1
約4個分
 73
     1
 44
1.0
  0
LINE
  5
961
330
1F
100
AcDbEntity
  8
D-STR
  6
DASHED
100
AcDbLine
 10
2623.883791223815
 20
1557.872243456625
 30
0.0
 11
2623.883791223815
 21
1550.577253456625
 31
0.0
  0
LINE
  5
962
330
1F
100
AcDbEntity
  8
D-STR
  6
DASHED
100
AcDbLine
 10
2623.883791223815
 20
1563.120846456625
 30
0.0
 11
2623.883791223815
 21
1561.324228956625
 31
0.0
  0
CIRCLE
  5
963
330
1F
100
AcDbEntity
  8
D-STR
100
AcDbCircle
 10
2596.664522223815
 20
1549.295677956625
 30
0.0
 40
2.580807
  0
CIRCLE
  5
964
330
1F
100
AcDbEntity
  8
D-STR
100
AcDbCircle
 10
2596.655478723815
 20
1549.290510456625
 30
0.0
 40
4.645711499999999
  0
CIRCLE
  5
965
330
1F
100
AcDbEntity
  8
D-STR
100
AcDbCircle
 10
2596.654617723816
 20
1549.290510456625
 30
0.0
 40
3.226331999999999
  0
CIRCLE
  5
966
330
1F
100
AcDbEntity
  8
D-STR
100
AcDbCircle
 10
2596.654186723815
 20
1549.290510456625
 30
0.0
 40
6.4746265
  0
CIRCLE
  5
967
330
1F
100
AcDbEntity
  8
D-STR
100
AcDbCircle
 10
2596.655478723815
 20
1549.295677956625
 30
0.0
 40
8.093390499999999
  0
SPLINE
  5
968
330
1F
100
AcDbEntity
  8
D-STR
100
AcDbSpline
210
0.0
220
0.0
230
1.0
 70
    11
 71
     3
 72
    20
 73
    16
 74
     0
 42
0.0000000001
 43
0.0000000001
 40
0.0
 40
0.0
 40
0.0
 40
0.0
 40
1.0
 40
1.0
 40
1.0
 40
2.0
 40
2.0
 40
2.0
 40
3.0
 40
3.0
 40
3.0
 40
4.0
 40
4.0
 40
4.0
 40
5.0
 40
5.0
 40
5.0
 40
5.0
 10
2581.80797859425
 20
1537.901024845015
 30
0.0
 10
2581.80797859425
 20
1539.826833221748
 30
0.0
 10
2581.938892222717
 20
1561.623952362367
 30
0.0
 10
2596.654617591642
 20
1561.623952362367
 30
0.0
 10
2611.367759138951
 20
1561.623952362367
 30
0.0
 10
2611.500395315168
 20
1540.483123911851
 30
0.0
 10
2611.500395315168
 20
1537.901024845015
 30
0.0
 10
2611.500395315168
 20
1535.318925778177
 30
0.0
 10
2610.793289466645
 20
1529.884287648828
 30
0.0
 10
2610.793289466645
 20
1529.884287648828
 30
0.0
 10
2610.793289466645
 20
1529.884287648828
 30
0.0
 10
2582.515084442773
 20
1529.884287648828
 30
0.0
 10
2582.515084442773
 20
1529.884287648828
 30
0.0
 10
2582.515084442773
 20
1529.884287648828
 30
0.0
 10
2581.80797859425
 20
1535.98210665925
 30
0.0
 10
2581.80797859425
 20
1537.901024845015
 30
0.0
  0
SPLINE
  5
969
330
1F
100
AcDbEntity
  8
D-STR
100
AcDbSpline
210
0.0
220
0.0
230
1.0
 70
    11
 71
     3
 72
    20
 73
    16
 74
     0
 42
0.0000000001
 43
0.0000000001
 40
0.0
 40
0.0
 40
0.0
 40
0.0
 40
1.0
 40
1.0
 40
1.0
 40
2.0
 40
2.0
 40
2.0
 40
3.0
 40
3.0
 40
3.0
 40
4.0
 40
4.0
 40
4.0
 40
5.0
 40
5.0
 40
5.0
 40
5.0
 10
2582.515084442773
 20
1537.901024845015
 30
0.0
 10
2582.515084442773
 20
1540.042151689632
 30
0.0
 10
2583.778573212303
 20
1560.578365882335
 30
0.0
 10
2596.654617591642
 20
1560.578365882335
 30
0.0
 10
2609.530661970984
 20
1560.578365882335
 30
0.0
 10
2610.793289466645
 20
1539.933631181819
 30
0.0
 10
2610.793289466645
 20
1537.901024845015
 30
0.0
 10
2610.793289466645
 20
1535.86841850821
 30
0.0
 10
2610.793289466645
 20
1529.884287648828
 30
0.0
 10
2610.793289466645
 20
1529.884287648828
 30
0.0
 10
2610.793289466645
 20
1529.884287648828
 30
0.0
 10
2582.515084442773
 20
1529.884287648828
 30
0.0
 10
2582.515084442773
 20
1529.884287648828
 30
0.0
 10
2582.515084442773
 20
1529.884287648828
 30
0.0
 10
2582.515084442773
 20
1535.761620548139
 30
0.0
 10
2582.515084442773
 20
1537.901024845015
 30
0.0
  0
LWPOLYLINE
  5
96A
330
1F
100
AcDbEntity
  8
D-STR
100
AcDbPolyline
 90
        4
 70
     1
 43
0.0
 10
2582.515084223815
 20
1537.901024956625
 10
2610.793289223815
 20
1537.901024956625
 10
2610.793289223815
 20
1529.884287456625
 10
2582.515084223815
 20
1529.884287456625
  0
LINE
  5
96B
330
1F
100
AcDbEntity
  8
D-STR
  6
DASHED
100
AcDbLine
 10
2631.676997223816
 20
1567.150754456625
 30
0.0
 11
2625.956877223815
 21
1564.283565956625
 31
0.0
  0
ARC
  5
96C
330
1F
100
AcDbEntity
  8
D-STR
100
AcDbCircle
 10
2628.676997223815
 20
1583.925994956625
 30
0.0
 40
3.0
100
AcDbArc
 50
0.0
 51
90.0
  0
LWPOLYLINE
  5
96D
330
1F
100
AcDbEntity
  8
D-STR
  6
DASHED
100
AcDbPolyline
 90
        3
 70
     0
 43
0.0
 10
2623.883791223815
 20
1547.180389456625
 10
2623.883791223815
 20
1540.272972956625
 10
2631.676997223816
 20
1537.237416956625
  0
LINE
  5
96E
330
1F
100
AcDbEntity
  8
D-STR
100
AcDbLine
 10
2612.430571223816
 20
1519.349185456625
 30
0.0
 11
2612.430571223816
 21
1515.878251956625
 31
0.0
  0
LINE
  5
96F
330
1F
100
AcDbEntity
  8
D-STR
100
AcDbLine
 10
2612.430571223816
 20
1512.329803456625
 30
0.0
 11
2612.430571223816
 21
1508.858869956625
 31
0.0
  0
LINE
  5
970
330
1F
100
AcDbEntity
  8
D-STR
100
AcDbLine
 10
2610.458253723815
 20
1512.329803456625
 30
0.0
 11
2612.430571223816
 21
1508.858869956625
 31
0.0
  0
LINE
  5
971
330
1F
100
AcDbEntity
  8
D-STR
100
AcDbLine
 10
2610.458253723815
 20
1519.349185456625
 30
0.0
 11
2612.430571223816
 21
1515.878251956625
 31
0.0
  0
LINE
  5
972
330
1F
100
AcDbEntity
  8
D-STR
100
AcDbLine
 10
2612.430571223816
 20
1505.303531456625
 30
0.0
 11
2612.430571223816
 21
1501.832597456625
 31
0.0
  0
LINE
  5
973
330
1F
100
AcDbEntity
  8
D-STR
100
AcDbLine
 10
2610.458253723815
 20
1505.303531456625
 30
0.0
 11
2612.430571223816
 21
1501.832597456625
 31
0.0
  0
ARC
  5
974
330
1F
100
AcDbEntity
  8
D-STR
100
AcDbCircle
 10
2628.676997223815
 20
1499.677473456625
 30
0.0
 40
3.0
100
AcDbArc
 50
270.0
 51
0.0
  0
LINE
  5
975
330
1F
100
AcDbEntity
  8
D-STR
100
AcDbLine
 10
2612.430571223816
 20
1526.375457956625
 30
0.0
 11
2612.430571223816
 21
1522.904523956625
 31
0.0
  0
LINE
  5
976
330
1F
100
AcDbEntity
  8
D-STR
100
AcDbLine
 10
2610.458253723815
 20
1526.375457956625
 30
0.0
 11
2612.430571223816
 21
1522.904523956625
 31
0.0
  0
LINE
  5
977
330
1F
100
AcDbEntity
  8
D-STR
100
AcDbLine
 10
2628.676997223815
 20
1496.677473456625
 30
0.0
 11
2628.676997223815
 21
1586.925994956625
 31
0.0
  0
LINE
  5
978
330
1F
100
AcDbEntity
  8
D-STR
100
AcDbLine
 10
2631.676997223816
 20
1499.677473456625
 30
0.0
 11
2631.676997223816
 21
1583.925994956625
 31
0.0
  0
CIRCLE
  5
979
330
1F
100
AcDbEntity
  8
D-STR
100
AcDbCircle
 10
2366.670378223815
 20
1549.295677956625
 30
0.0
 40
2.581237999999999
  0
CIRCLE
  5
97A
330
1F
100
AcDbEntity
  8
D-STR
100
AcDbCircle
 10
2366.660473723815
 20
1549.290510456625
 30
0.0
 40
6.4746265
  0
CIRCLE
  5
97B
330
1F
100
AcDbEntity
  8
D-STR
100
AcDbCircle
 10
2366.660473723815
 20
1549.290510456625
 30
0.0
 40
4.6452805
  0
CIRCLE
  5
97C
330
1F
100
AcDbEntity
  8
D-STR
100
AcDbCircle
 10
2366.660473723815
 20
1549.290510456625
 30
0.0
 40
3.225901499999999
  0
CIRCLE
  5
97D
330
1F
100
AcDbEntity
  8
D-STR
100
AcDbCircle
 10
2366.660473723815
 20
1549.295677956625
 30
0.0
 40
8.092959999999999
  0
ARC
  5
97E
330
1F
100
AcDbEntity
  8
D-STR
100
AcDbCircle
 10
2334.635940723815
 20
1583.925994956625
 30
0.0
 40
3.0
100
AcDbArc
 50
90.0
 51
180.0
  0
LINE
  5
97F
330
1F
100
AcDbEntity
  8
D-STR
  6
DASHED
100
AcDbLine
 10
2339.429146723815
 20
1557.872243456625
 30
0.0
 11
2339.429146723815
 21
1550.577253456625
 31
0.0
  0
LINE
  5
980
330
1F
100
AcDbEntity
  8
D-STR
  6
DASHED
100
AcDbLine
 10
2339.429146723815
 20
1563.120846456625
 30
0.0
 11
2339.429146723815
 21
1561.324228956625
 31
0.0
  0
LINE
  5
981
330
1F
100
AcDbEntity
  8
D-STR
  6
DASHED
100
AcDbLine
 10
2331.635940723815
 20
1567.150754456625
 30
0.0
 11
2337.356060723815
 21
1564.283565956625
 31
0.0
  0
LWPOLYLINE
  5
982
330
1F
100
AcDbEntity
  8
D-STR
  6
DASHED
100
AcDbPolyline
 90
        3
 70
     0
 43
0.0
 10
2339.429146723815
 20
1547.180389456625
 10
2339.429146723815
 20
1540.272972956625
 10
2331.635940723815
 20
1537.237416956625
  0
LWPOLYLINE
  5
983
330
1F
100
AcDbEntity
  8
D-STR
100
AcDbPolyline
 90
        4
 70
     1
 43
0.0
 10
2352.520509723816
 20
1537.901024956625
 10
2380.799576223815
 20
1537.901024956625
 10
2380.799576223815
 20
1529.884287456625
 10
2352.520509723816
 20
1529.884287456625
  0
SPLINE
  5
984
330
1F
100
AcDbEntity
  8
D-STR
100
AcDbSpline
210
0.0
220
0.0
230
1.0
 70
    11
 71
     3
 72
    20
 73
    16
 74
     0
 42
0.0000000001
 43
0.0000000001
 40
0.0
 40
0.0
 40
0.0
 40
0.0
 40
1.0
 40
1.0
 40
1.0
 40
2.0
 40
2.0
 40
2.0
 40
3.0
 40
3.0
 40
3.0
 40
4.0
 40
4.0
 40
4.0
 40
5.0
 40
5.0
 40
5.0
 40
5.0
 10
2352.520509789994
 20
1537.901024845015
 30
0.0
 10
2352.520509789994
 20
1540.042151689632
 30
0.0
 10
2353.783998559527
 20
1560.578365882335
 30
0.0
 10
2366.659181664992
 20
1560.578365882335
 30
0.0
 10
2379.535226044332
 20
1560.578365882335
 30
0.0
 10
2380.799576087734
 20
1539.933631181819
 30
0.0
 10
2380.799576087734
 20
1537.901024845015
 30
0.0
 10
2380.799576087734
 20
1535.86841850821
 30
0.0
 10
2380.799576087734
 20
1529.884287648828
 30
0.0
 10
2380.799576087734
 20
1529.884287648828
 30
0.0
 10
2380.799576087734
 20
1529.884287648828
 30
0.0
 10
2352.520509789994
 20
1529.884287648828
 30
0.0
 10
2352.520509789994
 20
1529.884287648828
 30
0.0
 10
2352.520509789994
 20
1529.884287648828
 30
0.0
 10
2352.520509789994
 20
1535.761620548139
 30
0.0
 10
2352.520509789994
 20
1537.901024845015
 30
0.0
  0
SPLINE
  5
985
330
1F
100
AcDbEntity
  8
D-STR
100
AcDbSpline
210
0.0
220
0.0
230
1.0
 70
    11
 71
     3
 72
    20
 73
    16
 74
     0
 42
0.0000000001
 43
0.0000000001
 40
0.0
 40
0.0
 40
0.0
 40
0.0
 40
1.0
 40
1.0
 40
1.0
 40
2.0
 40
2.0
 40
2.0
 40
3.0
 40
3.0
 40
3.0
 40
4.0
 40
4.0
 40
4.0
 40
5.0
 40
5.0
 40
5.0
 40
5.0
 10
2351.814265215339
 20
1537.901024845015
 30
0.0
 10
2351.814265215339
 20
1539.826833221748
 30
0.0
 10
2351.945178843812
 20
1561.623952362367
 30
0.0
 10
2366.659181664992
 20
1561.623952362367
 30
0.0
 10
2381.374045760046
 20
1561.623952362367
 30
0.0
 10
2381.506681936262
 20
1540.483123911851
 30
0.0
 10
2381.506681936262
 20
1537.901024845015
 30
0.0
 10
2381.506681936262
 20
1535.318925778177
 30
0.0
 10
2380.799576087734
 20
1529.884287648828
 30
0.0
 10
2380.799576087734
 20
1529.884287648828
 30
0.0
 10
2380.799576087734
 20
1529.884287648828
 30
0.0
 10
2352.520509789994
 20
1529.884287648828
 30
0.0
 10
2352.520509789994
 20
1529.884287648828
 30
0.0
 10
2352.520509789994
 20
1529.884287648828
 30
0.0
 10
2351.814265215339
 20
1535.98210665925
 30
0.0
 10
2351.814265215339
 20
1537.901024845015
 30
0.0
  0
LINE
  5
986
330
1F
100
AcDbEntity
  8
D-STR
100
AcDbLine
 10
2351.472339723815
 20
1526.375457956625
 30
0.0
 11
2476.408766723815
 21
1526.375457956625
 31
0.0
  0
LINE
  5
987
330
1F
100
AcDbEntity
  8
D-STR
100
AcDbLine
 10
2488.380222723815
 20
1519.349185456625
 30
0.0
 11
2486.408766723815
 21
1515.878251956625
 31
0.0
  0
LINE
  5
988
330
1F
100
AcDbEntity
  8
D-STR
100
AcDbLine
 10
2486.408766723815
 20
1519.349185456625
 30
0.0
 11
2486.408766723815
 21
1515.878251956625
 31
0.0
  0
LINE
  5
989
330
1F
100
AcDbEntity
  8
D-STR
100
AcDbLine
 10
2488.380222723815
 20
1512.329803456625
 30
0.0
 11
2486.408766723815
 21
1508.858869956625
 31
0.0
  0
LINE
  5
98A
330
1F
100
AcDbEntity
  8
D-STR
100
AcDbLine
 10
2486.408766723815
 20
1512.329803456625
 30
0.0
 11
2486.408766723815
 21
1508.858869956625
 31
0.0
  0
LINE
  5
98B
330
1F
100
AcDbEntity
  8
D-STR
100
AcDbLine
 10
2476.408766723815
 20
1519.349185456625
 30
0.0
 11
2476.408766723815
 21
1515.878251956625
 31
0.0
  0
LINE
  5
98C
330
1F
100
AcDbEntity
  8
D-STR
100
AcDbLine
 10
2474.436449723816
 20
1519.349185456625
 30
0.0
 11
2476.408766723815
 21
1515.878251956625
 31
0.0
  0
LINE
  5
98D
330
1F
100
AcDbEntity
  8
D-STR
100
AcDbLine
 10
2476.408766723815
 20
1512.329803456625
 30
0.0
 11
2476.408766723815
 21
1508.858869956625
 31
0.0
  0
LINE
  5
98E
330
1F
100
AcDbEntity
  8
D-STR
100
AcDbLine
 10
2474.436449723816
 20
1512.329803456625
 30
0.0
 11
2476.408766723815
 21
1508.858869956625
 31
0.0
  0
LINE
  5
98F
330
1F
100
AcDbEntity
  8
D-STR
100
AcDbLine
 10
2476.408766723815
 20
1505.303531456625
 30
0.0
 11
2476.408766723815
 21
1501.832597456625
 31
0.0
  0
LINE
  5
990
330
1F
100
AcDbEntity
  8
D-STR
100
AcDbLine
 10
2474.436449723816
 20
1505.303531456625
 30
0.0
 11
2476.408766723815
 21
1501.832597456625
 31
0.0
  0
LINE
  5
991
330
1F
100
AcDbEntity
  8
D-STR
100
AcDbLine
 10
2488.380222723815
 20
1505.303531456625
 30
0.0
 11
2486.408766723815
 21
1501.832597456625
 31
0.0
  0
LINE
  5
992
330
1F
100
AcDbEntity
  8
D-STR
100
AcDbLine
 10
2486.408766723815
 20
1505.303531456625
 30
0.0
 11
2486.408766723815
 21
1501.832597456625
 31
0.0
  0
LINE
  5
993
330
1F
100
AcDbEntity
  8
D-STR
100
AcDbLine
 10
2351.472339723815
 20
1515.878251956625
 30
0.0
 11
2351.472339723815
 21
1519.349185456625
 31
0.0
  0
LINE
  5
994
330
1F
100
AcDbEntity
  8
D-STR
100
AcDbLine
 10
2353.444656723815
 20
1519.349185456625
 30
0.0
 11
2351.472339723815
 21
1515.878251956625
 31
0.0
  0
LINE
  5
995
330
1F
100
AcDbEntity
  8
D-STR
100
AcDbLine
 10
2351.472339723815
 20
1508.858869956625
 30
0.0
 11
2351.472339723815
 21
1512.329803456625
 31
0.0
  0
LINE
  5
996
330
1F
100
AcDbEntity
  8
D-STR
100
AcDbLine
 10
2353.444656723815
 20
1512.329803456625
 30
0.0
 11
2351.472339723815
 21
1508.858869956625
 31
0.0
  0
ARC
  5
997
330
1F
100
AcDbEntity
  8
D-STR
100
AcDbCircle
 10
2334.635940723815
 20
1499.677473456625
 30
0.0
 40
3.0
100
AcDbArc
 50
180.0
 51
270.0
  0
LINE
  5
998
330
1F
100
AcDbEntity
  8
D-STR
100
AcDbLine
 10
2351.472339723815
 20
1501.832597456625
 30
0.0
 11
2351.472339723815
 21
1505.303531456625
 31
0.0
  0
LINE
  5
999
330
1F
100
AcDbEntity
  8
D-STR
100
AcDbLine
 10
2353.444656723815
 20
1505.303531456625
 30
0.0
 11
2351.472339723815
 21
1501.832597456625
 31
0.0
  0
LINE
  5
99A
330
1F
100
AcDbEntity
  8
D-STR
100
AcDbLine
 10
2351.472339723815
 20
1505.303531456625
 30
0.0
 11
2476.408766723815
 21
1505.303531456625
 31
0.0
  0
LINE
  5
99B
330
1F
100
AcDbEntity
  8
D-STR
100
AcDbLine
 10
2476.408766723815
 20
1501.832597456625
 30
0.0
 11
2351.472339723815
 21
1501.832597456625
 31
0.0
  0
LINE
  5
99C
330
1F
100
AcDbEntity
  8
D-STR
100
AcDbLine
 10
2351.472339723815
 20
1512.329803456625
 30
0.0
 11
2476.408766723815
 21
1512.329803456625
 31
0.0
  0
LINE
  5
99D
330
1F
100
AcDbEntity
  8
D-STR
100
AcDbLine
 10
2476.408766723815
 20
1508.858869956625
 30
0.0
 11
2351.472339723815
 21
1508.858869956625
 31
0.0
  0
LINE
  5
99E
330
1F
100
AcDbEntity
  8
D-STR
100
AcDbLine
 10
2351.472339723815
 20
1519.349185456625
 30
0.0
 11
2476.408766723815
 21
1519.349185456625
 31
0.0
  0
LINE
  5
99F
330
1F
100
AcDbEntity
  8
D-STR
100
AcDbLine
 10
2476.408766723815
 20
1515.878251956625
 30
0.0
 11
2351.472339723815
 21
1515.878251956625
 31
0.0
  0
LINE
  5
9A0
330
1F
100
AcDbEntity
  8
D-STR
100
AcDbLine
 10
2476.408766723815
 20
1522.904523956625
 30
0.0
 11
2351.472339723815
 21
1522.904523956625
 31
0.0
  0
LINE
  5
9A1
330
1F
100
AcDbEntity
  8
D-STR
100
AcDbLine
 10
2476.408766723815
 20
1526.375457956625
 30
0.0
 11
2476.408766723815
 21
1522.904523956625
 31
0.0
  0
LINE
  5
9A2
330
1F
100
AcDbEntity
  8
D-STR
100
AcDbLine
 10
2474.436449723816
 20
1526.375457956625
 30
0.0
 11
2476.408766723815
 21
1522.904523956625
 31
0.0
  0
LINE
  5
9A3
330
1F
100
AcDbEntity
  8
D-STR
100
AcDbLine
 10
2488.380222723815
 20
1526.375457956625
 30
0.0
 11
2486.408766723815
 21
1522.904523956625
 31
0.0
  0
LINE
  5
9A4
330
1F
100
AcDbEntity
  8
D-STR
100
AcDbLine
 10
2486.408766723815
 20
1526.375457956625
 30
0.0
 11
2486.408766723815
 21
1522.904523956625
 31
0.0
  0
LINE
  5
9A5
330
1F
100
AcDbEntity
  8
D-STR
100
AcDbLine
 10
2351.472339723815
 20
1522.904523956625
 30
0.0
 11
2351.472339723815
 21
1526.375457956625
 31
0.0
  0
LINE
  5
9A6
330
1F
100
AcDbEntity
  8
D-STR
100
AcDbLine
 10
2353.444656723815
 20
1526.375457956625
 30
0.0
 11
2351.472339723815
 21
1522.904523956625
 31
0.0
  0
LINE
  5
9A7
330
1F
100
AcDbEntity
  8
D-STR
100
AcDbLine
 10
2334.635940723815
 20
1586.925994956625
 30
0.0
 11
2334.635940723815
 21
1496.677473456625
 31
0.0
  0
LINE
  5
9A8
330
1F
100
AcDbEntity
  8
D-STR
100
AcDbLine
 10
2331.635940723815
 20
1583.925994956625
 30
0.0
 11
2331.635940723815
 21
1499.677473456625
 31
0.0
  0
LINE
  5
9A9
330
1F
100
AcDbEntity
  8
D-STR
100
AcDbLine
 10
2334.635940723815
 20
1496.677473456625
 30
0.0
 11
2628.676997223815
 21
1496.677473456625
 31
0.0
  0
LINE
  5
9AA
330
1F
100
AcDbEntity
  8
D-STR
100
AcDbLine
 10
2628.676997223815
 20
1586.925994956625
 30
0.0
 11
2334.635940723815
 21
1586.925994956625
 31
0.0
  0
LINE
  5
9AB
330
1F
100
AcDbEntity
  8
D-STR
100
AcDbLine
 10
2628.676997223815
 20
1497.610632956625
 30
0.0
 11
2334.635940723815
 21
1497.610632956625
 31
0.0
  0
LINE
  5
9AC
330
1F
100
AcDbEntity
  8
D-STR
100
AcDbLine
 10
2628.676997223815
 20
1584.888681956626
 30
0.0
 11
2334.635940723815
 21
1584.888681956626
 31
0.0
  0
LINE
  5
9AD
330
1F
100
AcDbEntity
  8
D-STR
100
AcDbLine
 10
2486.408766723815
 20
1526.375457956625
 30
0.0
 11
2612.430571223816
 21
1526.375457956625
 31
0.0
  0
LINE
  5
9AE
330
1F
100
AcDbEntity
  8
D-STR
100
AcDbLine
 10
2612.430571223816
 20
1522.904523956625
 30
0.0
 11
2486.408766723815
 21
1522.904523956625
 31
0.0
  0
LINE
  5
9AF
330
1F
100
AcDbEntity
  8
D-STR
100
AcDbLine
 10
2486.408766723815
 20
1519.349185456625
 30
0.0
 11
2612.430571223816
 21
1519.349185456625
 31
0.0
  0
LINE
  5
9B0
330
1F
100
AcDbEntity
  8
D-STR
100
AcDbLine
 10
2612.430571223816
 20
1515.878251956625
 30
0.0
 11
2486.408766723815
 21
1515.878251956625
 31
0.0
  0
LINE
  5
9B1
330
1F
100
AcDbEntity
  8
D-STR
100
AcDbLine
 10
2486.408766723815
 20
1512.329803456625
 30
0.0
 11
2612.430571223816
 21
1512.329803456625
 31
0.0
  0
LINE
  5
9B2
330
1F
100
AcDbEntity
  8
D-STR
100
AcDbLine
 10
2612.430571223816
 20
1508.858869956625
 30
0.0
 11
2486.408766723815
 21
1508.858869956625
 31
0.0
  0
LINE
  5
9B3
330
1F
100
AcDbEntity
  8
D-STR
100
AcDbLine
 10
2486.408766723815
 20
1505.303531456625
 30
0.0
 11
2612.430571223816
 21
1505.303531456625
 31
0.0
  0
LINE
  5
9B4
330
1F
100
AcDbEntity
  8
D-STR
100
AcDbLine
 10
2612.430571223816
 20
1501.832597456625
 30
0.0
 11
2486.408766723815
 21
1501.832597456625
 31
0.0
  0
LINE
  5
9B5
330
1F
100
AcDbEntity
  8
D-STR
100
AcDbLine
 10
2331.635940723815
 20
1536.772755956624
 30
0.0
 11
2631.676997223816
 21
1536.772755956624
 31
0.0
  0
DIMENSION
  5
9B7
330
1F
100
AcDbEntity
  8
D-STR-DIM
100
AcDbDimension
  2
*D16
 10
2631.676997223816
 20
1400.473639478619
 30
0.0
 11
2481.656468973815
 21
1425.473639478619
 31
0.0
 70
    32
 71
     5
 42
600.0821130000003
  3
Standard2
100
AcDbAlignedDimension
 13
2331.635940723815
 23
1499.677473456625
 33
0.0
 14
2631.676997223816
 24
1499.677473456625
 34
0.0
100
AcDbRotatedDimension
  0
DIMENSION
  5
9D9
330
1F
100
AcDbEntity
  8
D-STR-DIM
100
AcDbDimension
  2
*D17
 10
2981.676997223816
 20
1400.473639478619
 30
0.0
 11
3131.697525473816
 21
1425.473639478619
 31
0.0
 70
    32
 71
     5
 42
600.0821130000003
  3
Standard2
100
AcDbAlignedDimension
 13
3281.718053723816
 23
1499.677473456625
 33
0.0
 14
2981.676997223816
 24
1499.677473456625
 34
0.0
 50
180.0
100
AcDbRotatedDimension
  0
LINE
  5
9DC
330
1F
100
AcDbEntity
  8
D-STR
100
AcDbLine
 10
3000.923423223816
 20
1501.832597456625
 30
0.0
 11
3126.945227723816
 21
1501.832597456625
 31
0.0
  0
LINE
  5
9DD
330
1F
100
AcDbEntity
  8
D-STR
100
AcDbLine
 10
3126.945227723816
 20
1505.303531456625
 30
0.0
 11
3000.923423223816
 21
1505.303531456625
 31
0.0
  0
LINE
  5
9DE
330
1F
100
AcDbEntity
  8
D-STR
100
AcDbLine
 10
3000.923423223816
 20
1508.858869956625
 30
0.0
 11
3126.945227723816
 21
1508.858869956625
 31
0.0
  0
LINE
  5
9DF
330
1F
100
AcDbEntity
  8
D-STR
100
AcDbLine
 10
3126.945227723816
 20
1512.329803456625
 30
0.0
 11
3000.923423223816
 21
1512.329803456625
 31
0.0
  0
LINE
  5
9E0
330
1F
100
AcDbEntity
  8
D-STR
100
AcDbLine
 10
3000.923423223816
 20
1515.878251956625
 30
0.0
 11
3126.945227723816
 21
1515.878251956625
 31
0.0
  0
LINE
  5
9E1
330
1F
100
AcDbEntity
  8
D-STR
100
AcDbLine
 10
3126.945227723816
 20
1519.349185456625
 30
0.0
 11
3000.923423223816
 21
1519.349185456625
 31
0.0
  0
LINE
  5
9E2
330
1F
100
AcDbEntity
  8
D-STR
100
AcDbLine
 10
3000.923423223816
 20
1522.904523956625
 30
0.0
 11
3126.945227723816
 21
1522.904523956625
 31
0.0
  0
LINE
  5
9E3
330
1F
100
AcDbEntity
  8
D-STR
100
AcDbLine
 10
3126.945227723816
 20
1526.375457956625
 30
0.0
 11
3000.923423223816
 21
1526.375457956625
 31
0.0
  0
LINE
  5
9E4
330
1F
100
AcDbEntity
  8
D-STR
100
AcDbLine
 10
3281.718053723816
 20
1536.772755956624
 30
0.0
 11
2981.676997223816
 21
1536.772755956624
 31
0.0
  0
LINE
  5
9E5
330
1F
100
AcDbEntity
  8
D-STR
100
AcDbLine
 10
2984.676997223815
 20
1584.888681956626
 30
0.0
 11
3278.718053723816
 21
1584.888681956626
 31
0.0
  0
LINE
  5
9E6
330
1F
100
AcDbEntity
  8
D-STR
100
AcDbLine
 10
2984.676997223815
 20
1497.610632956625
 30
0.0
 11
3278.718053723816
 21
1497.610632956625
 31
0.0
  0
LINE
  5
9E7
330
1F
100
AcDbEntity
  8
D-STR
100
AcDbLine
 10
2984.676997223815
 20
1586.925994956625
 30
0.0
 11
3278.718053723816
 21
1586.925994956625
 31
0.0
  0
LINE
  5
9E8
330
1F
100
AcDbEntity
  8
D-STR
100
AcDbLine
 10
3278.718053723816
 20
1496.677473456625
 30
0.0
 11
2984.676997223815
 21
1496.677473456625
 31
0.0
  0
LINE
  5
9E9
330
1F
100
AcDbEntity
  8
D-STR
100
AcDbLine
 10
3281.718053723816
 20
1583.925994956625
 30
0.0
 11
3281.718053723816
 21
1499.677473456625
 31
0.0
  0
LINE
  5
9EA
330
1F
100
AcDbEntity
  8
D-STR
100
AcDbLine
 10
3278.718053723816
 20
1586.925994956625
 30
0.0
 11
3278.718053723816
 21
1496.677473456625
 31
0.0
  0
SPLINE
  5
9EB
330
1F
100
AcDbEntity
  8
D-STR
100
AcDbSpline
210
0.0
220
0.0
230
1.0
 70
    11
 71
     3
 72
    20
 73
    16
 74
     0
 42
0.0000000001
 43
0.0000000001
 40
0.0
 40
0.0
 40
0.0
 40
0.0
 40
1.0
 40
1.0
 40
1.0
 40
2.0
 40
2.0
 40
2.0
 40
3.0
 40
3.0
 40
3.0
 40
4.0
 40
4.0
 40
4.0
 40
5.0
 40
5.0
 40
5.0
 40
5.0
 10
3261.539729232291
 20
1537.901024845015
 30
0.0
 10
3261.539729232291
 20
1539.826833221748
 30
0.0
 10
3261.408815603818
 20
1561.623952362367
 30
0.0
 10
3246.694812782639
 20
1561.623952362367
 30
0.0
 10
3231.979948687585
 20
1561.623952362367
 30
0.0
 10
3231.847312511369
 20
1540.483123911851
 30
0.0
 10
3231.847312511369
 20
1537.901024845015
 30
0.0
 10
3231.847312511369
 20
1535.318925778177
 30
0.0
 10
3232.554418359897
 20
1529.884287648828
 30
0.0
 10
3232.554418359897
 20
1529.884287648828
 30
0.0
 10
3232.554418359897
 20
1529.884287648828
 30
0.0
 10
3260.833484657637
 20
1529.884287648828
 30
0.0
 10
3260.833484657637
 20
1529.884287648828
 30
0.0
 10
3260.833484657637
 20
1529.884287648828
 30
0.0
 10
3261.539729232291
 20
1535.98210665925
 30
0.0
 10
3261.539729232291
 20
1537.901024845015
 30
0.0
  0
SPLINE
  5
9EC
330
1F
100
AcDbEntity
  8
D-STR
100
AcDbSpline
210
0.0
220
0.0
230
1.0
 70
    11
 71
     3
 72
    20
 73
    16
 74
     0
 42
0.0000000001
 43
0.0000000001
 40
0.0
 40
0.0
 40
0.0
 40
0.0
 40
1.0
 40
1.0
 40
1.0
 40
2.0
 40
2.0
 40
2.0
 40
3.0
 40
3.0
 40
3.0
 40
4.0
 40
4.0
 40
4.0
 40
5.0
 40
5.0
 40
5.0
 40
5.0
 10
3260.833484657637
 20
1537.901024845015
 30
0.0
 10
3260.833484657637
 20
1540.042151689632
 30
0.0
 10
3259.569995888104
 20
1560.578365882335
 30
0.0
 10
3246.694812782639
 20
1560.578365882335
 30
0.0
 10
3233.818768403299
 20
1560.578365882335
 30
0.0
 10
3232.554418359897
 20
1539.933631181819
 30
0.0
 10
3232.554418359897
 20
1537.901024845015
 30
0.0
 10
3232.554418359897
 20
1535.86841850821
 30
0.0
 10
3232.554418359897
 20
1529.884287648828
 30
0.0
 10
3232.554418359897
 20
1529.884287648828
 30
0.0
 10
3232.554418359897
 20
1529.884287648828
 30
0.0
 10
3260.833484657637
 20
1529.884287648828
 30
0.0
 10
3260.833484657637
 20
1529.884287648828
 30
0.0
 10
3260.833484657637
 20
1529.884287648828
 30
0.0
 10
3260.833484657637
 20
1535.761620548139
 30
0.0
 10
3260.833484657637
 20
1537.901024845015
 30
0.0
  0
LWPOLYLINE
  5
9ED
330
1F
100
AcDbEntity
  8
D-STR
100
AcDbPolyline
 90
        4
 70
     1
 43
0.0
 10
3260.833484723815
 20
1537.901024956625
 10
3232.554418223816
 20
1537.901024956625
 10
3232.554418223816
 20
1529.884287456625
 10
3260.833484723815
 20
1529.884287456625
  0
LINE
  5
9EE
330
1F
100
AcDbEntity
  8
D-STR
100
AcDbLine
 10
3136.945227723816
 20
1522.904523956625
 30
0.0
 11
3261.881654723816
 21
1522.904523956625
 31
0.0
  0
LINE
  5
9EF
330
1F
100
AcDbEntity
  8
D-STR
100
AcDbLine
 10
3136.945227723816
 20
1515.878251956625
 30
0.0
 11
3261.881654723816
 21
1515.878251956625
 31
0.0
  0
LINE
  5
9F0
330
1F
100
AcDbEntity
  8
D-STR
100
AcDbLine
 10
3261.881654723816
 20
1519.349185456625
 30
0.0
 11
3136.945227723816
 21
1519.349185456625
 31
0.0
  0
LINE
  5
9F1
330
1F
100
AcDbEntity
  8
D-STR
100
AcDbLine
 10
3136.945227723816
 20
1508.858869956625
 30
0.0
 11
3261.881654723816
 21
1508.858869956625
 31
0.0
  0
LINE
  5
9F2
330
1F
100
AcDbEntity
  8
D-STR
100
AcDbLine
 10
3261.881654723816
 20
1512.329803456625
 30
0.0
 11
3136.945227723816
 21
1512.329803456625
 31
0.0
  0
LINE
  5
9F3
330
1F
100
AcDbEntity
  8
D-STR
100
AcDbLine
 10
3136.945227723816
 20
1501.832597456625
 30
0.0
 11
3261.881654723816
 21
1501.832597456625
 31
0.0
  0
LINE
  5
9F4
330
1F
100
AcDbEntity
  8
D-STR
100
AcDbLine
 10
3261.881654723816
 20
1505.303531456625
 30
0.0
 11
3136.945227723816
 21
1505.303531456625
 31
0.0
  0
LINE
  5
9F5
330
1F
100
AcDbEntity
  8
D-STR
100
AcDbLine
 10
3261.881654723816
 20
1526.375457956625
 30
0.0
 11
3136.945227723816
 21
1526.375457956625
 31
0.0
  0
ARC
  5
9F6
330
1F
100
AcDbEntity
  8
D-STR
100
AcDbCircle
 10
3278.718053723816
 20
1499.677473456625
 30
0.0
 40
3.0
100
AcDbArc
 50
270.0
 51
0.000000000000007
  0
LINE
  5
9F7
330
1F
100
AcDbEntity
  8
D-STR
100
AcDbLine
 10
3259.909337723816
 20
1526.375457956625
 30
0.0
 11
3261.881654723816
 21
1522.904523956625
 31
0.0
  0
LINE
  5
9F8
330
1F
100
AcDbEntity
  8
D-STR
100
AcDbLine
 10
3261.881654723816
 20
1522.904523956625
 30
0.0
 11
3261.881654723816
 21
1526.375457956625
 31
0.0
  0
LINE
  5
9F9
330
1F
100
AcDbEntity
  8
D-STR
100
AcDbLine
 10
3259.909337723816
 20
1519.349185456625
 30
0.0
 11
3261.881654723816
 21
1515.878251956625
 31
0.0
  0
LINE
  5
9FA
330
1F
100
AcDbEntity
  8
D-STR
100
AcDbLine
 10
3261.881654723816
 20
1515.878251956625
 30
0.0
 11
3261.881654723816
 21
1519.349185456625
 31
0.0
  0
LINE
  5
9FB
330
1F
100
AcDbEntity
  8
D-STR
100
AcDbLine
 10
3259.909337723816
 20
1505.303531456625
 30
0.0
 11
3261.881654723816
 21
1501.832597456625
 31
0.0
  0
LINE
  5
9FC
330
1F
100
AcDbEntity
  8
D-STR
100
AcDbLine
 10
3261.881654723816
 20
1501.832597456625
 30
0.0
 11
3261.881654723816
 21
1505.303531456625
 31
0.0
  0
LINE
  5
9FD
330
1F
100
AcDbEntity
  8
D-STR
100
AcDbLine
 10
3259.909337723816
 20
1512.329803456625
 30
0.0
 11
3261.881654723816
 21
1508.858869956625
 31
0.0
  0
LINE
  5
9FE
330
1F
100
AcDbEntity
  8
D-STR
100
AcDbLine
 10
3261.881654723816
 20
1508.858869956625
 30
0.0
 11
3261.881654723816
 21
1512.329803456625
 31
0.0
  0
LINE
  5
9FF
330
1F
100
AcDbEntity
  8
D-STR
100
AcDbLine
 10
3138.917544723816
 20
1526.375457956625
 30
0.0
 11
3136.945227723816
 21
1522.904523956625
 31
0.0
  0
LINE
  5
A00
330
1F
100
AcDbEntity
  8
D-STR
100
AcDbLine
 10
3138.917544723816
 20
1519.349185456625
 30
0.0
 11
3136.945227723816
 21
1515.878251956625
 31
0.0
  0
LINE
  5
A01
330
1F
100
AcDbEntity
  8
D-STR
100
AcDbLine
 10
3138.917544723816
 20
1505.303531456625
 30
0.0
 11
3136.945227723816
 21
1501.832597456625
 31
0.0
  0
LINE
  5
A02
330
1F
100
AcDbEntity
  8
D-STR
100
AcDbLine
 10
3138.917544723816
 20
1512.329803456625
 30
0.0
 11
3136.945227723816
 21
1508.858869956625
 31
0.0
  0
LINE
  5
A03
330
1F
100
AcDbEntity
  8
D-STR
100
AcDbLine
 10
3126.945227723816
 20
1526.375457956625
 30
0.0
 11
3126.945227723816
 21
1522.904523956625
 31
0.0
  0
LINE
  5
A04
330
1F
100
AcDbEntity
  8
D-STR
100
AcDbLine
 10
3124.973771723816
 20
1526.375457956625
 30
0.0
 11
3126.945227723816
 21
1522.904523956625
 31
0.0
  0
LINE
  5
A05
330
1F
100
AcDbEntity
  8
D-STR
100
AcDbLine
 10
3126.945227723816
 20
1519.349185456625
 30
0.0
 11
3126.945227723816
 21
1515.878251956625
 31
0.0
  0
LINE
  5
A06
330
1F
100
AcDbEntity
  8
D-STR
100
AcDbLine
 10
3124.973771723816
 20
1519.349185456625
 30
0.0
 11
3126.945227723816
 21
1515.878251956625
 31
0.0
  0
LINE
  5
A07
330
1F
100
AcDbEntity
  8
D-STR
100
AcDbLine
 10
3126.945227723816
 20
1505.303531456625
 30
0.0
 11
3126.945227723816
 21
1501.832597456625
 31
0.0
  0
LINE
  5
A08
330
1F
100
AcDbEntity
  8
D-STR
100
AcDbLine
 10
3124.973771723816
 20
1505.303531456625
 30
0.0
 11
3126.945227723816
 21
1501.832597456625
 31
0.0
  0
LINE
  5
A09
330
1F
100
AcDbEntity
  8
D-STR
100
AcDbLine
 10
3126.945227723816
 20
1512.329803456625
 30
0.0
 11
3126.945227723816
 21
1508.858869956625
 31
0.0
  0
LINE
  5
A0A
330
1F
100
AcDbEntity
  8
D-STR
100
AcDbLine
 10
3124.973771723816
 20
1512.329803456625
 30
0.0
 11
3126.945227723816
 21
1508.858869956625
 31
0.0
  0
LINE
  5
A0B
330
1F
100
AcDbEntity
  8
D-STR
100
AcDbLine
 10
3136.945227723816
 20
1526.375457956625
 30
0.0
 11
3136.945227723816
 21
1522.904523956625
 31
0.0
  0
LINE
  5
A0C
330
1F
100
AcDbEntity
  8
D-STR
100
AcDbLine
 10
3136.945227723816
 20
1519.349185456625
 30
0.0
 11
3136.945227723816
 21
1515.878251956625
 31
0.0
  0
LINE
  5
A0D
330
1F
100
AcDbEntity
  8
D-STR
100
AcDbLine
 10
3136.945227723816
 20
1505.303531456625
 30
0.0
 11
3136.945227723816
 21
1501.832597456625
 31
0.0
  0
LINE
  5
A0E
330
1F
100
AcDbEntity
  8
D-STR
100
AcDbLine
 10
3136.945227723816
 20
1512.329803456625
 30
0.0
 11
3136.945227723816
 21
1508.858869956625
 31
0.0
  0
LWPOLYLINE
  5
A0F
330
1F
100
AcDbEntity
  8
D-STR
  6
DASHED
100
AcDbPolyline
 90
        3
 70
     0
 43
0.0
 10
3273.924847723816
 20
1547.180389456625
 10
3273.924847723816
 20
1540.272972956625
 10
3281.718053723816
 20
1537.237416956625
  0
LINE
  5
A10
330
1F
100
AcDbEntity
  8
D-STR
  6
DASHED
100
AcDbLine
 10
3281.718053723816
 20
1567.150754456625
 30
0.0
 11
3275.997933723816
 21
1564.283565956625
 31
0.0
  0
ARC
  5
A11
330
1F
100
AcDbEntity
  8
D-STR
100
AcDbCircle
 10
3278.718053723816
 20
1583.925994956625
 30
0.0
 40
3.0
100
AcDbArc
 50
0.000000000000007
 51
90.0
  0
CIRCLE
  5
A12
330
1F
100
AcDbEntity
  8
D-STR
100
AcDbCircle
 10
3246.693520723816
 20
1549.295677956625
 30
0.0
 40
8.092959999999999
  0
CIRCLE
  5
A13
330
1F
100
AcDbEntity
  8
D-STR
100
AcDbCircle
 10
3246.693520723816
 20
1549.290510456625
 30
0.0
 40
3.225901499999999
  0
CIRCLE
  5
A14
330
1F
100
AcDbEntity
  8
D-STR
100
AcDbCircle
 10
3246.693520723816
 20
1549.290510456625
 30
0.0
 40
4.6452805
  0
CIRCLE
  5
A15
330
1F
100
AcDbEntity
  8
D-STR
100
AcDbCircle
 10
3246.693520723816
 20
1549.290510456625
 30
0.0
 40
6.4746265
  0
CIRCLE
  5
A16
330
1F
100
AcDbEntity
  8
D-STR
100
AcDbCircle
 10
3246.683616223815
 20
1549.295677956625
 30
0.0
 40
2.581237999999999
  0
LINE
  5
A17
330
1F
100
AcDbEntity
  8
D-STR
  6
DASHED
100
AcDbLine
 10
3273.924847723816
 20
1563.120846456625
 30
0.0
 11
3273.924847723816
 21
1561.324228956625
 31
0.0
  0
LINE
  5
A18
330
1F
100
AcDbEntity
  8
D-STR
  6
DASHED
100
AcDbLine
 10
3273.924847723816
 20
1557.872243456625
 30
0.0
 11
3273.924847723816
 21
1550.577253456625
 31
0.0
  0
LINE
  5
A19
330
1F
100
AcDbEntity
  8
D-STR
100
AcDbLine
 10
2981.676997223816
 20
1499.677473456625
 30
0.0
 11
2981.676997223816
 21
1583.925994956625
 31
0.0
  0
LINE
  5
A1A
330
1F
100
AcDbEntity
  8
D-STR
100
AcDbLine
 10
2984.676997223815
 20
1496.677473456625
 30
0.0
 11
2984.676997223815
 21
1586.925994956625
 31
0.0
  0
LWPOLYLINE
  5
A1B
330
1F
100
AcDbEntity
  8
D-STR
100
AcDbPolyline
 90
        4
 70
     1
 43
0.0
 10
3030.838910223816
 20
1537.901024956625
 10
3002.560705223816
 20
1537.901024956625
 10
3002.560705223816
 20
1529.884287456625
 10
3030.838910223816
 20
1529.884287456625
  0
SPLINE
  5
A1C
330
1F
100
AcDbEntity
  8
D-STR
100
AcDbSpline
210
0.0
220
0.0
230
1.0
 70
    11
 71
     3
 72
    20
 73
    16
 74
     0
 42
0.0000000001
 43
0.0000000001
 40
0.0
 40
0.0
 40
0.0
 40
0.0
 40
1.0
 40
1.0
 40
1.0
 40
2.0
 40
2.0
 40
2.0
 40
3.0
 40
3.0
 40
3.0
 40
4.0
 40
4.0
 40
4.0
 40
5.0
 40
5.0
 40
5.0
 40
5.0
 10
3030.838910004858
 20
1537.901024845015
 30
0.0
 10
3030.838910004858
 20
1540.042151689632
 30
0.0
 10
3029.575421235328
 20
1560.578365882335
 30
0.0
 10
3016.699376855989
 20
1560.578365882335
 30
0.0
 10
3003.823332476647
 20
1560.578365882335
 30
0.0
 10
3002.560704980987
 20
1539.933631181819
 30
0.0
 10
3002.560704980987
 20
1537.901024845015
 30
0.0
 10
3002.560704980987
 20
1535.86841850821
 30
0.0
 10
3002.560704980987
 20
1529.884287648828
 30
0.0
 10
3002.560704980987
 20
1529.884287648828
 30
0.0
 10
3002.560704980987
 20
1529.884287648828
 30
0.0
 10
3030.838910004858
 20
1529.884287648828
 30
0.0
 10
3030.838910004858
 20
1529.884287648828
 30
0.0
 10
3030.838910004858
 20
1529.884287648828
 30
0.0
 10
3030.838910004858
 20
1535.761620548139
 30
0.0
 10
3030.838910004858
 20
1537.901024845015
 30
0.0
  0
SPLINE
  5
A1D
330
1F
100
AcDbEntity
  8
D-STR
100
AcDbSpline
210
0.0
220
0.0
230
1.0
 70
    11
 71
     3
 72
    20
 73
    16
 74
     0
 42
0.0000000001
 43
0.0000000001
 40
0.0
 40
0.0
 40
0.0
 40
0.0
 40
1.0
 40
1.0
 40
1.0
 40
2.0
 40
2.0
 40
2.0
 40
3.0
 40
3.0
 40
3.0
 40
4.0
 40
4.0
 40
4.0
 40
5.0
 40
5.0
 40
5.0
 40
5.0
 10
3031.546015853381
 20
1537.901024845015
 30
0.0
 10
3031.546015853381
 20
1539.826833221748
 30
0.0
 10
3031.415102224913
 20
1561.623952362367
 30
0.0
 10
3016.699376855989
 20
1561.623952362367
 30
0.0
 10
3001.986235308681
 20
1561.623952362367
 30
0.0
 10
3001.853599132463
 20
1540.483123911851
 30
0.0
 10
3001.853599132463
 20
1537.901024845015
 30
0.0
 10
3001.853599132463
 20
1535.318925778177
 30
0.0
 10
3002.560704980987
 20
1529.884287648828
 30
0.0
 10
3002.560704980987
 20
1529.884287648828
 30
0.0
 10
3002.560704980987
 20
1529.884287648828
 30
0.0
 10
3030.838910004858
 20
1529.884287648828
 30
0.0
 10
3030.838910004858
 20
1529.884287648828
 30
0.0
 10
3030.838910004858
 20
1529.884287648828
 30
0.0
 10
3031.546015853381
 20
1535.98210665925
 30
0.0
 10
3031.546015853381
 20
1537.901024845015
 30
0.0
  0
LINE
  5
A1E
330
1F
100
AcDbEntity
  8
D-STR
100
AcDbLine
 10
3002.895740723816
 20
1526.375457956625
 30
0.0
 11
3000.923423223816
 21
1522.904523956625
 31
0.0
  0
LINE
  5
A1F
330
1F
100
AcDbEntity
  8
D-STR
100
AcDbLine
 10
3000.923423223816
 20
1526.375457956625
 30
0.0
 11
3000.923423223816
 21
1522.904523956625
 31
0.0
  0
LINE
  5
A20
330
1F
100
AcDbEntity
  8
D-STR
100
AcDbLine
 10
3002.895740723816
 20
1519.349185456625
 30
0.0
 11
3000.923423223816
 21
1515.878251956625
 31
0.0
  0
LINE
  5
A21
330
1F
100
AcDbEntity
  8
D-STR
100
AcDbLine
 10
3000.923423223816
 20
1519.349185456625
 30
0.0
 11
3000.923423223816
 21
1515.878251956625
 31
0.0
  0
LINE
  5
A22
330
1F
100
AcDbEntity
  8
D-STR
100
AcDbLine
 10
3002.895740723816
 20
1505.303531456625
 30
0.0
 11
3000.923423223816
 21
1501.832597456625
 31
0.0
  0
LINE
  5
A23
330
1F
100
AcDbEntity
  8
D-STR
100
AcDbLine
 10
3000.923423223816
 20
1505.303531456625
 30
0.0
 11
3000.923423223816
 21
1501.832597456625
 31
0.0
  0
LINE
  5
A24
330
1F
100
AcDbEntity
  8
D-STR
100
AcDbLine
 10
3002.895740723816
 20
1512.329803456625
 30
0.0
 11
3000.923423223816
 21
1508.858869956625
 31
0.0
  0
LINE
  5
A25
330
1F
100
AcDbEntity
  8
D-STR
100
AcDbLine
 10
3000.923423223816
 20
1512.329803456625
 30
0.0
 11
3000.923423223816
 21
1508.858869956625
 31
0.0
  0
ARC
  5
A26
330
1F
100
AcDbEntity
  8
D-STR
100
AcDbCircle
 10
2984.676997223815
 20
1499.677473456625
 30
0.0
 40
3.0
100
AcDbArc
 50
180.0
 51
270.0
  0
CIRCLE
  5
A27
330
1F
100
AcDbEntity
  8
D-STR
100
AcDbCircle
 10
3016.698515723815
 20
1549.295677956625
 30
0.0
 40
8.093390499999999
  0
CIRCLE
  5
A28
330
1F
100
AcDbEntity
  8
D-STR
100
AcDbCircle
 10
3016.699807723815
 20
1549.290510456625
 30
0.0
 40
6.4746265
  0
CIRCLE
  5
A29
330
1F
100
AcDbEntity
  8
D-STR
100
AcDbCircle
 10
3016.698515723815
 20
1549.290510456625
 30
0.0
 40
4.645711499999999
  0
CIRCLE
  5
A2A
330
1F
100
AcDbEntity
  8
D-STR
100
AcDbCircle
 10
3016.699376723816
 20
1549.290510456625
 30
0.0
 40
3.226331999999999
  0
CIRCLE
  5
A2B
330
1F
100
AcDbEntity
  8
D-STR
100
AcDbCircle
 10
3016.689472223816
 20
1549.295677956625
 30
0.0
 40
2.580807
  0
LINE
  5
A2C
330
1F
100
AcDbEntity
  8
D-STR
  6
DASHED
100
AcDbLine
 10
2981.676997223816
 20
1567.150754456625
 30
0.0
 11
2987.397117223816
 21
1564.283565956625
 31
0.0
  0
LINE
  5
A2D
330
1F
100
AcDbEntity
  8
D-STR
  6
DASHED
100
AcDbLine
 10
2989.470203223816
 20
1563.120846456625
 30
0.0
 11
2989.470203223816
 21
1561.324228956625
 31
0.0
  0
LWPOLYLINE
  5
A2E
330
1F
100
AcDbEntity
  8
D-STR
  6
DASHED
100
AcDbPolyline
 90
        3
 70
     0
 43
0.0
 10
2989.470203223816
 20
1547.180389456625
 10
2989.470203223816
 20
1540.272972956625
 10
2981.676997223816
 20
1537.237416956625
  0
LINE
  5
A2F
330
1F
100
AcDbEntity
  8
D-STR
  6
DASHED
100
AcDbLine
 10
2989.470203223816
 20
1557.872243456625
 30
0.0
 11
2989.470203223816
 21
1550.577253456625
 31
0.0
  0
ARC
  5
A30
330
1F
100
AcDbEntity
  8
D-STR
100
AcDbCircle
 10
2984.676997223815
 20
1583.925994956625
 30
0.0
 40
3.0
100
AcDbArc
 50
90.0
 51
180.0
  0
DIMENSION
  5
A74
330
1F
100
AcDbEntity
  8
D-STR-DIM
100
AcDbDimension
  2
*D18
 10
2981.676997223816
 20
1400.473639478619
 30
0.0
 11
2806.676997223815
 21
1425.473639478619
 31
0.0
 70
    32
 71
     5
 42
700.0
  3
Standard2
100
AcDbAlignedDimension
 13
2631.676997223816
 23
1499.677473456625
 33
0.0
 14
2981.676997223816
 24
1499.677473456625
 34
0.0
100
AcDbRotatedDimension
  0
DIMENSION
  5
AA5
330
1F
100
AcDbEntity
  8
D-STR-DIM
100
AcDbDimension
  2
*D19
 10
3281.718053723816
 20
1320.473639478619
 30
0.0
 11
2806.676997223815
 21
1345.473639478619
 31
0.0
 70
    32
 71
     5
 42
1900.164226
  3
Standard2
100
AcDbAlignedDimension
 13
2331.635940723815
 23
1499.677473456625
 33
0.0
 14
3281.718053723816
 24
1499.677473456625
 34
0.0
100
AcDbRotatedDimension
  0
LINE
  5
B04
102
{ACAD_REACTORS
330
B26
102
}
330
1F
100
AcDbEntity
  8
D-STR-DIM
100
AcDbLine
 10
2181.676997223815
 20
1320.473639478619
 30
0.0
 11
2181.676997223815
 21
1758.913602016079
 31
0.0
  0
LINE
  5
B05
102
{ACAD_REACTORS
330
B26
102
}
330
1F
100
AcDbEntity
  8
D-STR-DIM
100
AcDbLine
 10
3431.676997223815
 20
1320.473639478619
 30
0.0
 11
3431.676997223815
 21
1758.913602016079
 31
0.0
  0
DIMENSION
  5
B0F
102
{ACAD_XDICTIONARY
360
B1C
102
}
102
{ACAD_REACTORS
330
B26
102
}
330
1F
100
AcDbEntity
  8
D-STR-DIM
100
AcDbDimension
  2
*D20
 10
3431.676997223815
 20
1184.186040302798
 30
0.0
 11
2806.676997223815
 21
1209.186040302798
 31
0.0
 70
    32
 71
     5
 42
2500.0
  3
Standard2
100
AcDbAlignedDimension
 13
2181.676997223815
 23
1320.473639478619
 33
0.0
 14
3431.676997223815
 24
1320.473639478619
 34
0.0
100
AcDbRotatedDimension
  0
MTEXT
  5
B27
330
1F
100
AcDbEntity
  8
D-STR-TXT
370
    -3
100
AcDbMText
 10
2806.676997223815
 20
1814.752281215111
 30
0.0
 40
30.0
 41
0.0
 71
     5
 72
     1
  1
（普通車　標準設置例）
 73
     1
 44
1.0
  0
MTEXT
  5
B45
330
1F
100
AcDbEntity
  8
D-STR-DIM
100
AcDbMText
 10
3406.676997223815
 20
1539.69362074735
 30
0.0
 40
30.0
 41
0.0
 71
     5
 72
     1
  1
区画ライン
 11
0.0000000000000001
 21
1.0
 31
0.0
 73
     1
 44
1.0
  0
MTEXT
  5
B46
330
1F
100
AcDbEntity
  8
D-STR-DIM
100
AcDbMText
 10
2156.676997223815
 20
1539.69362074735
 30
0.0
 40
30.0
 41
0.0
 71
     5
 72
     1
  1
区画ライン
 11
0.0000000000000001
 21
1.0
 31
0.0
 73
     1
 44
1.0
  0
MTEXT
  5
B48
330
1F
100
AcDbEntity
  8
D-STR-DIM
100
AcDbMText
 10
2361.141481799256
 20
420.8288745360845
 30
0.0
 40
30.0
 41
0.0
 71
     5
 72
     1
  1
2.5kg/缶
 73
     1
 44
1.0
  0
MTEXT
  5
B49
330
1F
100
AcDbEntity
  8
D-STR-DIM
100
AcDbMText
 10
2361.141481799256
 20
500.8288745360845
 30
0.0
 40
30.0
 41
0.0
 71
     5
 72
     1
  1
20kg/缶
 73
     1
 44
1.0
  0
VIEWPORT
  5
808
330
1B
100
AcDbEntity
 67
     1
  8
0
100
AcDbViewport
 10
142.5892486572265
 20
99.11291408538819
 30
0.0
 40
366.3982793015571
 41
222.1517806396484
 68
     1
 69
     1
 12
142.5892486572265
 22
99.11291408538819
 13
0.0
 23
0.0
 14
10.0
 24
10.0
 15
10.0
 25
10.0
 16
0.0
 26
0.0
 36
1.0
 17
0.0
 27
0.0
 37
0.0
 42
50.0
 43
0.0
 44
0.0
 45
222.1517806396484
 50
0.0
 51
0.0
 72
   100
 90
    32800
  1

281
     0
 71
     1
 74
     0
110
0.0
120
0.0
130
0.0
111
1.0
121
0.0
131
0.0
112
0.0
122
1.0
132
0.0
 79
     0
146
0.0
  0
VIEWPORT
  5
80A
330
1B
100
AcDbEntity
 67
     1
  8
D-STR
100
AcDbViewport
 10
142.5892491340637
 20
99.11291456222535
 30
0.0
 40
228.1427986145019
 41
158.5806632995605
 68
     2
 69
     2
 12
1477.921674726174
 22
1177.366486641716
 13
0.0
 23
0.0
 14
10.0
 24
10.0
 15
10.0
 25
10.0
 16
0.0
 26
0.0
 36
1.0
 17
0.0
 27
0.0
 37
0.0
 42
50.0
 43
0.0
 44
0.0
 45
2046.90883612403
 50
0.0
 51
0.0
 72
   100
 90
    32864
  1

281
     0
 71
     1
 74
     0
110
0.0
120
0.0
130
0.0
111
1.0
121
0.0
131
0.0
112
0.0
122
1.0
132
0.0
 79
     0
146
0.0
  0
ENDSEC
  0
SECTION
  2
OBJECTS
  0
DICTIONARY
  5
C
330
0
100
AcDbDictionary
281
     1
  3
ACAD_GROUP
350
D
  3
ACAD_LAYOUT
350
1A
  3
ACAD_MLINESTYLE
350
17
  3
ACAD_PLOTSETTINGS
350
19
  3
ACAD_PLOTSTYLENAME
350
E
  3
AcDbVariableDictionary
350
679
  3
ASE_INDEX_DICTIONARY
350
675
  0
DICTIONARY
  5
B1C
330
B0F
100
AcDbDictionary
280
     1
281
     1
  3
ACAD_DIMASSOC
360
B26
  0
DICTIONARY
  5
D
102
{ACAD_REACTORS
330
C
102
}
330
C
100
AcDbDictionary
281
     1
  0
DICTIONARY
  5
1A
102
{ACAD_REACTORS
330
C
102
}
330
C
100
AcDbDictionary
281
     1
  3
Model
350
22
  3
ﾚｲｱｳﾄ1
350
1E
  3
ﾚｲｱｳﾄ2
350
26
  0
DICTIONARY
  5
17
102
{ACAD_REACTORS
330
C
102
}
330
C
100
AcDbDictionary
281
     1
  3
Standard
350
18
  0
DICTIONARY
  5
19
102
{ACAD_REACTORS
330
C
102
}
330
C
100
AcDbDictionary
281
     1
  0
ACDBDICTIONARYWDFLT
  5
E
102
{ACAD_REACTORS
330
C
102
}
330
C
100
AcDbDictionary
281
     1
  3
Normal
350
F
100
AcDbDictionaryWithDefault
340
F
  0
DICTIONARY
  5
679
102
{ACAD_REACTORS
330
C
102
}
330
C
100
AcDbDictionary
281
     1
  3
DIMASSOC
350
67B
  3
HIDETEXT
350
67A
  0
DICTIONARY
  5
675
102
{ACAD_REACTORS
330
C
102
}
330
C
100
AcDbDictionary
281
     1
  3
ASEBlockHierarchyIndexRecord
350
677
1001
DCO15
1040
1627388154.441
  0
DIMASSOC
  5
B26
102
{ACAD_REACTORS
330
B1C
102
}
330
B1C
100
AcDbDimAssoc
330
B0F
 90
        3
 70
     0
 71
     0
  1
AcDbOsnapPointRef
 72
    13
331
B04
 73
     2
 91
        0
 40
0.0
 10
2181.676997223815
 20
1320.473639478619
 30
0.0
 75
     0
  1
AcDbOsnapPointRef
 72
    13
331
B05
 73
     2
 91
        0
 40
0.0
 10
3431.676997223815
 20
1320.473639478619
 30
0.0
 75
     0
  0
LAYOUT
  5
22
102
{ACAD_REACTORS
330
1A
102
}
330
1A
100
AcDbPlotSettings
  1

  2
RICOH IPSiO NX620 RPCS
  4
A4
  6

 40
5.873749732971191
 41
5.873747825622558
 42
5.873748779296875
 43
5.873748779296875
 44
209.9733276367187
 45
296.9259948730469
 46
0.0
 47
0.0
 48
0.0
 49
0.0
140
0.0
141
0.0
142
1.0
143
1.0
 70
 11952
 72
     1
 73
     1
 74
     0
  7
monochrome.ctb
 75
     0
147
1.0
148
-387.6316637256207
149
233.5816456280738
100
AcDbLayout
  1
Model
 70
     1
 71
     0
 10
0.0
 20
0.0
 11
12.0
 21
9.0
 12
0.0
 22
0.0
 32
0.0
 14
0.0
 24
0.0
 34
0.0
 15
0.0
 25
0.0
 35
0.0
146
0.0
 13
0.0
 23
0.0
 33
0.0
 16
1.0
 26
0.0
 36
0.0
 17
0.0
 27
1.0
 37
0.0
 76
     0
330
1F
  0
LAYOUT
  5
1E
102
{ACAD_REACTORS
330
1A
102
}
330
1A
100
AcDbPlotSettings
  1

  2
RICOH IPSiO NX620 RPCS
  4
A4
  6

 40
5.873749732971191
 41
5.873747825622558
 42
5.873748779296875
 43
5.873748779296875
 44
209.9733276367187
 45
296.9259948730469
 46
0.0
 47
0.0
 48
0.0
 49
0.0
140
0.0
141
0.0
142
1.0
143
1.0
 70
   688
 72
     1
 73
     1
 74
     5
  7
monochrome.ctb
 75
    16
147
1.0
148
0.0
149
0.0
100
AcDbLayout
  1
ﾚｲｱｳﾄ1
 70
     1
 71
     1
 10
-5.873748779296875
 20
-5.873749732971191
 11
291.05224609375
 21
204.0995779037475
 12
0.0
 22
0.0
 32
0.0
 14
28.51784982681273
 24
19.82258291244505
 34
0.0
 15
256.6606484413147
 25
178.4032462120056
 35
0.0
146
0.0
 13
0.0
 23
0.0
 33
0.0
 16
1.0
 26
0.0
 36
0.0
 17
0.0
 27
1.0
 37
0.0
 76
     0
330
1B
331
808
  0
LAYOUT
  5
26
102
{ACAD_REACTORS
330
1A
102
}
330
1A
100
AcDbPlotSettings
  1

  2
RICOH IPSiO NX620 RPCS
  4

  6

 40
0.0
 41
0.0
 42
0.0
 43
0.0
 44
0.0
 45
0.0
 46
0.0
 47
0.0
 48
0.0
 49
0.0
140
0.0
141
0.0
142
1.0
143
1.0
 70
   688
 72
     0
 73
     0
 74
     5
  7
monochrome.ctb
 75
    16
147
1.0
148
0.0
149
0.0
100
AcDbLayout
  1
ﾚｲｱｳﾄ2
 70
     1
 71
     2
 10
0.0
 20
0.0
 11
12.0
 21
9.0
 12
0.0
 22
0.0
 32
0.0
 14
0.0
 24
0.0
 34
0.0
 15
0.0
 25
0.0
 35
0.0
146
0.0
 13
0.0
 23
0.0
 33
0.0
 16
1.0
 26
0.0
 36
0.0
 17
0.0
 27
1.0
 37
0.0
 76
     0
330
23
  0
MLINESTYLE
  5
18
102
{ACAD_REACTORS
330
17
102
}
330
17
100
AcDbMlineStyle
  2
STANDARD
 70
     0
  3

 62
   256
 51
90.0
 52
90.0
 71
     2
 49
0.5
 62
   256
  6
BYLAYER
 49
-0.5
 62
   256
  6
BYLAYER
  0
ACDBPLACEHOLDER
  5
F
102
{ACAD_REACTORS
330
E
102
}
330
E
  0
DICTIONARYVAR
  5
67B
102
{ACAD_REACTORS
330
679
102
}
330
679
100
DictionaryVariables
280
     0
  1
2
  0
DICTIONARYVAR
  5
67A
102
{ACAD_REACTORS
330
679
102
}
330
679
100
DictionaryVariables
280
     0
  1
1
  0
XRECORD
  5
677
102
{ACAD_REACTORS
330
675
102
}
330
675
100
AcDbXrecord
280
     1
330
B09
330
B0A
330
601
330
602
330
60A
330
60B
330
613
330
614
330
61C
330
61D
330
625
330
626
330
62E
330
62F
330
637
330
638
330
640
330
641
330
649
330
64A
330
652
330
653
330
65B
330
65C
330
664
330
665
330
66D
330
66E
330
B72
330
B73
330
B60
330
B61
330
B69
330
B6A
330
B57
330
B58
330
B4E
330
B4F
330
0
330
0
  0
ENDSEC
  0
EOF
