  0
SECTION
  2
HEADER
  9
$ACADVER
  1
AC1015
  9
$ACADMAINTVER
 70
    14
  9
$DWGCODEPAGE
  3
ANSI_932
  9
$INSBASE
 10
0.0
 20
0.0
 30
0.0
  9
$EXTMIN
 10
180.6836364272168
 20
137.5300923354177
 30
0.0
  9
$EXTMAX
 10
8580.683636427217
 20
6077.530092335418
 30
0.0
  9
$LIMMIN
 10
0.0
 20
0.0
  9
$LIMMAX
 10
420.0
 20
297.0
  9
$ORTHOMODE
 70
     0
  9
$REGENMODE
 70
     1
  9
$FILLMODE
 70
     1
  9
$QTEXTMODE
 70
     0
  9
$MIRRTEXT
 70
     1
  9
$LTSCALE
 40
1.0
  9
$ATTMODE
 70
     1
  9
$TEXTSIZE
 40
2.5
  9
$TRACEWID
 40
1.0
  9
$TEXTSTYLE
  7
Standard
  9
$CLAYER
  8
D-STR
  9
$CELTYPE
  6
ByLayer
  9
$CECOLOR
 62
   256
  9
$CELTSCALE
 40
1.0
  9
$DISPSILH
 70
     0
  9
$DIMSCALE
 40
10.0
  9
$DIMASZ
 40
2.0
  9
$DIMEXO
 40
1.0
  9
$DIMDLI
 40
10.0
  9
$DIMRND
 40
0.0
  9
$DIMDLE
 40
0.0
  9
$DIMEXE
 40
2.0
  9
$DIMTP
 40
0.0
  9
$DIMTM
 40
0.0
  9
$DIMTXT
 40
3.0
  9
$DIMCEN
 40
0.09
  9
$DIMTSZ
 40
0.0
  9
$DIMTOL
 70
     0
  9
$DIMLIM
 70
     0
  9
$DIMTIH
 70
     0
  9
$DIMTOH
 70
     0
  9
$DIMSE1
 70
     0
  9
$DIMSE2
 70
     0
  9
$DIMTAD
 70
     1
  9
$DIMZIN
 70
     0
  9
$DIMBLK
  1

  9
$DIMASO
 70
     1
  9
$DIMSHO
 70
     1
  9
$DIMPOST
  1

  9
$DIMAPOST
  1

  9
$DIMALT
 70
     0
  9
$DIMALTD
 70
     2
  9
$DIMALTF
 40
25.4
  9
$DIMLFAC
 40
1.0
  9
$DIMTOFL
 70
     1
  9
$DIMTVP
 40
0.0
  9
$DIMTIX
 70
     0
  9
$DIMSOXD
 70
     0
  9
$DIMSAH
 70
     1
  9
$DIMBLK1
  1
OPEN30
  9
$DIMBLK2
  1
OPEN30
  9
$DIMSTYLE
  2
STANDARD
  9
$DIMCLRD
 70
   256
  9
$DIMCLRE
 70
   256
  9
$DIMCLRT
 70
   256
  9
$DIMTFAC
 40
1.0
  9
$DIMGAP
 40
1.0
  9
$DIMJUST
 70
     0
  9
$DIMSD1
 70
     0
  9
$DIMSD2
 70
     0
  9
$DIMTOLJ
 70
     1
  9
$DIMTZIN
 70
     0
  9
$DIMALTZ
 70
     0
  9
$DIMALTTZ
 70
     0
  9
$DIMUPT
 70
     0
  9
$DIMDEC
 70
     0
  9
$DIMTDEC
 70
     0
  9
$DIMALTU
 70
     2
  9
$DIMALTTD
 70
     2
  9
$DIMTXSTY
  7
Standard
  9
$DIMAUNIT
 70
     0
  9
$DIMADEC
 70
     0
  9
$DIMALTRND
 40
0.0
  9
$DIMAZIN
 70
     0
  9
$DIMDSEP
 70
    46
  9
$DIMATFIT
 70
     3
  9
$DIMFRAC
 70
     0
  9
$DIMLDRBLK
  1
OPEN30
  9
$DIMLUNIT
 70
     2
  9
$DIMLWD
 70
    -2
  9
$DIMLWE
 70
    -2
  9
$DIMTMOVE
 70
     2
  9
$LUNITS
 70
     2
  9
$LUPREC
 70
     4
  9
$SKETCHINC
 40
1.0
  9
$FILLETRAD
 40
10.0
  9
$AUNITS
 70
     0
  9
$AUPREC
 70
     0
  9
$MENU
  1
.
  9
$ELEVATION
 40
0.0
  9
$PELEVATION
 40
0.0
  9
$THICKNESS
 40
0.0
  9
$LIMCHECK
 70
     0
  9
$CHAMFERA
 40
10.0
  9
$CHAMFERB
 40
10.0
  9
$CHAMFERC
 40
20.0
  9
$CHAMFERD
 40
0.0
  9
$SKPOLY
 70
     0
  9
$TDCREATE
 40
2454258.400533981
  9
$TDUCREATE
 40
2454258.025533981
  9
$TDUPDATE
 40
2454642.399714062
  9
$TDUUPDATE
 40
2454642.024714062
  9
$TDINDWG
 40
0.0019647338
  9
$TDUSRTIMER
 40
0.0019645486
  9
$USRTIMER
 70
     1
  9
$ANGBASE
 50
0.0
  9
$ANGDIR
 70
     0
  9
$PDMODE
 70
     0
  9
$PDSIZE
 40
0.0
  9
$PLINEWID
 40
0.0
  9
$SPLFRAME
 70
     0
  9
$SPLINETYPE
 70
     6
  9
$SPLINESEGS
 70
     8
  9
$HANDSEED
  5
FC0
  9
$SURFTAB1
 70
     6
  9
$SURFTAB2
 70
     6
  9
$SURFTYPE
 70
     6
  9
$SURFU
 70
     6
  9
$SURFV
 70
     6
  9
$UCSBASE
  2

  9
$UCSNAME
  2

  9
$UCSORG
 10
0.0
 20
0.0
 30
0.0
  9
$UCSXDIR
 10
1.0
 20
0.0
 30
0.0
  9
$UCSYDIR
 10
0.0
 20
1.0
 30
0.0
  9
$UCSORTHOREF
  2

  9
$UCSORTHOVIEW
 70
     0
  9
$UCSORGTOP
 10
0.0
 20
0.0
 30
0.0
  9
$UCSORGBOTTOM
 10
0.0
 20
0.0
 30
0.0
  9
$UCSORGLEFT
 10
0.0
 20
0.0
 30
0.0
  9
$UCSORGRIGHT
 10
0.0
 20
0.0
 30
0.0
  9
$UCSORGFRONT
 10
0.0
 20
0.0
 30
0.0
  9
$UCSORGBACK
 10
0.0
 20
0.0
 30
0.0
  9
$PUCSBASE
  2

  9
$PUCSNAME
  2

  9
$PUCSORG
 10
0.0
 20
0.0
 30
0.0
  9
$PUCSXDIR
 10
1.0
 20
0.0
 30
0.0
  9
$PUCSYDIR
 10
0.0
 20
1.0
 30
0.0
  9
$PUCSORTHOREF
  2

  9
$PUCSORTHOVIEW
 70
     0
  9
$PUCSORGTOP
 10
0.0
 20
0.0
 30
0.0
  9
$PUCSORGBOTTOM
 10
0.0
 20
0.0
 30
0.0
  9
$PUCSORGLEFT
 10
0.0
 20
0.0
 30
0.0
  9
$PUCSORGRIGHT
 10
0.0
 20
0.0
 30
0.0
  9
$PUCSORGFRONT
 10
0.0
 20
0.0
 30
0.0
  9
$PUCSORGBACK
 10
0.0
 20
0.0
 30
0.0
  9
$USERI1
 70
     0
  9
$USERI2
 70
     0
  9
$USERI3
 70
     0
  9
$USERI4
 70
     0
  9
$USERI5
 70
     0
  9
$USERR1
 40
0.0
  9
$USERR2
 40
0.0
  9
$USERR3
 40
0.0
  9
$USERR4
 40
0.0
  9
$USERR5
 40
0.0
  9
$WORLDVIEW
 70
     1
  9
$SHADEDGE
 70
     3
  9
$SHADEDIF
 70
    70
  9
$TILEMODE
 70
     1
  9
$MAXACTVP
 70
    64
  9
$PINSBASE
 10
0.0
 20
0.0
 30
0.0
  9
$PLIMCHECK
 70
     0
  9
$PEXTMIN
 10
1.000000000000000E+20
 20
1.000000000000000E+20
 30
1.000000000000000E+20
  9
$PEXTMAX
 10
-1.000000000000000E+20
 20
-1.000000000000000E+20
 30
-1.000000000000000E+20
  9
$PLIMMIN
 10
0.0
 20
0.0
  9
$PLIMMAX
 10
420.0
 20
297.0
  9
$UNITMODE
 70
     0
  9
$VISRETAIN
 70
     1
  9
$PLINEGEN
 70
     0
  9
$PSLTSCALE
 70
     1
  9
$TREEDEPTH
 70
  3020
  9
$CMLSTYLE
  2
Standard
  9
$CMLJUST
 70
     0
  9
$CMLSCALE
 40
20.0
  9
$PROXYGRAPHICS
 70
     1
  9
$MEASUREMENT
 70
     1
  9
$CELWEIGHT
370
    -1
  9
$ENDCAPS
280
     0
  9
$JOINSTYLE
280
     0
  9
$LWDISPLAY
290
     0
  9
$INSUNITS
 70
     4
  9
$HYPERLINKBASE
  1

  9
$STYLESHEET
  1

  9
$XEDIT
290
     1
  9
$CEPSNTYPE
380
     0
  9
$PSTYLEMODE
290
     1
  9
$FINGERPRINTGUID
  2
{9EDA6CA7-8DF4-4B69-8CFA-3B8E3FCA5820}
  9
$VERSIONGUID
  2
{00EB1890-E467-4E5B-99F7-46EF42154994}
  9
$EXTNAMES
290
     1
  9
$PSVPSCALE
 40
0.0
  9
$OLESTARTUP
290
     0
  0
ENDSEC
  0
SECTION
  2
CLASSES
  0
CLASS
  1
ACDBDICTIONARYWDFLT
  2
AcDbDictionaryWithDefault
  3
AutoCAD 2000
 90
        0
280
     0
281
     0
  0
CLASS
  1
ACDBPLACEHOLDER
  2
AcDbPlaceHolder
  3
AutoCAD 2000
 90
        0
280
     0
281
     0
  0
CLASS
  1
LAYOUT
  2
AcDbLayout
  3
AutoCAD 2000
 90
        0
280
     0
281
     0
  0
CLASS
  1
DICTIONARYVAR
  2
AcDbDictionaryVar
  3
AutoCAD 2000
 90
        0
280
     0
281
     0
  0
ENDSEC
  0
SECTION
  2
TABLES
  0
TABLE
  2
VPORT
  5
8
330
0
100
AcDbSymbolTable
 70
     2
  0
VPORT
  5
FBF
330
8
100
AcDbSymbolTableRecord
100
AcDbViewportTableRecord
  2
*Active
 70
     0
 10
0.0
 20
0.0
 11
1.0
 21
1.0
 12
4713.117288156101
 22
3107.484352413268
 13
0.0
 23
0.0
 14
10.0
 24
10.0
 15
10.0
 25
10.0
 16
0.0
 26
0.0
 36
1.0
 17
0.0
 27
0.0
 37
0.0
 40
5989.59540449477
 41
1.64931506849315
 42
50.0
 43
0.0
 44
0.0
 50
0.0
 51
0.0
 71
     0
 72
   100
 73
     1
 74
     3
 75
     0
 76
     0
 77
     0
 78
     0
281
     0
 65
     1
110
0.0
120
0.0
130
0.0
111
1.0
121
0.0
131
0.0
112
0.0
122
1.0
132
0.0
 79
     0
146
0.0
  0
ENDTAB
  0
TABLE
  2
LTYPE
  5
5
330
0
100
AcDbSymbolTable
 70
     1
  0
LTYPE
  5
14
330
5
100
AcDbSymbolTableRecord
100
AcDbLinetypeTableRecord
  2
ByBlock
 70
     0
  3

 72
    65
 73
     0
 40
0.0
  0
LTYPE
  5
15
330
5
100
AcDbSymbolTableRecord
100
AcDbLinetypeTableRecord
  2
ByLayer
 70
     0
  3

 72
    65
 73
     0
 40
0.0
  0
LTYPE
  5
16
330
5
100
AcDbSymbolTableRecord
100
AcDbLinetypeTableRecord
  2
Continuous
 70
     0
  3
Solid line
 72
    65
 73
     0
 40
0.0
  0
ENDTAB
  0
TABLE
  2
LAYER
  5
2
330
0
100
AcDbSymbolTable
 70
     6
  0
LAYER
  5
10
330
2
100
AcDbSymbolTableRecord
100
AcDbLayerTableRecord
  2
0
 70
     0
 62
     7
  6
Continuous
370
    -3
390
F
  0
LAYER
  5
3ED
330
2
100
AcDbSymbolTableRecord
100
AcDbLayerTableRecord
  2
DEFPOINTS
 70
     0
 62
     7
  6
Continuous
290
     0
370
    -3
390
F
  0
LAYER
  5
3EE
330
2
100
AcDbSymbolTableRecord
100
AcDbLayerTableRecord
  2
D-STR
 70
     0
 62
     1
  6
Continuous
370
    -3
390
F
  0
LAYER
  5
3EF
330
2
100
AcDbSymbolTableRecord
100
AcDbLayerTableRecord
  2
D-STR-TXT
 70
     0
 62
     7
  6
Continuous
370
    15
390
F
  0
LAYER
  5
3F0
330
2
100
AcDbSymbolTableRecord
100
AcDbLayerTableRecord
  2
D-STR-DIM
 70
     0
 62
     7
  6
Continuous
370
    15
390
F
  0
LAYER
  5
3F1
330
2
100
AcDbSymbolTableRecord
100
AcDbLayerTableRecord
  2
D-TTL
 70
     0
 62
     2
  6
Continuous
370
    -3
390
F
  0
ENDTAB
  0
TABLE
  2
STYLE
  5
3
330
0
100
AcDbSymbolTable
 70
     2
  0
STYLE
  5
11
330
3
100
AcDbSymbolTableRecord
100
AcDbTextStyleTableRecord
  2
Standard
 70
     0
 40
0.0
 41
0.8
 50
0.0
 71
     0
 42
2.5
  3
MS Gothic.ttf
  4

1001
ACAD
1000
MS Gothic
1071
    32817
  0
STYLE
  5
3F2
330
3
100
AcDbSymbolTableRecord
100
AcDbTextStyleTableRecord
  2
ｽﾀｲﾙ1
 70
     0
 40
30.0
 41
0.6
 50
0.0
 71
     0
 42
0.2
  3
MS Gothic.ttf
  4

1001
ACAD
1000
MS Gothic
1071
    32817
  0
ENDTAB
  0
TABLE
  2
VIEW
  5
6
330
0
100
AcDbSymbolTable
 70
     0
  0
ENDTAB
  0
TABLE
  2
UCS
  5
7
330
0
100
AcDbSymbolTable
 70
     0
  0
ENDTAB
  0
TABLE
  2
APPID
  5
9
330
0
100
AcDbSymbolTable
 70
     2
  0
APPID
  5
12
330
9
100
AcDbSymbolTableRecord
100
AcDbRegAppTableRecord
  2
ACAD
 70
     0
  0
APPID
  5
FB5
330
9
100
AcDbSymbolTableRecord
100
AcDbRegAppTableRecord
  2
DCO15
 70
     0
  0
ENDTAB
  0
TABLE
  2
DIMSTYLE
  5
A
330
0
100
AcDbSymbolTable
 70
     2
100
AcDbDimStyleTable
 71
     1
340
3F3
  0
DIMSTYLE
105
3F3
102
{ACAD_REACTORS
330
6D7
330
6D8
330
6D9
330
6DA
330
6DB
330
6DC
330
6E2
330
709
330
738
330
739
330
740
330
741
330
742
330
743
330
749
330
75C
330
75D
330
762
330
763
330
76A
330
794
330
79B
330
79C
330
7A1
330
7A2
330
7B3
330
7B4
330
7E6
330
7E7
330
7EE
330
7EF
330
7F0
330
7F1
330
7F6
330
808
330
809
330
80B
330
80C
330
826
330
856
330
857
330
858
330
860
330
861
330
862
330
863
330
884
330
894
330
895
330
8A8
330
691
330
692
330
6A0
330
6A1
330
6A2
330
6A3
330
6A4
330
6A9
330
6C1
330
6C6
330
6CB
330
6CC
330
6CD
330
6CE
330
6CF
330
8DA
330
8DB
330
8DC
330
8DD
330
8DE
330
8F2
330
914
102
}
330
A
100
AcDbSymbolTableRecord
100
AcDbDimStyleTableRecord
  2
STANDARD
 70
     0
 40
10.0
 41
2.0
 42
1.0
 43
10.0
 44
2.0
 73
     0
 74
     0
 77
     1
140
3.0
147
1.0
172
     1
173
     1
176
   256
177
   256
178
   256
271
     0
272
     0
279
     2
340
11
341
2B
343
2B
344
2B
  0
DIMSTYLE
105
3F4
102
{ACAD_REACTORS
330
85F
330
896
330
8A0
330
8A5
330
8A7
102
}
330
A
100
AcDbSymbolTableRecord
100
AcDbDimStyleTableRecord
  2
S10
 70
     0
 40
10.0
 41
2.5
 42
1.0
 43
10.0
 44
2.0
 73
     0
 74
     0
 77
     1
 78
     8
140
3.0
141
2.5
143
0.03937007874016
147
1.0
171
     3
172
     1
176
   256
177
   256
178
   256
271
     0
272
     0
274
     3
283
     0
284
     8
340
11
341
2B
342
2B
  0
ENDTAB
  0
TABLE
  2
BLOCK_RECORD
  5
1
330
0
100
AcDbSymbolTable
 70
    79
  0
BLOCK_RECORD
  5
1F
330
1
100
AcDbSymbolTableRecord
100
AcDbBlockTableRecord
  2
*Model_Space
340
22
  0
BLOCK_RECORD
  5
1B
330
1
100
AcDbSymbolTableRecord
100
AcDbBlockTableRecord
  2
*Paper_Space
340
1E
  0
BLOCK_RECORD
  5
23
330
1
100
AcDbSymbolTableRecord
100
AcDbBlockTableRecord
  2
*Paper_Space0
340
26
  0
BLOCK_RECORD
  5
2B
330
1
100
AcDbSymbolTableRecord
100
AcDbBlockTableRecord
  2
_OPEN30
340
0
102
{BLKREFS
331
CE4
331
CE5
331
CEC
331
CED
331
CF8
331
CF9
331
D00
331
D01
331
D09
331
D0A
331
D12
331
D13
331
D1E
331
D1F
331
D26
331
D27
331
D2F
331
D30
331
D38
331
D39
331
D44
331
D45
331
D4C
331
D4D
331
D55
331
D56
331
D5E
331
D5F
331
D6A
331
D6B
331
D72
331
D73
331
D7E
331
D7F
331
D86
331
D87
331
D8F
331
D90
331
D9B
331
D9C
331
DA3
331
DA4
331
DAC
331
DAD
331
DB8
331
DB9
331
DC0
331
DC1
331
DC9
331
DCA
331
DD2
331
DD3
331
DDC
331
DDD
331
DE4
331
DE5
331
DED
331
DEE
331
DF6
331
DF7
331
E02
331
E03
331
E0A
331
E0B
331
E13
331
E14
331
E1C
331
E1D
331
E25
331
E26
331
E31
331
E32
331
E39
331
E3A
331
E42
331
E43
331
E4C
331
E4D
331
E57
331
E58
331
E5F
331
E60
331
E68
331
E69
331
E71
331
E72
331
E7A
331
E7B
331
E83
331
E84
331
E8C
331
E8D
331
E95
331
E96
331
E9E
331
E9F
331
EA7
331
EA8
331
EB0
331
EB1
331
EB9
331
EBA
331
EC2
331
EC3
331
ECC
331
ECD
331
ED7
331
ED8
331
EE2
331
EE3
331
EEA
331
EEB
331
EF3
331
EF4
331
EFF
331
F00
331
F07
331
F08
331
F10
331
F11
331
F19
331
F1A
331
F22
331
F23
331
F2B
331
F2C
331
F34
331
F35
331
F3D
331
F3E
331
F46
331
F47
331
F52
331
F53
331
F5A
331
F5B
331
F63
331
F64
331
F6C
331
F6D
331
F75
331
F76
331
F7F
331
F80
331
F87
331
F88
331
F90
331
F91
331
F9C
331
F9D
331
FA4
331
FA5
331
FAD
331
FAE
102
}
  0
BLOCK_RECORD
  5
922
330
1
100
AcDbSymbolTableRecord
100
AcDbBlockTableRecord
  2
*D2
340
0
  0
BLOCK_RECORD
  5
930
330
1
100
AcDbSymbolTableRecord
100
AcDbBlockTableRecord
  2
*D3
340
0
  0
BLOCK_RECORD
  5
93C
330
1
100
AcDbSymbolTableRecord
100
AcDbBlockTableRecord
  2
*D4
340
0
  0
BLOCK_RECORD
  5
94A
330
1
100
AcDbSymbolTableRecord
100
AcDbBlockTableRecord
  2
*D5
340
0
  0
BLOCK_RECORD
  5
956
330
1
100
AcDbSymbolTableRecord
100
AcDbBlockTableRecord
  2
*D6
340
0
  0
BLOCK_RECORD
  5
962
330
1
100
AcDbSymbolTableRecord
100
AcDbBlockTableRecord
  2
*D7
340
0
  0
BLOCK_RECORD
  5
96E
330
1
100
AcDbSymbolTableRecord
100
AcDbBlockTableRecord
  2
*D8
340
0
  0
BLOCK_RECORD
  5
97C
330
1
100
AcDbSymbolTableRecord
100
AcDbBlockTableRecord
  2
*D9
340
0
  0
BLOCK_RECORD
  5
988
330
1
100
AcDbSymbolTableRecord
100
AcDbBlockTableRecord
  2
*D10
340
0
  0
BLOCK_RECORD
  5
994
330
1
100
AcDbSymbolTableRecord
100
AcDbBlockTableRecord
  2
*D11
340
0
  0
BLOCK_RECORD
  5
9A0
330
1
100
AcDbSymbolTableRecord
100
AcDbBlockTableRecord
  2
*D12
340
0
  0
BLOCK_RECORD
  5
9AE
330
1
100
AcDbSymbolTableRecord
100
AcDbBlockTableRecord
  2
*D13
340
0
  0
BLOCK_RECORD
  5
9BA
330
1
100
AcDbSymbolTableRecord
100
AcDbBlockTableRecord
  2
*D14
340
0
  0
BLOCK_RECORD
  5
9C6
330
1
100
AcDbSymbolTableRecord
100
AcDbBlockTableRecord
  2
*D15
340
0
  0
BLOCK_RECORD
  5
9D2
330
1
100
AcDbSymbolTableRecord
100
AcDbBlockTableRecord
  2
*D16
340
0
  0
BLOCK_RECORD
  5
9E0
330
1
100
AcDbSymbolTableRecord
100
AcDbBlockTableRecord
  2
*D17
340
0
  0
BLOCK_RECORD
  5
9EC
330
1
100
AcDbSymbolTableRecord
100
AcDbBlockTableRecord
  2
*D18
340
0
  0
BLOCK_RECORD
  5
9FA
330
1
100
AcDbSymbolTableRecord
100
AcDbBlockTableRecord
  2
*D19
340
0
  0
BLOCK_RECORD
  5
A06
330
1
100
AcDbSymbolTableRecord
100
AcDbBlockTableRecord
  2
*D20
340
0
  0
BLOCK_RECORD
  5
A12
330
1
100
AcDbSymbolTableRecord
100
AcDbBlockTableRecord
  2
*D21
340
0
  0
BLOCK_RECORD
  5
A20
330
1
100
AcDbSymbolTableRecord
100
AcDbBlockTableRecord
  2
*D22
340
0
  0
BLOCK_RECORD
  5
A2C
330
1
100
AcDbSymbolTableRecord
100
AcDbBlockTableRecord
  2
*D23
340
0
  0
BLOCK_RECORD
  5
A38
330
1
100
AcDbSymbolTableRecord
100
AcDbBlockTableRecord
  2
*D24
340
0
  0
BLOCK_RECORD
  5
A46
330
1
100
AcDbSymbolTableRecord
100
AcDbBlockTableRecord
  2
*D25
340
0
  0
BLOCK_RECORD
  5
A52
330
1
100
AcDbSymbolTableRecord
100
AcDbBlockTableRecord
  2
*D26
340
0
  0
BLOCK_RECORD
  5
A5E
330
1
100
AcDbSymbolTableRecord
100
AcDbBlockTableRecord
  2
*D27
340
0
  0
BLOCK_RECORD
  5
A6A
330
1
100
AcDbSymbolTableRecord
100
AcDbBlockTableRecord
  2
*D28
340
0
  0
BLOCK_RECORD
  5
A76
330
1
100
AcDbSymbolTableRecord
100
AcDbBlockTableRecord
  2
*D29
340
0
  0
BLOCK_RECORD
  5
A82
330
1
100
AcDbSymbolTableRecord
100
AcDbBlockTableRecord
  2
*D30
340
0
  0
BLOCK_RECORD
  5
A8E
330
1
100
AcDbSymbolTableRecord
100
AcDbBlockTableRecord
  2
*D31
340
0
  0
BLOCK_RECORD
  5
A9A
330
1
100
AcDbSymbolTableRecord
100
AcDbBlockTableRecord
  2
*D32
340
0
  0
BLOCK_RECORD
  5
AA8
330
1
100
AcDbSymbolTableRecord
100
AcDbBlockTableRecord
  2
*D33
340
0
  0
BLOCK_RECORD
  5
AB4
330
1
100
AcDbSymbolTableRecord
100
AcDbBlockTableRecord
  2
*D34
340
0
  0
BLOCK_RECORD
  5
AC0
330
1
100
AcDbSymbolTableRecord
100
AcDbBlockTableRecord
  2
*D35
340
0
  0
BLOCK_RECORD
  5
ACC
330
1
100
AcDbSymbolTableRecord
100
AcDbBlockTableRecord
  2
*D36
340
0
  0
BLOCK_RECORD
  5
AD8
330
1
100
AcDbSymbolTableRecord
100
AcDbBlockTableRecord
  2
*D37
340
0
  0
BLOCK_RECORD
  5
AE6
330
1
100
AcDbSymbolTableRecord
100
AcDbBlockTableRecord
  2
*D38
340
0
  0
BLOCK_RECORD
  5
AF2
330
1
100
AcDbSymbolTableRecord
100
AcDbBlockTableRecord
  2
*D39
340
0
  0
BLOCK_RECORD
  5
AFE
330
1
100
AcDbSymbolTableRecord
100
AcDbBlockTableRecord
  2
*D40
340
0
  0
BLOCK_RECORD
  5
B0A
330
1
100
AcDbSymbolTableRecord
100
AcDbBlockTableRecord
  2
*D41
340
0
  0
BLOCK_RECORD
  5
B18
330
1
100
AcDbSymbolTableRecord
100
AcDbBlockTableRecord
  2
*D42
340
0
  0
BLOCK_RECORD
  5
B24
330
1
100
AcDbSymbolTableRecord
100
AcDbBlockTableRecord
  2
*D43
340
0
  0
BLOCK_RECORD
  5
B30
330
1
100
AcDbSymbolTableRecord
100
AcDbBlockTableRecord
  2
*D44
340
0
  0
BLOCK_RECORD
  5
B3C
330
1
100
AcDbSymbolTableRecord
100
AcDbBlockTableRecord
  2
*D45
340
0
  0
BLOCK_RECORD
  5
B48
330
1
100
AcDbSymbolTableRecord
100
AcDbBlockTableRecord
  2
*D46
340
0
  0
BLOCK_RECORD
  5
B54
330
1
100
AcDbSymbolTableRecord
100
AcDbBlockTableRecord
  2
*D47
340
0
  0
BLOCK_RECORD
  5
B60
330
1
100
AcDbSymbolTableRecord
100
AcDbBlockTableRecord
  2
*D48
340
0
  0
BLOCK_RECORD
  5
B6C
330
1
100
AcDbSymbolTableRecord
100
AcDbBlockTableRecord
  2
*D49
340
0
  0
BLOCK_RECORD
  5
B78
330
1
100
AcDbSymbolTableRecord
100
AcDbBlockTableRecord
  2
*D50
340
0
  0
BLOCK_RECORD
  5
B84
330
1
100
AcDbSymbolTableRecord
100
AcDbBlockTableRecord
  2
*D51
340
0
  0
BLOCK_RECORD
  5
B90
330
1
100
AcDbSymbolTableRecord
100
AcDbBlockTableRecord
  2
*D52
340
0
  0
BLOCK_RECORD
  5
B9C
330
1
100
AcDbSymbolTableRecord
100
AcDbBlockTableRecord
  2
*D53
340
0
  0
BLOCK_RECORD
  5
BA8
330
1
100
AcDbSymbolTableRecord
100
AcDbBlockTableRecord
  2
*D54
340
0
  0
BLOCK_RECORD
  5
BB4
330
1
100
AcDbSymbolTableRecord
100
AcDbBlockTableRecord
  2
*D55
340
0
  0
BLOCK_RECORD
  5
BC2
330
1
100
AcDbSymbolTableRecord
100
AcDbBlockTableRecord
  2
*D56
340
0
  0
BLOCK_RECORD
  5
BD0
330
1
100
AcDbSymbolTableRecord
100
AcDbBlockTableRecord
  2
*D57
340
0
  0
BLOCK_RECORD
  5
BDC
330
1
100
AcDbSymbolTableRecord
100
AcDbBlockTableRecord
  2
*D58
340
0
  0
BLOCK_RECORD
  5
BE8
330
1
100
AcDbSymbolTableRecord
100
AcDbBlockTableRecord
  2
*D59
340
0
  0
BLOCK_RECORD
  5
BF6
330
1
100
AcDbSymbolTableRecord
100
AcDbBlockTableRecord
  2
*D60
340
0
  0
BLOCK_RECORD
  5
C02
330
1
100
AcDbSymbolTableRecord
100
AcDbBlockTableRecord
  2
*D61
340
0
  0
BLOCK_RECORD
  5
C0E
330
1
100
AcDbSymbolTableRecord
100
AcDbBlockTableRecord
  2
*D62
340
0
  0
BLOCK_RECORD
  5
C1A
330
1
100
AcDbSymbolTableRecord
100
AcDbBlockTableRecord
  2
*D63
340
0
  0
BLOCK_RECORD
  5
C26
330
1
100
AcDbSymbolTableRecord
100
AcDbBlockTableRecord
  2
*D64
340
0
  0
BLOCK_RECORD
  5
C32
330
1
100
AcDbSymbolTableRecord
100
AcDbBlockTableRecord
  2
*D65
340
0
  0
BLOCK_RECORD
  5
C3E
330
1
100
AcDbSymbolTableRecord
100
AcDbBlockTableRecord
  2
*D66
340
0
  0
BLOCK_RECORD
  5
C4A
330
1
100
AcDbSymbolTableRecord
100
AcDbBlockTableRecord
  2
*D67
340
0
  0
BLOCK_RECORD
  5
C56
330
1
100
AcDbSymbolTableRecord
100
AcDbBlockTableRecord
  2
*D68
340
0
  0
BLOCK_RECORD
  5
C64
330
1
100
AcDbSymbolTableRecord
100
AcDbBlockTableRecord
  2
*D69
340
0
  0
BLOCK_RECORD
  5
C70
330
1
100
AcDbSymbolTableRecord
100
AcDbBlockTableRecord
  2
*D70
340
0
  0
BLOCK_RECORD
  5
C7C
330
1
100
AcDbSymbolTableRecord
100
AcDbBlockTableRecord
  2
*D71
340
0
  0
BLOCK_RECORD
  5
C88
330
1
100
AcDbSymbolTableRecord
100
AcDbBlockTableRecord
  2
*D72
340
0
  0
BLOCK_RECORD
  5
C94
330
1
100
AcDbSymbolTableRecord
100
AcDbBlockTableRecord
  2
*D73
340
0
  0
BLOCK_RECORD
  5
CA0
330
1
100
AcDbSymbolTableRecord
100
AcDbBlockTableRecord
  2
*D74
340
0
  0
BLOCK_RECORD
  5
CAC
330
1
100
AcDbSymbolTableRecord
100
AcDbBlockTableRecord
  2
*D75
340
0
  0
BLOCK_RECORD
  5
CB8
330
1
100
AcDbSymbolTableRecord
100
AcDbBlockTableRecord
  2
*D76
340
0
  0
BLOCK_RECORD
  5
CC6
330
1
100
AcDbSymbolTableRecord
100
AcDbBlockTableRecord
  2
*D77
340
0
  0
BLOCK_RECORD
  5
CD2
330
1
100
AcDbSymbolTableRecord
100
AcDbBlockTableRecord
  2
*D78
340
0
  0
ENDTAB
  0
ENDSEC
  0
SECTION
  2
BLOCKS
  0
BLOCK
  5
20
330
1F
100
AcDbEntity
  8
0
100
AcDbBlockBegin
  2
*Model_Space
 70
     0
 10
0.0
 20
0.0
 30
0.0
  3
*Model_Space
  1

  0
ENDBLK
  5
21
330
1F
100
AcDbEntity
  8
0
100
AcDbBlockEnd
  0
BLOCK
  5
1C
330
1B
100
AcDbEntity
 67
     1
  8
0
100
AcDbBlockBegin
  2
*Paper_Space
 70
     0
 10
0.0
 20
0.0
 30
0.0
  3
*Paper_Space
  1

  0
ENDBLK
  5
1D
330
1B
100
AcDbEntity
 67
     1
  8
0
100
AcDbBlockEnd
  0
BLOCK
  5
24
330
23
100
AcDbEntity
  8
0
100
AcDbBlockBegin
  2
*Paper_Space0
 70
     0
 10
0.0
 20
0.0
 30
0.0
  3
*Paper_Space0
  1

  0
ENDBLK
  5
25
330
23
100
AcDbEntity
  8
0
100
AcDbBlockEnd
  0
BLOCK
  5
2F
330
2B
100
AcDbEntity
  8
0
100
AcDbBlockBegin
  2
_OPEN30
 70
     0
 10
0.0
 20
0.0
 30
0.0
  3
_OPEN30
  1

  0
LINE
  5
2C
330
2B
100
AcDbEntity
  8
0
  6
ByBlock
 62
     0
100
AcDbLine
 10
-1.0
 20
0.26794919
 30
0.0
 11
0.0
 21
0.0
 31
0.0
  0
LINE
  5
2D
330
2B
100
AcDbEntity
  8
0
  6
ByBlock
 62
     0
100
AcDbLine
 10
0.0
 20
0.0
 30
0.0
 11
-1.0
 21
-0.26794919
 31
0.0
  0
LINE
  5
2E
330
2B
100
AcDbEntity
  8
0
  6
ByBlock
 62
     0
100
AcDbLine
 10
0.0
 20
0.0
 30
0.0
 11
-1.0
 21
0.0
 31
0.0
  0
ENDBLK
  5
30
330
2B
100
AcDbEntity
  8
0
100
AcDbBlockEnd
  0
BLOCK
  5
92E
330
922
100
AcDbEntity
  8
0
100
AcDbBlockBegin
  2
*D2
 70
     1
 10
0.0
 20
0.0
 30
0.0
  3
*D2
  1

  0
LINE
  5
CDE
330
922
100
AcDbEntity
  8
D-STR-DIM
370
    -2
100
AcDbLine
 10
3015.922304733918
 20
1019.145996986376
 30
0.0
 11
3015.922304733918
 21
1178.892051517881
 31
0.0
  0
LINE
  5
CDF
330
922
100
AcDbEntity
  8
D-STR-DIM
370
    -2
100
AcDbLine
 10
3017.794558467322
 20
1018.714212956983
 30
0.0
 11
3017.794558467322
 21
1178.892051517881
 31
0.0
  0
LINE
  5
CE0
330
922
100
AcDbEntity
  8
D-STR-DIM
370
    -2
100
AcDbLine
 10
2995.922304733918
 20
1158.892051517881
 30
0.0
 11
2975.922304733918
 21
1158.892051517881
 31
0.0
  0
LINE
  5
CE1
330
922
100
AcDbEntity
  8
D-STR-DIM
370
    -2
100
AcDbLine
 10
3037.794558467322
 20
1158.892051517881
 30
0.0
 11
3057.794558467321
 21
1158.892051517881
 31
0.0
  0
MTEXT
  5
CE2
330
922
100
AcDbEntity
  8
D-STR-DIM
100
AcDbMText
 10
3016.85843160062
 20
1208.892051517881
 30
0.0
 40
30.0
 41
0.0
 71
     5
 72
     1
  1
\A1;2
 73
     1
 44
1.0
  0
LINE
  5
CE3
330
922
100
AcDbEntity
  8
D-STR-DIM
370
    -2
100
AcDbLine
 10
3015.922304733918
 20
1158.892051517881
 30
0.0
 11
3017.794558467322
 21
1158.892051517881
 31
0.0
  0
INSERT
  5
CE4
330
922
100
AcDbEntity
  8
D-STR-DIM
370
    -2
100
AcDbBlockReference
  2
_OPEN30
 10
3015.922304733918
 20
1158.892051517881
 30
0.0
 41
20.0
 42
20.0
 43
20.0
  0
INSERT
  5
CE5
330
922
100
AcDbEntity
  8
D-STR-DIM
370
    -2
100
AcDbBlockReference
  2
_OPEN30
 10
3017.794558467322
 20
1158.892051517881
 30
0.0
 41
20.0
 42
20.0
 43
20.0
 50
180.0
  0
POINT
  5
CE6
330
922
100
AcDbEntity
  8
DEFPOINTS
 62
     0
100
AcDbPoint
 10
3015.922304733918
 20
1009.145996986376
 30
0.0
  0
POINT
  5
CE7
330
922
100
AcDbEntity
  8
DEFPOINTS
 62
     0
100
AcDbPoint
 10
3017.794558467322
 20
1008.714212956983
 30
0.0
  0
POINT
  5
CE8
330
922
100
AcDbEntity
  8
DEFPOINTS
 62
     0
100
AcDbPoint
 10
3017.794558467322
 20
1158.892051517881
 30
0.0
  0
ENDBLK
  5
92F
330
922
100
AcDbEntity
  8
0
100
AcDbBlockEnd
  0
BLOCK
  5
93A
330
930
100
AcDbEntity
  8
0
100
AcDbBlockBegin
  2
*D3
 70
     1
 10
0.0
 20
0.0
 30
0.0
  3
*D3
  1

  0
LINE
  5
CE9
330
930
100
AcDbEntity
  8
D-STR-DIM
370
    -2
100
AcDbLine
 10
2799.794358467326
 20
1018.714212956983
 30
0.0
 11
2799.794358467326
 21
1178.892051517881
 31
0.0
  0
LINE
  5
CEA
330
930
100
AcDbEntity
  8
D-STR-DIM
370
    -2
100
AcDbLine
 10
3015.922304733918
 20
1019.145996986376
 30
0.0
 11
3015.922304733918
 21
1178.892051517881
 31
0.0
  0
LINE
  5
CEB
330
930
100
AcDbEntity
  8
D-STR-DIM
370
    -2
100
AcDbLine
 10
2819.794358467326
 20
1158.892051517881
 30
0.0
 11
2995.922304733918
 21
1158.892051517881
 31
0.0
  0
INSERT
  5
CEC
330
930
100
AcDbEntity
  8
D-STR-DIM
370
    -2
100
AcDbBlockReference
  2
_OPEN30
 10
2799.794358467326
 20
1158.892051517881
 30
0.0
 41
20.0
 42
20.0
 43
20.0
 50
180.0
  0
INSERT
  5
CED
330
930
100
AcDbEntity
  8
D-STR-DIM
370
    -2
100
AcDbBlockReference
  2
_OPEN30
 10
3015.922304733918
 20
1158.892051517881
 30
0.0
 41
20.0
 42
20.0
 43
20.0
  0
MTEXT
  5
CEE
330
930
100
AcDbEntity
  8
D-STR-DIM
100
AcDbMText
 10
2907.858331600622
 20
1183.892051517881
 30
0.0
 40
30.0
 41
0.0
 71
     5
 72
     1
  1
\A1;216
 73
     1
 44
1.0
  0
POINT
  5
CEF
330
930
100
AcDbEntity
  8
DEFPOINTS
 62
     0
100
AcDbPoint
 10
2799.794358467326
 20
1008.714212956983
 30
0.0
  0
POINT
  5
CF0
330
930
100
AcDbEntity
  8
DEFPOINTS
 62
     0
100
AcDbPoint
 10
3015.922304733918
 20
1009.145996986376
 30
0.0
  0
POINT
  5
CF1
330
930
100
AcDbEntity
  8
DEFPOINTS
 62
     0
100
AcDbPoint
 10
3015.922304733918
 20
1158.892051517881
 30
0.0
  0
ENDBLK
  5
93B
330
930
100
AcDbEntity
  8
0
100
AcDbBlockEnd
  0
BLOCK
  5
948
330
93C
100
AcDbEntity
  8
0
100
AcDbBlockBegin
  2
*D4
 70
     1
 10
0.0
 20
0.0
 30
0.0
  3
*D4
  1

  0
LINE
  5
CF2
330
93C
100
AcDbEntity
  8
D-STR-DIM
370
    -2
100
AcDbLine
 10
2797.794258467321
 20
1018.714212956983
 30
0.0
 11
2797.794258467321
 21
1178.892051517881
 31
0.0
  0
LINE
  5
CF3
330
93C
100
AcDbEntity
  8
D-STR-DIM
370
    -2
100
AcDbLine
 10
2799.794358467326
 20
1018.714212956983
 30
0.0
 11
2799.794358467326
 21
1178.892051517881
 31
0.0
  0
LINE
  5
CF4
330
93C
100
AcDbEntity
  8
D-STR-DIM
370
    -2
100
AcDbLine
 10
2777.794258467322
 20
1158.892051517881
 30
0.0
 11
2757.794258467322
 21
1158.892051517881
 31
0.0
  0
LINE
  5
CF5
330
93C
100
AcDbEntity
  8
D-STR-DIM
370
    -2
100
AcDbLine
 10
2819.794358467326
 20
1158.892051517881
 30
0.0
 11
2839.794358467326
 21
1158.892051517881
 31
0.0
  0
MTEXT
  5
CF6
330
93C
100
AcDbEntity
  8
D-STR-DIM
100
AcDbMText
 10
2798.794308467324
 20
1208.892051517881
 30
0.0
 40
30.0
 41
0.0
 71
     5
 72
     1
  1
\A1;2
 73
     1
 44
1.0
  0
LINE
  5
CF7
330
93C
100
AcDbEntity
  8
D-STR-DIM
370
    -2
100
AcDbLine
 10
2797.794258467321
 20
1158.892051517881
 30
0.0
 11
2799.794358467326
 21
1158.892051517881
 31
0.0
  0
INSERT
  5
CF8
330
93C
100
AcDbEntity
  8
D-STR-DIM
370
    -2
100
AcDbBlockReference
  2
_OPEN30
 10
2797.794258467321
 20
1158.892051517881
 30
0.0
 41
20.0
 42
20.0
 43
20.0
  0
INSERT
  5
CF9
330
93C
100
AcDbEntity
  8
D-STR-DIM
370
    -2
100
AcDbBlockReference
  2
_OPEN30
 10
2799.794358467326
 20
1158.892051517881
 30
0.0
 41
20.0
 42
20.0
 43
20.0
 50
180.0
  0
POINT
  5
CFA
330
93C
100
AcDbEntity
  8
DEFPOINTS
 62
     0
100
AcDbPoint
 10
2797.794258467321
 20
1008.714212956983
 30
0.0
  0
POINT
  5
CFB
330
93C
100
AcDbEntity
  8
DEFPOINTS
 62
     0
100
AcDbPoint
 10
2799.794358467326
 20
1008.714212956983
 30
0.0
  0
POINT
  5
CFC
330
93C
100
AcDbEntity
  8
DEFPOINTS
 62
     0
100
AcDbPoint
 10
2799.794358467326
 20
1158.892051517881
 30
0.0
  0
ENDBLK
  5
949
330
93C
100
AcDbEntity
  8
0
100
AcDbBlockEnd
  0
BLOCK
  5
954
330
94A
100
AcDbEntity
  8
0
100
AcDbBlockBegin
  2
*D5
 70
     1
 10
0.0
 20
0.0
 30
0.0
  3
*D5
  1

  0
LINE
  5
CFD
330
94A
100
AcDbEntity
  8
D-STR-DIM
370
    -2
100
AcDbLine
 10
2647.794558467321
 20
1008.714012956982
 30
0.0
 11
2647.794558467321
 21
1178.892051517881
 31
0.0
  0
LINE
  5
CFE
330
94A
100
AcDbEntity
  8
D-STR-DIM
370
    -2
100
AcDbLine
 10
2797.794258467321
 20
1018.714212956983
 30
0.0
 11
2797.794258467321
 21
1178.892051517881
 31
0.0
  0
LINE
  5
CFF
330
94A
100
AcDbEntity
  8
D-STR-DIM
370
    -2
100
AcDbLine
 10
2667.794558467321
 20
1158.892051517881
 30
0.0
 11
2777.794258467322
 21
1158.892051517881
 31
0.0
  0
INSERT
  5
D00
330
94A
100
AcDbEntity
  8
D-STR-DIM
370
    -2
100
AcDbBlockReference
  2
_OPEN30
 10
2647.794558467321
 20
1158.892051517881
 30
0.0
 41
20.0
 42
20.0
 43
20.0
 50
180.0
  0
INSERT
  5
D01
330
94A
100
AcDbEntity
  8
D-STR-DIM
370
    -2
100
AcDbBlockReference
  2
_OPEN30
 10
2797.794258467321
 20
1158.892051517881
 30
0.0
 41
20.0
 42
20.0
 43
20.0
  0
MTEXT
  5
D02
330
94A
100
AcDbEntity
  8
D-STR-DIM
100
AcDbMText
 10
2722.794408467322
 20
1183.892051517881
 30
0.0
 40
30.0
 41
0.0
 71
     5
 72
     1
  1
\A1;150
 73
     1
 44
1.0
  0
POINT
  5
D03
330
94A
100
AcDbEntity
  8
DEFPOINTS
 62
     0
100
AcDbPoint
 10
2647.794558467321
 20
998.7140129569826
 30
0.0
  0
POINT
  5
D04
330
94A
100
AcDbEntity
  8
DEFPOINTS
 62
     0
100
AcDbPoint
 10
2797.794258467321
 20
1008.714212956983
 30
0.0
  0
POINT
  5
D05
330
94A
100
AcDbEntity
  8
DEFPOINTS
 62
     0
100
AcDbPoint
 10
2797.794258467321
 20
1158.892051517881
 30
0.0
  0
ENDBLK
  5
955
330
94A
100
AcDbEntity
  8
0
100
AcDbBlockEnd
  0
BLOCK
  5
960
330
956
100
AcDbEntity
  8
0
100
AcDbBlockBegin
  2
*D6
 70
     1
 10
0.0
 20
0.0
 30
0.0
  3
*D6
  1

  0
LINE
  5
D06
330
956
100
AcDbEntity
  8
D-STR-DIM
370
    -2
100
AcDbLine
 10
2789.794358467319
 20
1028.714112062643
 30
0.0
 11
2443.375626937006
 21
1028.714112062643
 31
0.0
  0
LINE
  5
D07
330
956
100
AcDbEntity
  8
D-STR-DIM
370
    -2
100
AcDbLine
 10
2637.794558467321
 20
858.7142129569832
 30
0.0
 11
2443.375626937006
 21
858.7142129569832
 31
0.0
  0
LINE
  5
D08
330
956
100
AcDbEntity
  8
D-STR-DIM
370
    -2
100
AcDbLine
 10
2463.375626937006
 20
1008.714112062643
 30
0.0
 11
2463.375626937006
 21
878.7142129569831
 31
0.0
  0
INSERT
  5
D09
330
956
100
AcDbEntity
  8
D-STR-DIM
370
    -2
100
AcDbBlockReference
  2
_OPEN30
 10
2463.375626937006
 20
1028.714112062643
 30
0.0
 41
20.0
 42
20.0
 43
20.0
 50
90.0
  0
INSERT
  5
D0A
330
956
100
AcDbEntity
  8
D-STR-DIM
370
    -2
100
AcDbBlockReference
  2
_OPEN30
 10
2463.375626937006
 20
858.7142129569832
 30
0.0
 41
20.0
 42
20.0
 43
20.0
 50
270.0
  0
MTEXT
  5
D0B
330
956
100
AcDbEntity
  8
D-STR-DIM
100
AcDbMText
 10
2438.375626937006
 20
943.7141625098137
 30
0.0
 40
30.0
 41
0.0
 71
     5
 72
     1
  1
\A1;170
 11
0.0000000000000001
 21
1.0
 31
0.0
 73
     1
 44
1.0
  0
POINT
  5
D0C
330
956
100
AcDbEntity
  8
DEFPOINTS
 62
     0
100
AcDbPoint
 10
2799.794358467319
 20
1028.714112062643
 30
0.0
  0
POINT
  5
D0D
330
956
100
AcDbEntity
  8
DEFPOINTS
 62
     0
100
AcDbPoint
 10
2647.794558467321
 20
858.7142129569832
 30
0.0
  0
POINT
  5
D0E
330
956
100
AcDbEntity
  8
DEFPOINTS
 62
     0
100
AcDbPoint
 10
2463.375626937006
 20
858.7142129569832
 30
0.0
  0
ENDBLK
  5
961
330
956
100
AcDbEntity
  8
0
100
AcDbBlockEnd
  0
BLOCK
  5
96C
330
962
100
AcDbEntity
  8
0
100
AcDbBlockBegin
  2
*D7
 70
     1
 10
0.0
 20
0.0
 30
0.0
  3
*D7
  1

  0
LINE
  5
D0F
330
962
100
AcDbEntity
  8
D-STR-DIM
370
    -2
100
AcDbLine
 10
2637.794558467321
 20
998.7140129569826
 30
0.0
 11
2547.794558467321
 21
998.7140129569826
 31
0.0
  0
LINE
  5
D10
330
962
100
AcDbEntity
  8
D-STR-DIM
370
    -2
100
AcDbLine
 10
2637.794558467321
 20
858.7142129569832
 30
0.0
 11
2547.794558467321
 21
858.7142129569832
 31
0.0
  0
LINE
  5
D11
330
962
100
AcDbEntity
  8
D-STR-DIM
370
    -2
100
AcDbLine
 10
2567.794558467321
 20
978.7140129569827
 30
0.0
 11
2567.794558467321
 21
878.7142129569831
 31
0.0
  0
INSERT
  5
D12
330
962
100
AcDbEntity
  8
D-STR-DIM
370
    -2
100
AcDbBlockReference
  2
_OPEN30
 10
2567.794558467321
 20
998.7140129569826
 30
0.0
 41
20.0
 42
20.0
 43
20.0
 50
90.0
  0
INSERT
  5
D13
330
962
100
AcDbEntity
  8
D-STR-DIM
370
    -2
100
AcDbBlockReference
  2
_OPEN30
 10
2567.794558467321
 20
858.7142129569832
 30
0.0
 41
20.0
 42
20.0
 43
20.0
 50
270.0
  0
MTEXT
  5
D14
330
962
100
AcDbEntity
  8
D-STR-DIM
100
AcDbMText
 10
2542.794558467321
 20
928.7141129569834
 30
0.0
 40
30.0
 41
0.0
 71
     5
 72
     1
  1
\A1;140
 11
0.0000000000000001
 21
1.0
 31
0.0
 73
     1
 44
1.0
  0
POINT
  5
D15
330
962
100
AcDbEntity
  8
DEFPOINTS
 62
     0
100
AcDbPoint
 10
2647.794558467321
 20
998.7140129569826
 30
0.0
  0
POINT
  5
D16
330
962
100
AcDbEntity
  8
DEFPOINTS
 62
     0
100
AcDbPoint
 10
2647.794558467321
 20
858.7142129569832
 30
0.0
  0
POINT
  5
D17
330
962
100
AcDbEntity
  8
DEFPOINTS
 62
     0
100
AcDbPoint
 10
2567.794558467321
 20
858.7142129569832
 30
0.0
  0
ENDBLK
  5
96D
330
962
100
AcDbEntity
  8
0
100
AcDbBlockEnd
  0
BLOCK
  5
97A
330
96E
100
AcDbEntity
  8
0
100
AcDbBlockBegin
  2
*D8
 70
     1
 10
0.0
 20
0.0
 30
0.0
  3
*D8
  1

  0
LINE
  5
D18
330
96E
100
AcDbEntity
  8
D-STR-DIM
370
    -2
100
AcDbLine
 10
2789.794358467319
 20
1028.714112062643
 30
0.0
 11
2547.794558467322
 21
1028.714112062643
 31
0.0
  0
LINE
  5
D19
330
96E
100
AcDbEntity
  8
D-STR-DIM
370
    -2
100
AcDbLine
 10
2637.794558467321
 20
998.7140129569826
 30
0.0
 11
2547.794558467321
 21
998.7140129569826
 31
0.0
  0
LINE
  5
D1A
330
96E
100
AcDbEntity
  8
D-STR-DIM
370
    -2
100
AcDbLine
 10
2567.794558467322
 20
1048.714112062643
 30
0.0
 11
2567.794558467322
 21
1068.714112062643
 31
0.0
  0
LINE
  5
D1B
330
96E
100
AcDbEntity
  8
D-STR-DIM
370
    -2
100
AcDbLine
 10
2567.794558467321
 20
978.7140129569827
 30
0.0
 11
2567.794558467321
 21
958.7140129569828
 31
0.0
  0
MTEXT
  5
D1C
330
96E
100
AcDbEntity
  8
D-STR-DIM
100
AcDbMText
 10
2542.794558467321
 20
1013.714062509813
 30
0.0
 40
30.0
 41
0.0
 71
     5
 72
     1
  1
\A1;30
 11
0.0000000000000001
 21
1.0
 31
0.0
 73
     1
 44
1.0
  0
LINE
  5
D1D
330
96E
100
AcDbEntity
  8
D-STR-DIM
370
    -2
100
AcDbLine
 10
2567.794558467322
 20
1028.714112062643
 30
0.0
 11
2567.794558467321
 21
998.7140129569826
 31
0.0
  0
INSERT
  5
D1E
330
96E
100
AcDbEntity
  8
D-STR-DIM
370
    -2
100
AcDbBlockReference
  2
_OPEN30
 10
2567.794558467322
 20
1028.714112062643
 30
0.0
 41
20.0
 42
20.0
 43
20.0
 50
270.0
  0
INSERT
  5
D1F
330
96E
100
AcDbEntity
  8
D-STR-DIM
370
    -2
100
AcDbBlockReference
  2
_OPEN30
 10
2567.794558467321
 20
998.7140129569826
 30
0.0
 41
20.0
 42
20.0
 43
20.0
 50
90.0
  0
POINT
  5
D20
330
96E
100
AcDbEntity
  8
DEFPOINTS
 62
     0
100
AcDbPoint
 10
2799.794358467319
 20
1028.714112062643
 30
0.0
  0
POINT
  5
D21
330
96E
100
AcDbEntity
  8
DEFPOINTS
 62
     0
100
AcDbPoint
 10
2647.794558467321
 20
998.7140129569826
 30
0.0
  0
POINT
  5
D22
330
96E
100
AcDbEntity
  8
DEFPOINTS
 62
     0
100
AcDbPoint
 10
2567.794558467321
 20
998.7140129569826
 30
0.0
  0
ENDBLK
  5
97B
330
96E
100
AcDbEntity
  8
0
100
AcDbBlockEnd
  0
BLOCK
  5
986
330
97C
100
AcDbEntity
  8
0
100
AcDbBlockBegin
  2
*D9
 70
     1
 10
0.0
 20
0.0
 30
0.0
  3
*D9
  1

  0
LINE
  5
D23
330
97C
100
AcDbEntity
  8
D-STR-DIM
370
    -2
100
AcDbLine
 10
3177.794258467322
 20
1008.714212956983
 30
0.0
 11
3267.794258467322
 21
1008.714212956983
 31
0.0
  0
LINE
  5
D24
330
97C
100
AcDbEntity
  8
D-STR-DIM
370
    -2
100
AcDbLine
 10
3177.794258467322
 20
858.7142129569832
 30
0.0
 11
3267.794258467322
 21
858.7142129569832
 31
0.0
  0
LINE
  5
D25
330
97C
100
AcDbEntity
  8
D-STR-DIM
370
    -2
100
AcDbLine
 10
3247.794258467322
 20
988.7142129569831
 30
0.0
 11
3247.794258467322
 21
878.7142129569831
 31
0.0
  0
INSERT
  5
D26
330
97C
100
AcDbEntity
  8
D-STR-DIM
370
    -2
100
AcDbBlockReference
  2
_OPEN30
 10
3247.794258467322
 20
1008.714212956983
 30
0.0
 41
20.0
 42
20.0
 43
20.0
 50
90.0
  0
INSERT
  5
D27
330
97C
100
AcDbEntity
  8
D-STR-DIM
370
    -2
100
AcDbBlockReference
  2
_OPEN30
 10
3247.794258467322
 20
858.7142129569832
 30
0.0
 41
20.0
 42
20.0
 43
20.0
 50
270.0
  0
MTEXT
  5
D28
330
97C
100
AcDbEntity
  8
D-STR-DIM
100
AcDbMText
 10
3222.794258467322
 20
933.7142129569835
 30
0.0
 40
30.0
 41
0.0
 71
     5
 72
     1
  1
\A1;150
 11
0.0000000000000001
 21
1.0
 31
0.0
 73
     1
 44
1.0
  0
POINT
  5
D29
330
97C
100
AcDbEntity
  8
DEFPOINTS
 62
     0
100
AcDbPoint
 10
3167.794258467322
 20
1008.714212956983
 30
0.0
  0
POINT
  5
D2A
330
97C
100
AcDbEntity
  8
DEFPOINTS
 62
     0
100
AcDbPoint
 10
3167.794258467322
 20
858.7142129569832
 30
0.0
  0
POINT
  5
D2B
330
97C
100
AcDbEntity
  8
DEFPOINTS
 62
     0
100
AcDbPoint
 10
3247.794258467322
 20
858.7142129569832
 30
0.0
  0
ENDBLK
  5
987
330
97C
100
AcDbEntity
  8
0
100
AcDbBlockEnd
  0
BLOCK
  5
992
330
988
100
AcDbEntity
  8
0
100
AcDbBlockBegin
  2
*D10
 70
     1
 10
0.0
 20
0.0
 30
0.0
  3
*D10
  1

  0
LINE
  5
D2C
330
988
100
AcDbEntity
  8
D-STR-DIM
370
    -2
100
AcDbLine
 10
5938.492933539194
 20
1018.714212956944
 30
0.0
 11
5938.492933539194
 21
1178.892051517842
 31
0.0
  0
LINE
  5
D2D
330
988
100
AcDbEntity
  8
D-STR-DIM
370
    -2
100
AcDbLine
 10
6154.620879805785
 20
1019.145996986338
 30
0.0
 11
6154.620879805785
 21
1178.892051517842
 31
0.0
  0
LINE
  5
D2E
330
988
100
AcDbEntity
  8
D-STR-DIM
370
    -2
100
AcDbLine
 10
5958.492933539194
 20
1158.892051517842
 30
0.0
 11
6134.620879805785
 21
1158.892051517842
 31
0.0
  0
INSERT
  5
D2F
330
988
100
AcDbEntity
  8
D-STR-DIM
370
    -2
100
AcDbBlockReference
  2
_OPEN30
 10
5938.492933539194
 20
1158.892051517842
 30
0.0
 41
20.0
 42
20.0
 43
20.0
 50
180.0
  0
INSERT
  5
D30
330
988
100
AcDbEntity
  8
D-STR-DIM
370
    -2
100
AcDbBlockReference
  2
_OPEN30
 10
6154.620879805785
 20
1158.892051517842
 30
0.0
 41
20.0
 42
20.0
 43
20.0
  0
MTEXT
  5
D31
330
988
100
AcDbEntity
  8
D-STR-DIM
100
AcDbMText
 10
6046.556906672489
 20
1183.892051517842
 30
0.0
 40
30.0
 41
0.0
 71
     5
 72
     1
  1
\A1;216
 73
     1
 44
1.0
  0
POINT
  5
D32
330
988
100
AcDbEntity
  8
DEFPOINTS
 62
     0
100
AcDbPoint
 10
5938.492933539194
 20
1008.714212956944
 30
0.0
  0
POINT
  5
D33
330
988
100
AcDbEntity
  8
DEFPOINTS
 62
     0
100
AcDbPoint
 10
6154.620879805785
 20
1009.145996986338
 30
0.0
  0
POINT
  5
D34
330
988
100
AcDbEntity
  8
DEFPOINTS
 62
     0
100
AcDbPoint
 10
6154.620879805785
 20
1158.892051517842
 30
0.0
  0
ENDBLK
  5
993
330
988
100
AcDbEntity
  8
0
100
AcDbBlockEnd
  0
BLOCK
  5
99E
330
994
100
AcDbEntity
  8
0
100
AcDbBlockBegin
  2
*D11
 70
     1
 10
0.0
 20
0.0
 30
0.0
  3
*D11
  1

  0
LINE
  5
D35
330
994
100
AcDbEntity
  8
D-STR-DIM
370
    -2
100
AcDbLine
 10
5786.493133539188
 20
1008.714012956944
 30
0.0
 11
5786.493133539188
 21
1309.070090078741
 31
0.0
  0
LINE
  5
D36
330
994
100
AcDbEntity
  8
D-STR-DIM
370
    -2
100
AcDbLine
 10
6306.492833539189
 20
1018.714212956944
 30
0.0
 11
6306.492833539189
 21
1309.070090078741
 31
0.0
  0
LINE
  5
D37
330
994
100
AcDbEntity
  8
D-STR-DIM
370
    -2
100
AcDbLine
 10
5806.493133539188
 20
1289.070090078741
 30
0.0
 11
6286.492833539188
 21
1289.070090078741
 31
0.0
  0
INSERT
  5
D38
330
994
100
AcDbEntity
  8
D-STR-DIM
370
    -2
100
AcDbBlockReference
  2
_OPEN30
 10
5786.493133539188
 20
1289.070090078741
 30
0.0
 41
20.0
 42
20.0
 43
20.0
 50
180.0
  0
INSERT
  5
D39
330
994
100
AcDbEntity
  8
D-STR-DIM
370
    -2
100
AcDbBlockReference
  2
_OPEN30
 10
6306.492833539189
 20
1289.070090078741
 30
0.0
 41
20.0
 42
20.0
 43
20.0
  0
MTEXT
  5
D3A
330
994
100
AcDbEntity
  8
D-STR-DIM
100
AcDbMText
 10
6046.492983539188
 20
1314.070090078741
 30
0.0
 40
30.0
 41
0.0
 71
     5
 72
     1
  1
\A1;520
 73
     1
 44
1.0
  0
POINT
  5
D3B
330
994
100
AcDbEntity
  8
DEFPOINTS
 62
     0
100
AcDbPoint
 10
5786.493133539188
 20
998.7140129569441
 30
0.0
  0
POINT
  5
D3C
330
994
100
AcDbEntity
  8
DEFPOINTS
 62
     0
100
AcDbPoint
 10
6306.492833539189
 20
1008.714212956944
 30
0.0
  0
POINT
  5
D3D
330
994
100
AcDbEntity
  8
DEFPOINTS
 62
     0
100
AcDbPoint
 10
6306.492833539189
 20
1289.070090078741
 30
0.0
  0
ENDBLK
  5
99F
330
994
100
AcDbEntity
  8
0
100
AcDbBlockEnd
  0
BLOCK
  5
9AC
330
9A0
100
AcDbEntity
  8
0
100
AcDbBlockBegin
  2
*D12
 70
     1
 10
0.0
 20
0.0
 30
0.0
  3
*D12
  1

  0
LINE
  5
D3E
330
9A0
100
AcDbEntity
  8
D-STR-DIM
370
    -2
100
AcDbLine
 10
5936.492833539189
 20
1018.714212956944
 30
0.0
 11
5936.492833539189
 21
1178.892051517842
 31
0.0
  0
LINE
  5
D3F
330
9A0
100
AcDbEntity
  8
D-STR-DIM
370
    -2
100
AcDbLine
 10
5938.492933539194
 20
1018.714212956944
 30
0.0
 11
5938.492933539194
 21
1178.892051517842
 31
0.0
  0
LINE
  5
D40
330
9A0
100
AcDbEntity
  8
D-STR-DIM
370
    -2
100
AcDbLine
 10
5916.492833539189
 20
1158.892051517842
 30
0.0
 11
5896.492833539189
 21
1158.892051517842
 31
0.0
  0
LINE
  5
D41
330
9A0
100
AcDbEntity
  8
D-STR-DIM
370
    -2
100
AcDbLine
 10
5958.492933539194
 20
1158.892051517842
 30
0.0
 11
5978.492933539193
 21
1158.892051517842
 31
0.0
  0
MTEXT
  5
D42
330
9A0
100
AcDbEntity
  8
D-STR-DIM
100
AcDbMText
 10
5937.492883539191
 20
1208.892051517842
 30
0.0
 40
30.0
 41
0.0
 71
     5
 72
     1
  1
\A1;2
 73
     1
 44
1.0
  0
LINE
  5
D43
330
9A0
100
AcDbEntity
  8
D-STR-DIM
370
    -2
100
AcDbLine
 10
5936.492833539189
 20
1158.892051517842
 30
0.0
 11
5938.492933539194
 21
1158.892051517842
 31
0.0
  0
INSERT
  5
D44
330
9A0
100
AcDbEntity
  8
D-STR-DIM
370
    -2
100
AcDbBlockReference
  2
_OPEN30
 10
5936.492833539189
 20
1158.892051517842
 30
0.0
 41
20.0
 42
20.0
 43
20.0
  0
INSERT
  5
D45
330
9A0
100
AcDbEntity
  8
D-STR-DIM
370
    -2
100
AcDbBlockReference
  2
_OPEN30
 10
5938.492933539194
 20
1158.892051517842
 30
0.0
 41
20.0
 42
20.0
 43
20.0
 50
180.0
  0
POINT
  5
D46
330
9A0
100
AcDbEntity
  8
DEFPOINTS
 62
     0
100
AcDbPoint
 10
5936.492833539189
 20
1008.714212956944
 30
0.0
  0
POINT
  5
D47
330
9A0
100
AcDbEntity
  8
DEFPOINTS
 62
     0
100
AcDbPoint
 10
5938.492933539194
 20
1008.714212956944
 30
0.0
  0
POINT
  5
D48
330
9A0
100
AcDbEntity
  8
DEFPOINTS
 62
     0
100
AcDbPoint
 10
5938.492933539194
 20
1158.892051517842
 30
0.0
  0
ENDBLK
  5
9AD
330
9A0
100
AcDbEntity
  8
0
100
AcDbBlockEnd
  0
BLOCK
  5
9B8
330
9AE
100
AcDbEntity
  8
0
100
AcDbBlockBegin
  2
*D13
 70
     1
 10
0.0
 20
0.0
 30
0.0
  3
*D13
  1

  0
LINE
  5
D49
330
9AE
100
AcDbEntity
  8
D-STR-DIM
370
    -2
100
AcDbLine
 10
5786.493133539188
 20
1008.714012956944
 30
0.0
 11
5786.493133539188
 21
1178.892051517842
 31
0.0
  0
LINE
  5
D4A
330
9AE
100
AcDbEntity
  8
D-STR-DIM
370
    -2
100
AcDbLine
 10
5936.492833539189
 20
1018.714212956944
 30
0.0
 11
5936.492833539189
 21
1178.892051517842
 31
0.0
  0
LINE
  5
D4B
330
9AE
100
AcDbEntity
  8
D-STR-DIM
370
    -2
100
AcDbLine
 10
5806.493133539188
 20
1158.892051517842
 30
0.0
 11
5916.492833539189
 21
1158.892051517842
 31
0.0
  0
INSERT
  5
D4C
330
9AE
100
AcDbEntity
  8
D-STR-DIM
370
    -2
100
AcDbBlockReference
  2
_OPEN30
 10
5786.493133539188
 20
1158.892051517842
 30
0.0
 41
20.0
 42
20.0
 43
20.0
 50
180.0
  0
INSERT
  5
D4D
330
9AE
100
AcDbEntity
  8
D-STR-DIM
370
    -2
100
AcDbBlockReference
  2
_OPEN30
 10
5936.492833539189
 20
1158.892051517842
 30
0.0
 41
20.0
 42
20.0
 43
20.0
  0
MTEXT
  5
D4E
330
9AE
100
AcDbEntity
  8
D-STR-DIM
100
AcDbMText
 10
5861.492983539188
 20
1183.892051517842
 30
0.0
 40
30.0
 41
0.0
 71
     5
 72
     1
  1
\A1;150
 73
     1
 44
1.0
  0
POINT
  5
D4F
330
9AE
100
AcDbEntity
  8
DEFPOINTS
 62
     0
100
AcDbPoint
 10
5786.493133539188
 20
998.7140129569441
 30
0.0
  0
POINT
  5
D50
330
9AE
100
AcDbEntity
  8
DEFPOINTS
 62
     0
100
AcDbPoint
 10
5936.492833539189
 20
1008.714212956944
 30
0.0
  0
POINT
  5
D51
330
9AE
100
AcDbEntity
  8
DEFPOINTS
 62
     0
100
AcDbPoint
 10
5936.492833539189
 20
1158.892051517842
 30
0.0
  0
ENDBLK
  5
9B9
330
9AE
100
AcDbEntity
  8
0
100
AcDbBlockEnd
  0
BLOCK
  5
9C4
330
9BA
100
AcDbEntity
  8
0
100
AcDbBlockBegin
  2
*D14
 70
     1
 10
0.0
 20
0.0
 30
0.0
  3
*D14
  1

  0
LINE
  5
D52
330
9BA
100
AcDbEntity
  8
D-STR-DIM
370
    -2
100
AcDbLine
 10
5928.492933539186
 20
1028.714112062604
 30
0.0
 11
5582.074202008873
 21
1028.714112062604
 31
0.0
  0
LINE
  5
D53
330
9BA
100
AcDbEntity
  8
D-STR-DIM
370
    -2
100
AcDbLine
 10
5776.493133539188
 20
858.7142129569445
 30
0.0
 11
5582.074202008873
 21
858.7142129569445
 31
0.0
  0
LINE
  5
D54
330
9BA
100
AcDbEntity
  8
D-STR-DIM
370
    -2
100
AcDbLine
 10
5602.074202008873
 20
1008.714112062604
 30
0.0
 11
5602.074202008873
 21
878.7142129569444
 31
0.0
  0
INSERT
  5
D55
330
9BA
100
AcDbEntity
  8
D-STR-DIM
370
    -2
100
AcDbBlockReference
  2
_OPEN30
 10
5602.074202008873
 20
1028.714112062604
 30
0.0
 41
20.0
 42
20.0
 43
20.0
 50
90.0
  0
INSERT
  5
D56
330
9BA
100
AcDbEntity
  8
D-STR-DIM
370
    -2
100
AcDbBlockReference
  2
_OPEN30
 10
5602.074202008873
 20
858.7142129569445
 30
0.0
 41
20.0
 42
20.0
 43
20.0
 50
270.0
  0
MTEXT
  5
D57
330
9BA
100
AcDbEntity
  8
D-STR-DIM
100
AcDbMText
 10
5577.074202008873
 20
943.7141625097755
 30
0.0
 40
30.0
 41
0.0
 71
     5
 72
     1
  1
\A1;170
 11
0.0000000000000001
 21
1.0
 31
0.0
 73
     1
 44
1.0
  0
POINT
  5
D58
330
9BA
100
AcDbEntity
  8
DEFPOINTS
 62
     0
100
AcDbPoint
 10
5938.492933539186
 20
1028.714112062604
 30
0.0
  0
POINT
  5
D59
330
9BA
100
AcDbEntity
  8
DEFPOINTS
 62
     0
100
AcDbPoint
 10
5786.493133539188
 20
858.7142129569445
 30
0.0
  0
POINT
  5
D5A
330
9BA
100
AcDbEntity
  8
DEFPOINTS
 62
     0
100
AcDbPoint
 10
5602.074202008873
 20
858.7142129569445
 30
0.0
  0
ENDBLK
  5
9C5
330
9BA
100
AcDbEntity
  8
0
100
AcDbBlockEnd
  0
BLOCK
  5
9D0
330
9C6
100
AcDbEntity
  8
0
100
AcDbBlockBegin
  2
*D15
 70
     1
 10
0.0
 20
0.0
 30
0.0
  3
*D15
  1

  0
LINE
  5
D5B
330
9C6
100
AcDbEntity
  8
D-STR-DIM
370
    -2
100
AcDbLine
 10
5776.493133539188
 20
998.7140129569441
 30
0.0
 11
5686.493133539189
 21
998.7140129569441
 31
0.0
  0
LINE
  5
D5C
330
9C6
100
AcDbEntity
  8
D-STR-DIM
370
    -2
100
AcDbLine
 10
5776.493133539188
 20
858.7142129569445
 30
0.0
 11
5686.493133539189
 21
858.7142129569445
 31
0.0
  0
LINE
  5
D5D
330
9C6
100
AcDbEntity
  8
D-STR-DIM
370
    -2
100
AcDbLine
 10
5706.493133539188
 20
978.714012956944
 30
0.0
 11
5706.493133539188
 21
878.7142129569444
 31
0.0
  0
INSERT
  5
D5E
330
9C6
100
AcDbEntity
  8
D-STR-DIM
370
    -2
100
AcDbBlockReference
  2
_OPEN30
 10
5706.493133539188
 20
998.7140129569441
 30
0.0
 41
20.0
 42
20.0
 43
20.0
 50
90.0
  0
INSERT
  5
D5F
330
9C6
100
AcDbEntity
  8
D-STR-DIM
370
    -2
100
AcDbBlockReference
  2
_OPEN30
 10
5706.493133539188
 20
858.7142129569445
 30
0.0
 41
20.0
 42
20.0
 43
20.0
 50
270.0
  0
MTEXT
  5
D60
330
9C6
100
AcDbEntity
  8
D-STR-DIM
100
AcDbMText
 10
5681.493133539188
 20
928.7141129569452
 30
0.0
 40
30.0
 41
0.0
 71
     5
 72
     1
  1
\A1;140
 11
0.0000000000000001
 21
1.0
 31
0.0
 73
     1
 44
1.0
  0
POINT
  5
D61
330
9C6
100
AcDbEntity
  8
DEFPOINTS
 62
     0
100
AcDbPoint
 10
5786.493133539188
 20
998.7140129569441
 30
0.0
  0
POINT
  5
D62
330
9C6
100
AcDbEntity
  8
DEFPOINTS
 62
     0
100
AcDbPoint
 10
5786.493133539188
 20
858.7142129569445
 30
0.0
  0
POINT
  5
D63
330
9C6
100
AcDbEntity
  8
DEFPOINTS
 62
     0
100
AcDbPoint
 10
5706.493133539188
 20
858.7142129569445
 30
0.0
  0
ENDBLK
  5
9D1
330
9C6
100
AcDbEntity
  8
0
100
AcDbBlockEnd
  0
BLOCK
  5
9DE
330
9D2
100
AcDbEntity
  8
0
100
AcDbBlockBegin
  2
*D16
 70
     1
 10
0.0
 20
0.0
 30
0.0
  3
*D16
  1

  0
LINE
  5
D64
330
9D2
100
AcDbEntity
  8
D-STR-DIM
370
    -2
100
AcDbLine
 10
5928.492933539186
 20
1028.714112062604
 30
0.0
 11
5686.493133539189
 21
1028.714112062604
 31
0.0
  0
LINE
  5
D65
330
9D2
100
AcDbEntity
  8
D-STR-DIM
370
    -2
100
AcDbLine
 10
5776.493133539188
 20
998.7140129569441
 30
0.0
 11
5686.493133539189
 21
998.7140129569441
 31
0.0
  0
LINE
  5
D66
330
9D2
100
AcDbEntity
  8
D-STR-DIM
370
    -2
100
AcDbLine
 10
5706.493133539188
 20
1048.714112062604
 30
0.0
 11
5706.493133539188
 21
1068.714112062604
 31
0.0
  0
LINE
  5
D67
330
9D2
100
AcDbEntity
  8
D-STR-DIM
370
    -2
100
AcDbLine
 10
5706.493133539188
 20
978.714012956944
 30
0.0
 11
5706.493133539188
 21
958.7140129569441
 31
0.0
  0
MTEXT
  5
D68
330
9D2
100
AcDbEntity
  8
D-STR-DIM
100
AcDbMText
 10
5681.493133539188
 20
1013.714062509774
 30
0.0
 40
30.0
 41
0.0
 71
     5
 72
     1
  1
\A1;30
 11
0.0000000000000001
 21
1.0
 31
0.0
 73
     1
 44
1.0
  0
LINE
  5
D69
330
9D2
100
AcDbEntity
  8
D-STR-DIM
370
    -2
100
AcDbLine
 10
5706.493133539188
 20
1028.714112062604
 30
0.0
 11
5706.493133539188
 21
998.7140129569441
 31
0.0
  0
INSERT
  5
D6A
330
9D2
100
AcDbEntity
  8
D-STR-DIM
370
    -2
100
AcDbBlockReference
  2
_OPEN30
 10
5706.493133539188
 20
1028.714112062604
 30
0.0
 41
20.0
 42
20.0
 43
20.0
 50
270.0
  0
INSERT
  5
D6B
330
9D2
100
AcDbEntity
  8
D-STR-DIM
370
    -2
100
AcDbBlockReference
  2
_OPEN30
 10
5706.493133539188
 20
998.7140129569441
 30
0.0
 41
20.0
 42
20.0
 43
20.0
 50
90.0
  0
POINT
  5
D6C
330
9D2
100
AcDbEntity
  8
DEFPOINTS
 62
     0
100
AcDbPoint
 10
5938.492933539186
 20
1028.714112062604
 30
0.0
  0
POINT
  5
D6D
330
9D2
100
AcDbEntity
  8
DEFPOINTS
 62
     0
100
AcDbPoint
 10
5786.493133539188
 20
998.7140129569441
 30
0.0
  0
POINT
  5
D6E
330
9D2
100
AcDbEntity
  8
DEFPOINTS
 62
     0
100
AcDbPoint
 10
5706.493133539188
 20
998.7140129569441
 30
0.0
  0
ENDBLK
  5
9DF
330
9D2
100
AcDbEntity
  8
0
100
AcDbBlockEnd
  0
BLOCK
  5
9EA
330
9E0
100
AcDbEntity
  8
0
100
AcDbBlockBegin
  2
*D17
 70
     1
 10
0.0
 20
0.0
 30
0.0
  3
*D17
  1

  0
LINE
  5
D6F
330
9E0
100
AcDbEntity
  8
D-STR-DIM
370
    -2
100
AcDbLine
 10
6156.493133539188
 20
1018.714212956944
 30
0.0
 11
6156.493133539188
 21
1178.892051517842
 31
0.0
  0
LINE
  5
D70
330
9E0
100
AcDbEntity
  8
D-STR-DIM
370
    -2
100
AcDbLine
 10
6306.492833539189
 20
1018.714212956944
 30
0.0
 11
6306.492833539189
 21
1178.892051517842
 31
0.0
  0
LINE
  5
D71
330
9E0
100
AcDbEntity
  8
D-STR-DIM
370
    -2
100
AcDbLine
 10
6176.493133539189
 20
1158.892051517842
 30
0.0
 11
6286.492833539188
 21
1158.892051517842
 31
0.0
  0
INSERT
  5
D72
330
9E0
100
AcDbEntity
  8
D-STR-DIM
370
    -2
100
AcDbBlockReference
  2
_OPEN30
 10
6156.493133539188
 20
1158.892051517842
 30
0.0
 41
20.0
 42
20.0
 43
20.0
 50
180.0
  0
INSERT
  5
D73
330
9E0
100
AcDbEntity
  8
D-STR-DIM
370
    -2
100
AcDbBlockReference
  2
_OPEN30
 10
6306.492833539189
 20
1158.892051517842
 30
0.0
 41
20.0
 42
20.0
 43
20.0
  0
MTEXT
  5
D74
330
9E0
100
AcDbEntity
  8
D-STR-DIM
100
AcDbMText
 10
6231.492983539189
 20
1183.892051517842
 30
0.0
 40
30.0
 41
0.0
 71
     5
 72
     1
  1
\A1;150
 73
     1
 44
1.0
  0
POINT
  5
D75
330
9E0
100
AcDbEntity
  8
DEFPOINTS
 62
     0
100
AcDbPoint
 10
6156.493133539188
 20
1008.714212956944
 30
0.0
  0
POINT
  5
D76
330
9E0
100
AcDbEntity
  8
DEFPOINTS
 62
     0
100
AcDbPoint
 10
6306.492833539189
 20
1008.714212956944
 30
0.0
  0
POINT
  5
D77
330
9E0
100
AcDbEntity
  8
DEFPOINTS
 62
     0
100
AcDbPoint
 10
6306.492833539189
 20
1158.892051517842
 30
0.0
  0
ENDBLK
  5
9EB
330
9E0
100
AcDbEntity
  8
0
100
AcDbBlockEnd
  0
BLOCK
  5
9F8
330
9EC
100
AcDbEntity
  8
0
100
AcDbBlockBegin
  2
*D18
 70
     1
 10
0.0
 20
0.0
 30
0.0
  3
*D18
  1

  0
LINE
  5
D78
330
9EC
100
AcDbEntity
  8
D-STR-DIM
370
    -2
100
AcDbLine
 10
6154.620879805785
 20
1019.145996986338
 30
0.0
 11
6154.620879805785
 21
1178.892051517842
 31
0.0
  0
LINE
  5
D79
330
9EC
100
AcDbEntity
  8
D-STR-DIM
370
    -2
100
AcDbLine
 10
6156.493133539188
 20
1018.714212956944
 30
0.0
 11
6156.493133539188
 21
1178.892051517842
 31
0.0
  0
LINE
  5
D7A
330
9EC
100
AcDbEntity
  8
D-STR-DIM
370
    -2
100
AcDbLine
 10
6134.620879805785
 20
1158.892051517842
 30
0.0
 11
6114.620879805785
 21
1158.892051517842
 31
0.0
  0
LINE
  5
D7B
330
9EC
100
AcDbEntity
  8
D-STR-DIM
370
    -2
100
AcDbLine
 10
6176.493133539189
 20
1158.892051517842
 30
0.0
 11
6196.493133539188
 21
1158.892051517842
 31
0.0
  0
MTEXT
  5
D7C
330
9EC
100
AcDbEntity
  8
D-STR-DIM
100
AcDbMText
 10
6155.557006672487
 20
1208.892051517842
 30
0.0
 40
30.0
 41
0.0
 71
     5
 72
     1
  1
\A1;2
 73
     1
 44
1.0
  0
LINE
  5
D7D
330
9EC
100
AcDbEntity
  8
D-STR-DIM
370
    -2
100
AcDbLine
 10
6154.620879805785
 20
1158.892051517842
 30
0.0
 11
6156.493133539188
 21
1158.892051517842
 31
0.0
  0
INSERT
  5
D7E
330
9EC
100
AcDbEntity
  8
D-STR-DIM
370
    -2
100
AcDbBlockReference
  2
_OPEN30
 10
6154.620879805785
 20
1158.892051517842
 30
0.0
 41
20.0
 42
20.0
 43
20.0
  0
INSERT
  5
D7F
330
9EC
100
AcDbEntity
  8
D-STR-DIM
370
    -2
100
AcDbBlockReference
  2
_OPEN30
 10
6156.493133539188
 20
1158.892051517842
 30
0.0
 41
20.0
 42
20.0
 43
20.0
 50
180.0
  0
POINT
  5
D80
330
9EC
100
AcDbEntity
  8
DEFPOINTS
 62
     0
100
AcDbPoint
 10
6154.620879805785
 20
1009.145996986338
 30
0.0
  0
POINT
  5
D81
330
9EC
100
AcDbEntity
  8
DEFPOINTS
 62
     0
100
AcDbPoint
 10
6156.493133539188
 20
1008.714212956944
 30
0.0
  0
POINT
  5
D82
330
9EC
100
AcDbEntity
  8
DEFPOINTS
 62
     0
100
AcDbPoint
 10
6156.493133539188
 20
1158.892051517842
 30
0.0
  0
ENDBLK
  5
9F9
330
9EC
100
AcDbEntity
  8
0
100
AcDbBlockEnd
  0
BLOCK
  5
A04
330
9FA
100
AcDbEntity
  8
0
100
AcDbBlockBegin
  2
*D19
 70
     1
 10
0.0
 20
0.0
 30
0.0
  3
*D19
  1

  0
LINE
  5
D83
330
9FA
100
AcDbEntity
  8
D-STR-DIM
370
    -2
100
AcDbLine
 10
6316.492833539189
 20
1008.714212956944
 30
0.0
 11
6406.492833539188
 21
1008.714212956944
 31
0.0
  0
LINE
  5
D84
330
9FA
100
AcDbEntity
  8
D-STR-DIM
370
    -2
100
AcDbLine
 10
6316.492833539189
 20
858.7142129569445
 30
0.0
 11
6406.492833539188
 21
858.7142129569443
 31
0.0
  0
LINE
  5
D85
330
9FA
100
AcDbEntity
  8
D-STR-DIM
370
    -2
100
AcDbLine
 10
6386.492833539189
 20
988.7142129569445
 30
0.0
 11
6386.492833539189
 21
878.7142129569444
 31
0.0
  0
INSERT
  5
D86
330
9FA
100
AcDbEntity
  8
D-STR-DIM
370
    -2
100
AcDbBlockReference
  2
_OPEN30
 10
6386.492833539189
 20
1008.714212956944
 30
0.0
 41
20.0
 42
20.0
 43
20.0
 50
90.0
  0
INSERT
  5
D87
330
9FA
100
AcDbEntity
  8
D-STR-DIM
370
    -2
100
AcDbBlockReference
  2
_OPEN30
 10
6386.492833539189
 20
858.7142129569445
 30
0.0
 41
20.0
 42
20.0
 43
20.0
 50
270.0
  0
MTEXT
  5
D88
330
9FA
100
AcDbEntity
  8
D-STR-DIM
100
AcDbMText
 10
6361.492833539188
 20
933.7142129569455
 30
0.0
 40
30.0
 41
0.0
 71
     5
 72
     1
  1
\A1;150
 11
0.0000000000000001
 21
1.0
 31
0.0
 73
     1
 44
1.0
  0
POINT
  5
D89
330
9FA
100
AcDbEntity
  8
DEFPOINTS
 62
     0
100
AcDbPoint
 10
6306.492833539189
 20
1008.714212956944
 30
0.0
  0
POINT
  5
D8A
330
9FA
100
AcDbEntity
  8
DEFPOINTS
 62
     0
100
AcDbPoint
 10
6306.492833539189
 20
858.7142129569445
 30
0.0
  0
POINT
  5
D8B
330
9FA
100
AcDbEntity
  8
DEFPOINTS
 62
     0
100
AcDbPoint
 10
6386.492833539189
 20
858.7142129569445
 30
0.0
  0
ENDBLK
  5
A05
330
9FA
100
AcDbEntity
  8
0
100
AcDbBlockEnd
  0
BLOCK
  5
A10
330
A06
100
AcDbEntity
  8
0
100
AcDbBlockBegin
  2
*D20
 70
     1
 10
0.0
 20
0.0
 30
0.0
  3
*D20
  1

  0
LINE
  5
D8C
330
A06
100
AcDbEntity
  8
D-STR-DIM
370
    -2
100
AcDbLine
 10
6164.493033539191
 20
1028.714112062604
 30
0.0
 11
6510.911765069504
 21
1028.714112062604
 31
0.0
  0
LINE
  5
D8D
330
A06
100
AcDbEntity
  8
D-STR-DIM
370
    -2
100
AcDbLine
 10
6316.492833539189
 20
858.7142129569445
 30
0.0
 11
6510.911765069504
 21
858.7142129569443
 31
0.0
  0
LINE
  5
D8E
330
A06
100
AcDbEntity
  8
D-STR-DIM
370
    -2
100
AcDbLine
 10
6490.911765069504
 20
1008.714112062604
 30
0.0
 11
6490.911765069504
 21
878.7142129569444
 31
0.0
  0
INSERT
  5
D8F
330
A06
100
AcDbEntity
  8
D-STR-DIM
370
    -2
100
AcDbBlockReference
  2
_OPEN30
 10
6490.911765069504
 20
1028.714112062604
 30
0.0
 41
20.0
 42
20.0
 43
20.0
 50
90.0
  0
INSERT
  5
D90
330
A06
100
AcDbEntity
  8
D-STR-DIM
370
    -2
100
AcDbBlockReference
  2
_OPEN30
 10
6490.911765069504
 20
858.7142129569443
 30
0.0
 41
20.0
 42
20.0
 43
20.0
 50
270.0
  0
MTEXT
  5
D91
330
A06
100
AcDbEntity
  8
D-STR-DIM
100
AcDbMText
 10
6465.911765069503
 20
943.7141625097755
 30
0.0
 40
30.0
 41
0.0
 71
     5
 72
     1
  1
\A1;170
 11
0.0000000000000001
 21
1.0
 31
0.0
 73
     1
 44
1.0
  0
POINT
  5
D92
330
A06
100
AcDbEntity
  8
DEFPOINTS
 62
     0
100
AcDbPoint
 10
6154.493033539191
 20
1028.714112062604
 30
0.0
  0
POINT
  5
D93
330
A06
100
AcDbEntity
  8
DEFPOINTS
 62
     0
100
AcDbPoint
 10
6306.492833539189
 20
858.7142129569445
 30
0.0
  0
POINT
  5
D94
330
A06
100
AcDbEntity
  8
DEFPOINTS
 62
     0
100
AcDbPoint
 10
6490.911765069504
 20
858.7142129569443
 30
0.0
  0
ENDBLK
  5
A11
330
A06
100
AcDbEntity
  8
0
100
AcDbBlockEnd
  0
BLOCK
  5
A1E
330
A12
100
AcDbEntity
  8
0
100
AcDbBlockBegin
  2
*D21
 70
     1
 10
0.0
 20
0.0
 30
0.0
  3
*D21
  1

  0
LINE
  5
D95
330
A12
100
AcDbEntity
  8
D-STR-DIM
370
    -2
100
AcDbLine
 10
6164.493033539191
 20
1028.714112062604
 30
0.0
 11
6406.492833539188
 21
1028.714112062604
 31
0.0
  0
LINE
  5
D96
330
A12
100
AcDbEntity
  8
D-STR-DIM
370
    -2
100
AcDbLine
 10
6316.492833539189
 20
1008.714212956944
 30
0.0
 11
6406.492833539188
 21
1008.714212956944
 31
0.0
  0
LINE
  5
D97
330
A12
100
AcDbEntity
  8
D-STR-DIM
370
    -2
100
AcDbLine
 10
6386.492833539189
 20
1048.714112062604
 30
0.0
 11
6386.492833539189
 21
1068.714112062604
 31
0.0
  0
LINE
  5
D98
330
A12
100
AcDbEntity
  8
D-STR-DIM
370
    -2
100
AcDbLine
 10
6386.492833539189
 20
988.7142129569445
 30
0.0
 11
6386.492833539189
 21
968.7142129569444
 31
0.0
  0
MTEXT
  5
D99
330
A12
100
AcDbEntity
  8
D-STR-DIM
100
AcDbMText
 10
6361.492833539188
 20
1018.714162509774
 30
0.0
 40
30.0
 41
0.0
 71
     5
 72
     1
  1
\A1;20
 11
0.0000000000000001
 21
1.0
 31
0.0
 73
     1
 44
1.0
  0
LINE
  5
D9A
330
A12
100
AcDbEntity
  8
D-STR-DIM
370
    -2
100
AcDbLine
 10
6386.492833539189
 20
1028.714112062604
 30
0.0
 11
6386.492833539189
 21
1008.714212956944
 31
0.0
  0
INSERT
  5
D9B
330
A12
100
AcDbEntity
  8
D-STR-DIM
370
    -2
100
AcDbBlockReference
  2
_OPEN30
 10
6386.492833539189
 20
1028.714112062604
 30
0.0
 41
20.0
 42
20.0
 43
20.0
 50
270.0
  0
INSERT
  5
D9C
330
A12
100
AcDbEntity
  8
D-STR-DIM
370
    -2
100
AcDbBlockReference
  2
_OPEN30
 10
6386.492833539189
 20
1008.714212956944
 30
0.0
 41
20.0
 42
20.0
 43
20.0
 50
90.0
  0
POINT
  5
D9D
330
A12
100
AcDbEntity
  8
DEFPOINTS
 62
     0
100
AcDbPoint
 10
6154.493033539191
 20
1028.714112062604
 30
0.0
  0
POINT
  5
D9E
330
A12
100
AcDbEntity
  8
DEFPOINTS
 62
     0
100
AcDbPoint
 10
6306.492833539189
 20
1008.714212956944
 30
0.0
  0
POINT
  5
D9F
330
A12
100
AcDbEntity
  8
DEFPOINTS
 62
     0
100
AcDbPoint
 10
6386.492833539189
 20
1008.714212956944
 30
0.0
  0
ENDBLK
  5
A1F
330
A12
100
AcDbEntity
  8
0
100
AcDbBlockEnd
  0
BLOCK
  5
A2A
330
A20
100
AcDbEntity
  8
0
100
AcDbBlockBegin
  2
*D22
 70
     1
 10
0.0
 20
0.0
 30
0.0
  3
*D22
  1

  0
LINE
  5
DA0
330
A20
100
AcDbEntity
  8
D-STR-DIM
370
    -2
100
AcDbLine
 10
4375.690105860536
 20
2739.617086470171
 30
0.0
 11
4375.690105860536
 21
3029.972963591968
 31
0.0
  0
LINE
  5
DA1
330
A20
100
AcDbEntity
  8
D-STR-DIM
370
    -2
100
AcDbLine
 10
2377.690165860534
 20
2739.617086470171
 30
0.0
 11
2377.690165860534
 21
3029.972963591968
 31
0.0
  0
LINE
  5
DA2
330
A20
100
AcDbEntity
  8
D-STR-DIM
370
    -2
100
AcDbLine
 10
4355.690105860536
 20
3009.972963591968
 30
0.0
 11
2397.690165860534
 21
3009.972963591968
 31
0.0
  0
INSERT
  5
DA3
330
A20
100
AcDbEntity
  8
D-STR-DIM
370
    -2
100
AcDbBlockReference
  2
_OPEN30
 10
4375.690105860536
 20
3009.972963591968
 30
0.0
 41
20.0
 42
20.0
 43
20.0
  0
INSERT
  5
DA4
330
A20
100
AcDbEntity
  8
D-STR-DIM
370
    -2
100
AcDbBlockReference
  2
_OPEN30
 10
2377.690165860534
 20
3009.972963591968
 30
0.0
 41
20.0
 42
20.0
 43
20.0
 50
180.0
  0
MTEXT
  5
DA5
330
A20
100
AcDbEntity
  8
D-STR-DIM
100
AcDbMText
 10
3376.690135860535
 20
3034.972963591968
 30
0.0
 40
30.0
 41
0.0
 71
     5
 72
     1
  1
\A1;1998
 73
     1
 44
1.0
  0
POINT
  5
DA6
330
A20
100
AcDbEntity
  8
DEFPOINTS
 62
     0
100
AcDbPoint
 10
4375.690105860536
 20
2729.617086470172
 30
0.0
  0
POINT
  5
DA7
330
A20
100
AcDbEntity
  8
DEFPOINTS
 62
     0
100
AcDbPoint
 10
2377.690165860534
 20
2729.617086470172
 30
0.0
  0
POINT
  5
DA8
330
A20
100
AcDbEntity
  8
DEFPOINTS
 62
     0
100
AcDbPoint
 10
2377.690165860534
 20
3009.972963591968
 30
0.0
  0
ENDBLK
  5
A2B
330
A20
100
AcDbEntity
  8
0
100
AcDbBlockEnd
  0
BLOCK
  5
A36
330
A2C
100
AcDbEntity
  8
0
100
AcDbBlockBegin
  2
*D23
 70
     1
 10
0.0
 20
0.0
 30
0.0
  3
*D23
  1

  0
LINE
  5
DA9
330
A2C
100
AcDbEntity
  8
D-STR-DIM
370
    -2
100
AcDbLine
 10
1817.690437663812
 20
2573.563660822324
 30
0.0
 11
1817.690437663812
 21
2904.794865031071
 31
0.0
  0
LINE
  5
DAA
330
A2C
100
AcDbEntity
  8
D-STR-DIM
370
    -2
100
AcDbLine
 10
1967.690137663812
 20
2744.617026470173
 30
0.0
 11
1967.690137663812
 21
2904.794865031071
 31
0.0
  0
LINE
  5
DAB
330
A2C
100
AcDbEntity
  8
D-STR-DIM
370
    -2
100
AcDbLine
 10
1837.690437663812
 20
2884.794865031071
 30
0.0
 11
1947.690137663812
 21
2884.794865031071
 31
0.0
  0
INSERT
  5
DAC
330
A2C
100
AcDbEntity
  8
D-STR-DIM
370
    -2
100
AcDbBlockReference
  2
_OPEN30
 10
1817.690437663812
 20
2884.794865031071
 30
0.0
 41
20.0
 42
20.0
 43
20.0
 50
180.0
  0
INSERT
  5
DAD
330
A2C
100
AcDbEntity
  8
D-STR-DIM
370
    -2
100
AcDbBlockReference
  2
_OPEN30
 10
1967.690137663812
 20
2884.794865031071
 30
0.0
 41
20.0
 42
20.0
 43
20.0
  0
MTEXT
  5
DAE
330
A2C
100
AcDbEntity
  8
D-STR-DIM
100
AcDbMText
 10
1892.690287663812
 20
2909.79486503107
 30
0.0
 40
30.0
 41
0.0
 71
     5
 72
     1
  1
\A1;150
 73
     1
 44
1.0
  0
POINT
  5
DAF
330
A2C
100
AcDbEntity
  8
DEFPOINTS
 62
     0
100
AcDbPoint
 10
1817.690437663812
 20
2563.563660822325
 30
0.0
  0
POINT
  5
DB0
330
A2C
100
AcDbEntity
  8
DEFPOINTS
 62
     0
100
AcDbPoint
 10
1967.690137663812
 20
2734.617026470173
 30
0.0
  0
POINT
  5
DB1
330
A2C
100
AcDbEntity
  8
DEFPOINTS
 62
     0
100
AcDbPoint
 10
1967.690137663812
 20
2884.794865031071
 30
0.0
  0
ENDBLK
  5
A37
330
A2C
100
AcDbEntity
  8
0
100
AcDbBlockEnd
  0
BLOCK
  5
A44
330
A38
100
AcDbEntity
  8
0
100
AcDbBlockBegin
  2
*D24
 70
     1
 10
0.0
 20
0.0
 30
0.0
  3
*D24
  1

  0
LINE
  5
DB2
330
A38
100
AcDbEntity
  8
D-STR-DIM
370
    -2
100
AcDbLine
 10
1797.690161263985
 20
2764.616926470173
 30
0.0
 11
1797.690161263985
 21
2904.794865031071
 31
0.0
  0
LINE
  5
DB3
330
A38
100
AcDbEntity
  8
D-STR-DIM
370
    -2
100
AcDbLine
 10
1817.690437663812
 20
2573.563660822324
 30
0.0
 11
1817.690437663812
 21
2904.794865031071
 31
0.0
  0
LINE
  5
DB4
330
A38
100
AcDbEntity
  8
D-STR-DIM
370
    -2
100
AcDbLine
 10
1777.690161263985
 20
2884.794865031071
 30
0.0
 11
1757.690161263985
 21
2884.794865031071
 31
0.0
  0
LINE
  5
DB5
330
A38
100
AcDbEntity
  8
D-STR-DIM
370
    -2
100
AcDbLine
 10
1837.690437663812
 20
2884.794865031071
 30
0.0
 11
1857.690437663812
 21
2884.794865031071
 31
0.0
  0
MTEXT
  5
DB6
330
A38
100
AcDbEntity
  8
D-STR-DIM
100
AcDbMText
 10
1807.690299463898
 20
2934.79486503107
 30
0.0
 40
30.0
 41
0.0
 71
     5
 72
     1
  1
\A1;20
 73
     1
 44
1.0
  0
LINE
  5
DB7
330
A38
100
AcDbEntity
  8
D-STR-DIM
370
    -2
100
AcDbLine
 10
1797.690161263985
 20
2884.794865031071
 30
0.0
 11
1817.690437663812
 21
2884.794865031071
 31
0.0
  0
INSERT
  5
DB8
330
A38
100
AcDbEntity
  8
D-STR-DIM
370
    -2
100
AcDbBlockReference
  2
_OPEN30
 10
1797.690161263985
 20
2884.794865031071
 30
0.0
 41
20.0
 42
20.0
 43
20.0
  0
INSERT
  5
DB9
330
A38
100
AcDbEntity
  8
D-STR-DIM
370
    -2
100
AcDbBlockReference
  2
_OPEN30
 10
1817.690437663812
 20
2884.794865031071
 30
0.0
 41
20.0
 42
20.0
 43
20.0
 50
180.0
  0
POINT
  5
DBA
330
A38
100
AcDbEntity
  8
DEFPOINTS
 62
     0
100
AcDbPoint
 10
1797.690161263985
 20
2754.616926470173
 30
0.0
  0
POINT
  5
DBB
330
A38
100
AcDbEntity
  8
DEFPOINTS
 62
     0
100
AcDbPoint
 10
1817.690437663812
 20
2563.563660822325
 30
0.0
  0
POINT
  5
DBC
330
A38
100
AcDbEntity
  8
DEFPOINTS
 62
     0
100
AcDbPoint
 10
1817.690437663812
 20
2884.794865031071
 30
0.0
  0
ENDBLK
  5
A45
330
A38
100
AcDbEntity
  8
0
100
AcDbBlockEnd
  0
BLOCK
  5
A50
330
A46
100
AcDbEntity
  8
0
100
AcDbBlockBegin
  2
*D25
 70
     1
 10
0.0
 20
0.0
 30
0.0
  3
*D25
  1

  0
LINE
  5
DBD
330
A46
100
AcDbEntity
  8
D-STR-DIM
370
    -2
100
AcDbLine
 10
1977.690162663813
 20
2564.617026470173
 30
0.0
 11
2147.690162663835
 21
2564.617026470173
 31
0.0
  0
LINE
  5
DBE
330
A46
100
AcDbEntity
  8
D-STR-DIM
370
    -2
100
AcDbLine
 10
1977.690162663835
 20
2414.617026470173
 30
0.0
 11
2147.690162663835
 21
2414.617026470173
 31
0.0
  0
LINE
  5
DBF
330
A46
100
AcDbEntity
  8
D-STR-DIM
370
    -2
100
AcDbLine
 10
2127.690162663835
 20
2544.617026470173
 30
0.0
 11
2127.690162663835
 21
2434.617026470173
 31
0.0
  0
INSERT
  5
DC0
330
A46
100
AcDbEntity
  8
D-STR-DIM
370
    -2
100
AcDbBlockReference
  2
_OPEN30
 10
2127.690162663835
 20
2564.617026470173
 30
0.0
 41
20.0
 42
20.0
 43
20.0
 50
90.0
  0
INSERT
  5
DC1
330
A46
100
AcDbEntity
  8
D-STR-DIM
370
    -2
100
AcDbBlockReference
  2
_OPEN30
 10
2127.690162663835
 20
2414.617026470173
 30
0.0
 41
20.0
 42
20.0
 43
20.0
 50
270.0
  0
MTEXT
  5
DC2
330
A46
100
AcDbEntity
  8
D-STR-DIM
100
AcDbMText
 10
2102.690162663835
 20
2489.617026470174
 30
0.0
 40
30.0
 41
0.0
 71
     5
 72
     1
  1
\A1;150
 11
0.0000000000000001
 21
1.0
 31
0.0
 73
     1
 44
1.0
  0
POINT
  5
DC3
330
A46
100
AcDbEntity
  8
DEFPOINTS
 62
     0
100
AcDbPoint
 10
1967.690162663813
 20
2564.617026470173
 30
0.0
  0
POINT
  5
DC4
330
A46
100
AcDbEntity
  8
DEFPOINTS
 62
     0
100
AcDbPoint
 10
1967.690162663835
 20
2414.617026470173
 30
0.0
  0
POINT
  5
DC5
330
A46
100
AcDbEntity
  8
DEFPOINTS
 62
     0
100
AcDbPoint
 10
2127.690162663835
 20
2414.617026470173
 30
0.0
  0
ENDBLK
  5
A51
330
A46
100
AcDbEntity
  8
0
100
AcDbBlockEnd
  0
BLOCK
  5
A5C
330
A52
100
AcDbEntity
  8
0
100
AcDbBlockBegin
  2
*D26
 70
     1
 10
0.0
 20
0.0
 30
0.0
  3
*D26
  1

  0
LINE
  5
DC6
330
A52
100
AcDbEntity
  8
D-STR-DIM
370
    -2
100
AcDbLine
 10
1807.690161263985
 20
2754.616926470173
 30
0.0
 11
2252.109094194151
 21
2754.616926470173
 31
0.0
  0
LINE
  5
DC7
330
A52
100
AcDbEntity
  8
D-STR-DIM
370
    -2
100
AcDbLine
 10
1977.690162663835
 20
2414.617026470173
 30
0.0
 11
2252.109094194151
 21
2414.617026470173
 31
0.0
  0
LINE
  5
DC8
330
A52
100
AcDbEntity
  8
D-STR-DIM
370
    -2
100
AcDbLine
 10
2232.109094194151
 20
2734.616926470172
 30
0.0
 11
2232.109094194151
 21
2434.617026470173
 31
0.0
  0
INSERT
  5
DC9
330
A52
100
AcDbEntity
  8
D-STR-DIM
370
    -2
100
AcDbBlockReference
  2
_OPEN30
 10
2232.109094194151
 20
2754.616926470173
 30
0.0
 41
20.0
 42
20.0
 43
20.0
 50
90.0
  0
INSERT
  5
DCA
330
A52
100
AcDbEntity
  8
D-STR-DIM
370
    -2
100
AcDbBlockReference
  2
_OPEN30
 10
2232.109094194151
 20
2414.617026470173
 30
0.0
 41
20.0
 42
20.0
 43
20.0
 50
270.0
  0
MTEXT
  5
DCB
330
A52
100
AcDbEntity
  8
D-STR-DIM
100
AcDbMText
 10
2207.10909419415
 20
2584.616976470173
 30
0.0
 40
30.0
 41
0.0
 71
     5
 72
     1
  1
\A1;340
 11
0.0000000000000001
 21
1.0
 31
0.0
 73
     1
 44
1.0
  0
POINT
  5
DCC
330
A52
100
AcDbEntity
  8
DEFPOINTS
 62
     0
100
AcDbPoint
 10
1797.690161263985
 20
2754.616926470173
 30
0.0
  0
POINT
  5
DCD
330
A52
100
AcDbEntity
  8
DEFPOINTS
 62
     0
100
AcDbPoint
 10
1967.690162663835
 20
2414.617026470173
 30
0.0
  0
POINT
  5
DCE
330
A52
100
AcDbEntity
  8
DEFPOINTS
 62
     0
100
AcDbPoint
 10
2232.109094194151
 20
2414.617026470173
 30
0.0
  0
ENDBLK
  5
A5D
330
A52
100
AcDbEntity
  8
0
100
AcDbBlockEnd
  0
BLOCK
  5
A68
330
A5E
100
AcDbEntity
  8
0
100
AcDbBlockBegin
  2
*D27
 70
     1
 10
0.0
 20
0.0
 30
0.0
  3
*D27
  1

  0
LINE
  5
DCF
330
A5E
100
AcDbEntity
  8
D-STR-DIM
  6
Continuous
370
    -2
100
AcDbLine
 10
1977.690162663813
 20
2564.617026470173
 30
0.0
 11
2082.690162663821
 21
2564.617026470173
 31
0.0
  0
LINE
  5
DD0
330
A5E
100
AcDbEntity
  8
D-STR-DIM
  6
Continuous
370
    -2
100
AcDbLine
 10
1813.690184705418
 20
2694.616945245897
 30
0.0
 11
2082.690162663821
 21
2694.616945245897
 31
0.0
  0
LINE
  5
DD1
330
A5E
100
AcDbEntity
  8
D-STR-DIM
  6
Continuous
370
    -2
100
AcDbLine
 10
2062.690162663821
 20
2584.617026470173
 30
0.0
 11
2062.690162663821
 21
2674.616945245897
 31
0.0
  0
INSERT
  5
DD2
330
A5E
100
AcDbEntity
  8
D-STR-DIM
  6
Continuous
370
    -2
100
AcDbBlockReference
  2
_OPEN30
 10
2062.690162663821
 20
2564.617026470173
 30
0.0
 41
20.0
 42
20.0
 43
20.0
 50
270.0
  0
INSERT
  5
DD3
330
A5E
100
AcDbEntity
  8
D-STR-DIM
  6
Continuous
370
    -2
100
AcDbBlockReference
  2
_OPEN30
 10
2062.690162663821
 20
2694.616945245897
 30
0.0
 41
20.0
 42
20.0
 43
20.0
 50
90.0
  0
MTEXT
  5
DD4
330
A5E
100
AcDbEntity
  8
D-STR-DIM
  6
Continuous
100
AcDbMText
 10
2037.690162663821
 20
2629.616985858035
 30
0.0
 40
30.0
 41
0.0
 71
     5
 72
     1
  1
\A1;130
 11
0.0000000000000001
 21
1.0
 31
0.0
 73
     1
 44
1.0
  0
POINT
  5
DD5
330
A5E
100
AcDbEntity
  8
DEFPOINTS
  6
Continuous
 62
     0
100
AcDbPoint
 10
1967.690162663813
 20
2564.617026470173
 30
0.0
  0
POINT
  5
DD6
330
A5E
100
AcDbEntity
  8
DEFPOINTS
  6
Continuous
 62
     0
100
AcDbPoint
 10
1803.690184705417
 20
2694.616945245897
 30
0.0
  0
POINT
  5
DD7
330
A5E
100
AcDbEntity
  8
DEFPOINTS
  6
Continuous
 62
     0
100
AcDbPoint
 10
2062.690162663821
 20
2694.616945245897
 30
0.0
  0
ENDBLK
  5
A69
330
A5E
100
AcDbEntity
  8
0
100
AcDbBlockEnd
  0
BLOCK
  5
A74
330
A6A
100
AcDbEntity
  8
0
100
AcDbBlockBegin
  2
*D28
 70
     1
 10
0.0
 20
0.0
 30
0.0
  3
*D28
  1

  0
LINE
  5
DD8
330
A6A
100
AcDbEntity
  8
D-STR-DIM
370
    -2
100
AcDbLine
 10
1807.690161263985
 20
2754.616926470173
 30
0.0
 11
2147.690162663835
 21
2754.616926470173
 31
0.0
  0
LINE
  5
DD9
330
A6A
100
AcDbEntity
  8
D-STR-DIM
370
    -2
100
AcDbLine
 10
1977.690162663813
 20
2564.617026470173
 30
0.0
 11
2147.690162663835
 21
2564.617026470173
 31
0.0
  0
LINE
  5
DDA
330
A6A
100
AcDbEntity
  8
D-STR-DIM
370
    -2
100
AcDbLine
 10
2127.690162663835
 20
2734.616926470172
 30
0.0
 11
2127.690162663835
 21
2584.617026470173
 31
0.0
  0
MTEXT
  5
DDB
330
A6A
100
AcDbEntity
  8
D-STR-DIM
100
AcDbMText
 10
2102.690162663835
 20
2659.616976970172
 30
0.0
 40
30.0
 41
0.0
 71
     5
 72
     1
  1
\A1;190
 11
0.0000000000000001
 21
1.0
 31
0.0
 73
     1
 44
1.0
  0
INSERT
  5
DDC
330
A6A
100
AcDbEntity
  8
D-STR-DIM
370
    -2
100
AcDbBlockReference
  2
_OPEN30
 10
2127.690162663835
 20
2754.616926470173
 30
0.0
 41
20.0
 42
20.0
 43
20.0
 50
90.0
  0
INSERT
  5
DDD
330
A6A
100
AcDbEntity
  8
D-STR-DIM
370
    -2
100
AcDbBlockReference
  2
_OPEN30
 10
2127.690162663835
 20
2564.617026470173
 30
0.0
 41
20.0
 42
20.0
 43
20.0
 50
270.0
  0
POINT
  5
DDE
330
A6A
100
AcDbEntity
  8
DEFPOINTS
 62
     0
100
AcDbPoint
 10
1797.690161263985
 20
2754.616926470173
 30
0.0
  0
POINT
  5
DDF
330
A6A
100
AcDbEntity
  8
DEFPOINTS
 62
     0
100
AcDbPoint
 10
1967.690162663813
 20
2564.617026470173
 30
0.0
  0
POINT
  5
DE0
330
A6A
100
AcDbEntity
  8
DEFPOINTS
 62
     0
100
AcDbPoint
 10
2127.690162663835
 20
2564.617026470173
 30
0.0
  0
ENDBLK
  5
A75
330
A6A
100
AcDbEntity
  8
0
100
AcDbBlockEnd
  0
BLOCK
  5
A80
330
A76
100
AcDbEntity
  8
0
100
AcDbBlockBegin
  2
*D29
 70
     1
 10
0.0
 20
0.0
 30
0.0
  3
*D29
  1

  0
LINE
  5
DE1
330
A76
100
AcDbEntity
  8
D-STR-DIM
370
    -2
100
AcDbLine
 10
5916.838948666693
 20
2764.615411130601
 30
0.0
 11
5916.838948666693
 21
2904.7933496915
 31
0.0
  0
LINE
  5
DE2
330
A76
100
AcDbEntity
  8
D-STR-DIM
370
    -2
100
AcDbLine
 10
6096.838614561057
 20
2764.615411130601
 30
0.0
 11
6096.838614561057
 21
2904.7933496915
 31
0.0
  0
LINE
  5
DE3
330
A76
100
AcDbEntity
  8
D-STR-DIM
370
    -2
100
AcDbLine
 10
5936.838948666693
 20
2884.7933496915
 30
0.0
 11
6076.838614561057
 21
2884.7933496915
 31
0.0
  0
INSERT
  5
DE4
330
A76
100
AcDbEntity
  8
D-STR-DIM
370
    -2
100
AcDbBlockReference
  2
_OPEN30
 10
5916.838948666693
 20
2884.7933496915
 30
0.0
 41
20.0
 42
20.0
 43
20.0
 50
180.0
  0
INSERT
  5
DE5
330
A76
100
AcDbEntity
  8
D-STR-DIM
370
    -2
100
AcDbBlockReference
  2
_OPEN30
 10
6096.838614561057
 20
2884.7933496915
 30
0.0
 41
20.0
 42
20.0
 43
20.0
  0
MTEXT
  5
DE6
330
A76
100
AcDbEntity
  8
D-STR-DIM
100
AcDbMText
 10
6006.838781613875
 20
2909.7933496915
 30
0.0
 40
30.0
 41
0.0
 71
     5
 72
     1
  1
\A1;180
 73
     1
 44
1.0
  0
POINT
  5
DE7
330
A76
100
AcDbEntity
  8
DEFPOINTS
 62
     0
100
AcDbPoint
 10
5916.838948666693
 20
2754.615411130601
 30
0.0
  0
POINT
  5
DE8
330
A76
100
AcDbEntity
  8
DEFPOINTS
 62
     0
100
AcDbPoint
 10
6096.838614561057
 20
2754.615411130601
 30
0.0
  0
POINT
  5
DE9
330
A76
100
AcDbEntity
  8
DEFPOINTS
 62
     0
100
AcDbPoint
 10
6096.838614561057
 20
2884.7933496915
 30
0.0
  0
ENDBLK
  5
A81
330
A76
100
AcDbEntity
  8
0
100
AcDbBlockEnd
  0
BLOCK
  5
A8C
330
A82
100
AcDbEntity
  8
0
100
AcDbBlockBegin
  2
*D30
 70
     1
 10
0.0
 20
0.0
 30
0.0
  3
*D30
  1

  0
LINE
  5
DEA
330
A82
100
AcDbEntity
  8
D-STR-DIM
370
    -2
100
AcDbLine
 10
5746.838795960888
 20
2564.615311130601
 30
0.0
 11
5746.838795960888
 21
3034.971388252399
 31
0.0
  0
LINE
  5
DEB
330
A82
100
AcDbEntity
  8
D-STR-DIM
370
    -2
100
AcDbLine
 10
6266.838615960885
 20
2574.615511130601
 30
0.0
 11
6266.838615960885
 21
3034.971388252399
 31
0.0
  0
LINE
  5
DEC
330
A82
100
AcDbEntity
  8
D-STR-DIM
370
    -2
100
AcDbLine
 10
5766.838795960888
 20
3014.971388252399
 30
0.0
 11
6246.838615960886
 21
3014.971388252399
 31
0.0
  0
INSERT
  5
DED
330
A82
100
AcDbEntity
  8
D-STR-DIM
370
    -2
100
AcDbBlockReference
  2
_OPEN30
 10
5746.838795960888
 20
3014.971388252399
 30
0.0
 41
20.0
 42
20.0
 43
20.0
 50
180.0
  0
INSERT
  5
DEE
330
A82
100
AcDbEntity
  8
D-STR-DIM
370
    -2
100
AcDbBlockReference
  2
_OPEN30
 10
6266.838615960885
 20
3014.971388252399
 30
0.0
 41
20.0
 42
20.0
 43
20.0
  0
MTEXT
  5
DEF
330
A82
100
AcDbEntity
  8
D-STR-DIM
100
AcDbMText
 10
6006.838705960887
 20
3039.971388252399
 30
0.0
 40
30.0
 41
0.0
 71
     5
 72
     1
  1
\A1;520
 73
     1
 44
1.0
  0
POINT
  5
DF0
330
A82
100
AcDbEntity
  8
DEFPOINTS
 62
     0
100
AcDbPoint
 10
5746.838795960888
 20
2554.615311130601
 30
0.0
  0
POINT
  5
DF1
330
A82
100
AcDbEntity
  8
DEFPOINTS
 62
     0
100
AcDbPoint
 10
6266.838615960885
 20
2564.615511130601
 30
0.0
  0
POINT
  5
DF2
330
A82
100
AcDbEntity
  8
DEFPOINTS
 62
     0
100
AcDbPoint
 10
6266.838615960885
 20
3014.971388252399
 30
0.0
  0
ENDBLK
  5
A8D
330
A82
100
AcDbEntity
  8
0
100
AcDbBlockEnd
  0
BLOCK
  5
A98
330
A8E
100
AcDbEntity
  8
0
100
AcDbBlockBegin
  2
*D31
 70
     1
 10
0.0
 20
0.0
 30
0.0
  3
*D31
  1

  0
LINE
  5
DF3
330
A8E
100
AcDbEntity
  8
D-STR-DIM
370
    -2
100
AcDbLine
 10
5746.838795960888
 20
2564.615311130601
 30
0.0
 11
5746.838795960888
 21
2904.7933496915
 31
0.0
  0
LINE
  5
DF4
330
A8E
100
AcDbEntity
  8
D-STR-DIM
370
    -2
100
AcDbLine
 10
5896.838590960884
 20
2569.776222522283
 30
0.0
 11
5896.838590960884
 21
2904.7933496915
 31
0.0
  0
LINE
  5
DF5
330
A8E
100
AcDbEntity
  8
D-STR-DIM
370
    -2
100
AcDbLine
 10
5766.838795960888
 20
2884.7933496915
 30
0.0
 11
5876.838590960884
 21
2884.7933496915
 31
0.0
  0
INSERT
  5
DF6
330
A8E
100
AcDbEntity
  8
D-STR-DIM
370
    -2
100
AcDbBlockReference
  2
_OPEN30
 10
5746.838795960888
 20
2884.7933496915
 30
0.0
 41
20.0
 42
20.0
 43
20.0
 50
180.0
  0
INSERT
  5
DF7
330
A8E
100
AcDbEntity
  8
D-STR-DIM
370
    -2
100
AcDbBlockReference
  2
_OPEN30
 10
5896.838590960884
 20
2884.7933496915
 30
0.0
 41
20.0
 42
20.0
 43
20.0
  0
MTEXT
  5
DF8
330
A8E
100
AcDbEntity
  8
D-STR-DIM
100
AcDbMText
 10
5821.838693460886
 20
2909.7933496915
 30
0.0
 40
30.0
 41
0.0
 71
     5
 72
     1
  1
\A1;150
 73
     1
 44
1.0
  0
POINT
  5
DF9
330
A8E
100
AcDbEntity
  8
DEFPOINTS
 62
     0
100
AcDbPoint
 10
5746.838795960888
 20
2554.615311130601
 30
0.0
  0
POINT
  5
DFA
330
A8E
100
AcDbEntity
  8
DEFPOINTS
 62
     0
100
AcDbPoint
 10
5896.838590960884
 20
2559.776222522283
 30
0.0
  0
POINT
  5
DFB
330
A8E
100
AcDbEntity
  8
DEFPOINTS
 62
     0
100
AcDbPoint
 10
5896.838590960884
 20
2884.7933496915
 30
0.0
  0
ENDBLK
  5
A99
330
A8E
100
AcDbEntity
  8
0
100
AcDbBlockEnd
  0
BLOCK
  5
AA6
330
A9A
100
AcDbEntity
  8
0
100
AcDbBlockBegin
  2
*D32
 70
     1
 10
0.0
 20
0.0
 30
0.0
  3
*D32
  1

  0
LINE
  5
DFC
330
A9A
100
AcDbEntity
  8
D-STR-DIM
370
    -2
100
AcDbLine
 10
5896.838590960884
 20
2569.776222522283
 30
0.0
 11
5896.838590960884
 21
2904.7933496915
 31
0.0
  0
LINE
  5
DFD
330
A9A
100
AcDbEntity
  8
D-STR-DIM
370
    -2
100
AcDbLine
 10
5916.838948666693
 20
2764.615411130601
 30
0.0
 11
5916.838948666693
 21
2904.7933496915
 31
0.0
  0
LINE
  5
DFE
330
A9A
100
AcDbEntity
  8
D-STR-DIM
370
    -2
100
AcDbLine
 10
5876.838590960884
 20
2884.7933496915
 30
0.0
 11
5856.838590960884
 21
2884.7933496915
 31
0.0
  0
LINE
  5
DFF
330
A9A
100
AcDbEntity
  8
D-STR-DIM
370
    -2
100
AcDbLine
 10
5936.838948666693
 20
2884.7933496915
 30
0.0
 11
5956.838948666693
 21
2884.7933496915
 31
0.0
  0
MTEXT
  5
E00
330
A9A
100
AcDbEntity
  8
D-STR-DIM
100
AcDbMText
 10
5906.838769813788
 20
2934.7933496915
 30
0.0
 40
30.0
 41
0.0
 71
     5
 72
     1
  1
\A1;20
 73
     1
 44
1.0
  0
LINE
  5
E01
330
A9A
100
AcDbEntity
  8
D-STR-DIM
370
    -2
100
AcDbLine
 10
5896.838590960884
 20
2884.7933496915
 30
0.0
 11
5916.838948666693
 21
2884.7933496915
 31
0.0
  0
INSERT
  5
E02
330
A9A
100
AcDbEntity
  8
D-STR-DIM
370
    -2
100
AcDbBlockReference
  2
_OPEN30
 10
5896.838590960884
 20
2884.7933496915
 30
0.0
 41
20.0
 42
20.0
 43
20.0
  0
INSERT
  5
E03
330
A9A
100
AcDbEntity
  8
D-STR-DIM
370
    -2
100
AcDbBlockReference
  2
_OPEN30
 10
5916.838948666693
 20
2884.7933496915
 30
0.0
 41
20.0
 42
20.0
 43
20.0
 50
180.0
  0
POINT
  5
E04
330
A9A
100
AcDbEntity
  8
DEFPOINTS
 62
     0
100
AcDbPoint
 10
5896.838590960884
 20
2559.776222522283
 30
0.0
  0
POINT
  5
E05
330
A9A
100
AcDbEntity
  8
DEFPOINTS
 62
     0
100
AcDbPoint
 10
5916.838948666693
 20
2754.615411130601
 30
0.0
  0
POINT
  5
E06
330
A9A
100
AcDbEntity
  8
DEFPOINTS
 62
     0
100
AcDbPoint
 10
5916.838948666693
 20
2884.7933496915
 30
0.0
  0
ENDBLK
  5
AA7
330
A9A
100
AcDbEntity
  8
0
100
AcDbBlockEnd
  0
BLOCK
  5
AB2
330
AA8
100
AcDbEntity
  8
0
100
AcDbBlockBegin
  2
*D33
 70
     1
 10
0.0
 20
0.0
 30
0.0
  3
*D33
  1

  0
LINE
  5
E07
330
AA8
100
AcDbEntity
  8
D-STR-DIM
370
    -2
100
AcDbLine
 10
5906.838948666693
 20
2754.615411130601
 30
0.0
 11
5646.838795960889
 21
2754.615411130601
 31
0.0
  0
LINE
  5
E08
330
AA8
100
AcDbEntity
  8
D-STR-DIM
370
    -2
100
AcDbLine
 10
5736.838795960888
 20
2554.615311130601
 30
0.0
 11
5646.838795960889
 21
2554.615311130601
 31
0.0
  0
LINE
  5
E09
330
AA8
100
AcDbEntity
  8
D-STR-DIM
370
    -2
100
AcDbLine
 10
5666.838795960888
 20
2734.615411130601
 30
0.0
 11
5666.838795960888
 21
2574.615311130601
 31
0.0
  0
INSERT
  5
E0A
330
AA8
100
AcDbEntity
  8
D-STR-DIM
370
    -2
100
AcDbBlockReference
  2
_OPEN30
 10
5666.838795960888
 20
2754.615411130601
 30
0.0
 41
20.0
 42
20.0
 43
20.0
 50
90.0
  0
INSERT
  5
E0B
330
AA8
100
AcDbEntity
  8
D-STR-DIM
370
    -2
100
AcDbBlockReference
  2
_OPEN30
 10
5666.838795960888
 20
2554.615311130601
 30
0.0
 41
20.0
 42
20.0
 43
20.0
 50
270.0
  0
MTEXT
  5
E0C
330
AA8
100
AcDbEntity
  8
D-STR-DIM
100
AcDbMText
 10
5641.838795960887
 20
2654.615361130602
 30
0.0
 40
30.0
 41
0.0
 71
     5
 72
     1
  1
\A1;200
 11
0.0000000000000001
 21
1.0
 31
0.0
 73
     1
 44
1.0
  0
POINT
  5
E0D
330
AA8
100
AcDbEntity
  8
DEFPOINTS
 62
     0
100
AcDbPoint
 10
5916.838948666693
 20
2754.615411130601
 30
0.0
  0
POINT
  5
E0E
330
AA8
100
AcDbEntity
  8
DEFPOINTS
 62
     0
100
AcDbPoint
 10
5746.838795960888
 20
2554.615311130601
 30
0.0
  0
POINT
  5
E0F
330
AA8
100
AcDbEntity
  8
DEFPOINTS
 62
     0
100
AcDbPoint
 10
5666.838795960888
 20
2554.615311130601
 30
0.0
  0
ENDBLK
  5
AB3
330
AA8
100
AcDbEntity
  8
0
100
AcDbBlockEnd
  0
BLOCK
  5
ABE
330
AB4
100
AcDbEntity
  8
0
100
AcDbBlockBegin
  2
*D34
 70
     1
 10
0.0
 20
0.0
 30
0.0
  3
*D34
  1

  0
LINE
  5
E10
330
AB4
100
AcDbEntity
  8
D-STR-DIM
370
    -2
100
AcDbLine
 10
5906.838948666693
 20
2754.615411130601
 30
0.0
 11
5542.419864430573
 21
2754.615411130601
 31
0.0
  0
LINE
  5
E11
330
AB4
100
AcDbEntity
  8
D-STR-DIM
370
    -2
100
AcDbLine
 10
5736.838795960888
 20
2414.615511130601
 30
0.0
 11
5542.419864430573
 21
2414.615511130601
 31
0.0
  0
LINE
  5
E12
330
AB4
100
AcDbEntity
  8
D-STR-DIM
370
    -2
100
AcDbLine
 10
5562.419864430573
 20
2734.615411130601
 30
0.0
 11
5562.419864430573
 21
2434.615511130601
 31
0.0
  0
INSERT
  5
E13
330
AB4
100
AcDbEntity
  8
D-STR-DIM
370
    -2
100
AcDbBlockReference
  2
_OPEN30
 10
5562.419864430573
 20
2754.615411130601
 30
0.0
 41
20.0
 42
20.0
 43
20.0
 50
90.0
  0
INSERT
  5
E14
330
AB4
100
AcDbEntity
  8
D-STR-DIM
370
    -2
100
AcDbBlockReference
  2
_OPEN30
 10
5562.419864430573
 20
2414.615511130601
 30
0.0
 41
20.0
 42
20.0
 43
20.0
 50
270.0
  0
MTEXT
  5
E15
330
AB4
100
AcDbEntity
  8
D-STR-DIM
100
AcDbMText
 10
5537.419864430571
 20
2584.615461130602
 30
0.0
 40
30.0
 41
0.0
 71
     5
 72
     1
  1
\A1;340
 11
0.0000000000000001
 21
1.0
 31
0.0
 73
     1
 44
1.0
  0
POINT
  5
E16
330
AB4
100
AcDbEntity
  8
DEFPOINTS
 62
     0
100
AcDbPoint
 10
5916.838948666693
 20
2754.615411130601
 30
0.0
  0
POINT
  5
E17
330
AB4
100
AcDbEntity
  8
DEFPOINTS
 62
     0
100
AcDbPoint
 10
5746.838795960888
 20
2414.615511130601
 30
0.0
  0
POINT
  5
E18
330
AB4
100
AcDbEntity
  8
DEFPOINTS
 62
     0
100
AcDbPoint
 10
5562.419864430573
 20
2414.615511130601
 30
0.0
  0
ENDBLK
  5
ABF
330
AB4
100
AcDbEntity
  8
0
100
AcDbBlockEnd
  0
BLOCK
  5
ACA
330
AC0
100
AcDbEntity
  8
0
100
AcDbBlockBegin
  2
*D35
 70
     1
 10
0.0
 20
0.0
 30
0.0
  3
*D35
  1

  0
LINE
  5
E19
330
AC0
100
AcDbEntity
  8
D-STR-DIM
370
    -2
100
AcDbLine
 10
5736.838795960888
 20
2554.615311130601
 30
0.0
 11
5646.838795960889
 21
2554.615311130601
 31
0.0
  0
LINE
  5
E1A
330
AC0
100
AcDbEntity
  8
D-STR-DIM
370
    -2
100
AcDbLine
 10
5736.838795960888
 20
2414.615511130601
 30
0.0
 11
5646.838795960889
 21
2414.615511130601
 31
0.0
  0
LINE
  5
E1B
330
AC0
100
AcDbEntity
  8
D-STR-DIM
370
    -2
100
AcDbLine
 10
5666.838795960888
 20
2534.615311130601
 30
0.0
 11
5666.838795960888
 21
2434.615511130601
 31
0.0
  0
INSERT
  5
E1C
330
AC0
100
AcDbEntity
  8
D-STR-DIM
370
    -2
100
AcDbBlockReference
  2
_OPEN30
 10
5666.838795960888
 20
2554.615311130601
 30
0.0
 41
20.0
 42
20.0
 43
20.0
 50
90.0
  0
INSERT
  5
E1D
330
AC0
100
AcDbEntity
  8
D-STR-DIM
370
    -2
100
AcDbBlockReference
  2
_OPEN30
 10
5666.838795960888
 20
2414.615511130601
 30
0.0
 41
20.0
 42
20.0
 43
20.0
 50
270.0
  0
MTEXT
  5
E1E
330
AC0
100
AcDbEntity
  8
D-STR-DIM
100
AcDbMText
 10
5641.838795960887
 20
2484.615411130602
 30
0.0
 40
30.0
 41
0.0
 71
     5
 72
     1
  1
\A1;140
 11
0.0000000000000001
 21
1.0
 31
0.0
 73
     1
 44
1.0
  0
POINT
  5
E1F
330
AC0
100
AcDbEntity
  8
DEFPOINTS
 62
     0
100
AcDbPoint
 10
5746.838795960888
 20
2554.615311130601
 30
0.0
  0
POINT
  5
E20
330
AC0
100
AcDbEntity
  8
DEFPOINTS
 62
     0
100
AcDbPoint
 10
5746.838795960888
 20
2414.615511130601
 30
0.0
  0
POINT
  5
E21
330
AC0
100
AcDbEntity
  8
DEFPOINTS
 62
     0
100
AcDbPoint
 10
5666.838795960888
 20
2414.615511130601
 30
0.0
  0
ENDBLK
  5
ACB
330
AC0
100
AcDbEntity
  8
0
100
AcDbBlockEnd
  0
BLOCK
  5
AD6
330
ACC
100
AcDbEntity
  8
0
100
AcDbBlockBegin
  2
*D36
 70
     1
 10
0.0
 20
0.0
 30
0.0
  3
*D36
  1

  0
LINE
  5
E22
330
ACC
100
AcDbEntity
  8
D-STR-DIM
370
    -2
100
AcDbLine
 10
6116.838890960884
 20
2573.562145482754
 30
0.0
 11
6116.838890960884
 21
2904.7933496915
 31
0.0
  0
LINE
  5
E23
330
ACC
100
AcDbEntity
  8
D-STR-DIM
370
    -2
100
AcDbLine
 10
6266.838590960884
 20
2744.615511130601
 30
0.0
 11
6266.838590960884
 21
2904.7933496915
 31
0.0
  0
LINE
  5
E24
330
ACC
100
AcDbEntity
  8
D-STR-DIM
370
    -2
100
AcDbLine
 10
6136.838890960884
 20
2884.7933496915
 30
0.0
 11
6246.838590960884
 21
2884.7933496915
 31
0.0
  0
INSERT
  5
E25
330
ACC
100
AcDbEntity
  8
D-STR-DIM
370
    -2
100
AcDbBlockReference
  2
_OPEN30
 10
6116.838890960884
 20
2884.7933496915
 30
0.0
 41
20.0
 42
20.0
 43
20.0
 50
180.0
  0
INSERT
  5
E26
330
ACC
100
AcDbEntity
  8
D-STR-DIM
370
    -2
100
AcDbBlockReference
  2
_OPEN30
 10
6266.838590960884
 20
2884.7933496915
 30
0.0
 41
20.0
 42
20.0
 43
20.0
  0
MTEXT
  5
E27
330
ACC
100
AcDbEntity
  8
D-STR-DIM
100
AcDbMText
 10
6191.838740960884
 20
2909.7933496915
 30
0.0
 40
30.0
 41
0.0
 71
     5
 72
     1
  1
\A1;150
 73
     1
 44
1.0
  0
POINT
  5
E28
330
ACC
100
AcDbEntity
  8
DEFPOINTS
 62
     0
100
AcDbPoint
 10
6116.838890960884
 20
2563.562145482754
 30
0.0
  0
POINT
  5
E29
330
ACC
100
AcDbEntity
  8
DEFPOINTS
 62
     0
100
AcDbPoint
 10
6266.838590960884
 20
2734.615511130602
 30
0.0
  0
POINT
  5
E2A
330
ACC
100
AcDbEntity
  8
DEFPOINTS
 62
     0
100
AcDbPoint
 10
6266.838590960884
 20
2884.7933496915
 30
0.0
  0
ENDBLK
  5
AD7
330
ACC
100
AcDbEntity
  8
0
100
AcDbBlockEnd
  0
BLOCK
  5
AE4
330
AD8
100
AcDbEntity
  8
0
100
AcDbBlockBegin
  2
*D37
 70
     1
 10
0.0
 20
0.0
 30
0.0
  3
*D37
  1

  0
LINE
  5
E2B
330
AD8
100
AcDbEntity
  8
D-STR-DIM
370
    -2
100
AcDbLine
 10
6096.838614561057
 20
2764.615411130601
 30
0.0
 11
6096.838614561057
 21
2904.7933496915
 31
0.0
  0
LINE
  5
E2C
330
AD8
100
AcDbEntity
  8
D-STR-DIM
370
    -2
100
AcDbLine
 10
6116.838890960884
 20
2573.562145482754
 30
0.0
 11
6116.838890960884
 21
2904.7933496915
 31
0.0
  0
LINE
  5
E2D
330
AD8
100
AcDbEntity
  8
D-STR-DIM
370
    -2
100
AcDbLine
 10
6076.838614561057
 20
2884.7933496915
 30
0.0
 11
6056.838614561057
 21
2884.7933496915
 31
0.0
  0
LINE
  5
E2E
330
AD8
100
AcDbEntity
  8
D-STR-DIM
370
    -2
100
AcDbLine
 10
6136.838890960884
 20
2884.7933496915
 30
0.0
 11
6156.838890960884
 21
2884.7933496915
 31
0.0
  0
MTEXT
  5
E2F
330
AD8
100
AcDbEntity
  8
D-STR-DIM
100
AcDbMText
 10
6106.83875276097
 20
2934.7933496915
 30
0.0
 40
30.0
 41
0.0
 71
     5
 72
     1
  1
\A1;20
 73
     1
 44
1.0
  0
LINE
  5
E30
330
AD8
100
AcDbEntity
  8
D-STR-DIM
370
    -2
100
AcDbLine
 10
6096.838614561057
 20
2884.7933496915
 30
0.0
 11
6116.838890960884
 21
2884.7933496915
 31
0.0
  0
INSERT
  5
E31
330
AD8
100
AcDbEntity
  8
D-STR-DIM
370
    -2
100
AcDbBlockReference
  2
_OPEN30
 10
6096.838614561057
 20
2884.7933496915
 30
0.0
 41
20.0
 42
20.0
 43
20.0
  0
INSERT
  5
E32
330
AD8
100
AcDbEntity
  8
D-STR-DIM
370
    -2
100
AcDbBlockReference
  2
_OPEN30
 10
6116.838890960884
 20
2884.7933496915
 30
0.0
 41
20.0
 42
20.0
 43
20.0
 50
180.0
  0
POINT
  5
E33
330
AD8
100
AcDbEntity
  8
DEFPOINTS
 62
     0
100
AcDbPoint
 10
6096.838614561057
 20
2754.615411130601
 30
0.0
  0
POINT
  5
E34
330
AD8
100
AcDbEntity
  8
DEFPOINTS
 62
     0
100
AcDbPoint
 10
6116.838890960884
 20
2563.562145482754
 30
0.0
  0
POINT
  5
E35
330
AD8
100
AcDbEntity
  8
DEFPOINTS
 62
     0
100
AcDbPoint
 10
6116.838890960884
 20
2884.7933496915
 30
0.0
  0
ENDBLK
  5
AE5
330
AD8
100
AcDbEntity
  8
0
100
AcDbBlockEnd
  0
BLOCK
  5
AF0
330
AE6
100
AcDbEntity
  8
0
100
AcDbBlockBegin
  2
*D38
 70
     1
 10
0.0
 20
0.0
 30
0.0
  3
*D38
  1

  0
LINE
  5
E36
330
AE6
100
AcDbEntity
  8
D-STR-DIM
370
    -2
100
AcDbLine
 10
6106.838614561056
 20
2754.615411130601
 30
0.0
 11
6471.257547491202
 21
2754.615411130601
 31
0.0
  0
LINE
  5
E37
330
AE6
100
AcDbEntity
  8
D-STR-DIM
370
    -2
100
AcDbLine
 10
6276.838615960885
 20
2414.615511130601
 30
0.0
 11
6471.257547491202
 21
2414.615511130601
 31
0.0
  0
LINE
  5
E38
330
AE6
100
AcDbEntity
  8
D-STR-DIM
370
    -2
100
AcDbLine
 10
6451.257547491201
 20
2734.615411130601
 30
0.0
 11
6451.257547491201
 21
2434.615511130601
 31
0.0
  0
INSERT
  5
E39
330
AE6
100
AcDbEntity
  8
D-STR-DIM
370
    -2
100
AcDbBlockReference
  2
_OPEN30
 10
6451.257547491201
 20
2754.615411130601
 30
0.0
 41
20.0
 42
20.0
 43
20.0
 50
90.0
  0
INSERT
  5
E3A
330
AE6
100
AcDbEntity
  8
D-STR-DIM
370
    -2
100
AcDbBlockReference
  2
_OPEN30
 10
6451.257547491201
 20
2414.615511130601
 30
0.0
 41
20.0
 42
20.0
 43
20.0
 50
270.0
  0
MTEXT
  5
E3B
330
AE6
100
AcDbEntity
  8
D-STR-DIM
100
AcDbMText
 10
6426.2575474912
 20
2584.615461130602
 30
0.0
 40
30.0
 41
0.0
 71
     5
 72
     1
  1
\A1;340
 11
0.0000000000000001
 21
1.0
 31
0.0
 73
     1
 44
1.0
  0
POINT
  5
E3C
330
AE6
100
AcDbEntity
  8
DEFPOINTS
 62
     0
100
AcDbPoint
 10
6096.838614561057
 20
2754.615411130601
 30
0.0
  0
POINT
  5
E3D
330
AE6
100
AcDbEntity
  8
DEFPOINTS
 62
     0
100
AcDbPoint
 10
6266.838615960885
 20
2414.615511130601
 30
0.0
  0
POINT
  5
E3E
330
AE6
100
AcDbEntity
  8
DEFPOINTS
 62
     0
100
AcDbPoint
 10
6451.257547491201
 20
2414.615511130601
 30
0.0
  0
ENDBLK
  5
AF1
330
AE6
100
AcDbEntity
  8
0
100
AcDbBlockEnd
  0
BLOCK
  5
AFC
330
AF2
100
AcDbEntity
  8
0
100
AcDbBlockBegin
  2
*D39
 70
     1
 10
0.0
 20
0.0
 30
0.0
  3
*D39
  1

  0
LINE
  5
E3F
330
AF2
100
AcDbEntity
  8
D-STR-DIM
370
    -2
100
AcDbLine
 10
6276.838615960885
 20
2564.615511130601
 30
0.0
 11
6366.838615960886
 21
2564.615511130601
 31
0.0
  0
LINE
  5
E40
330
AF2
100
AcDbEntity
  8
D-STR-DIM
370
    -2
100
AcDbLine
 10
6276.838615960885
 20
2414.615511130601
 30
0.0
 11
6366.838615960886
 21
2414.615511130601
 31
0.0
  0
LINE
  5
E41
330
AF2
100
AcDbEntity
  8
D-STR-DIM
370
    -2
100
AcDbLine
 10
6346.838615960885
 20
2544.615511130601
 30
0.0
 11
6346.838615960885
 21
2434.615511130601
 31
0.0
  0
INSERT
  5
E42
330
AF2
100
AcDbEntity
  8
D-STR-DIM
370
    -2
100
AcDbBlockReference
  2
_OPEN30
 10
6346.838615960885
 20
2564.615511130601
 30
0.0
 41
20.0
 42
20.0
 43
20.0
 50
90.0
  0
INSERT
  5
E43
330
AF2
100
AcDbEntity
  8
D-STR-DIM
370
    -2
100
AcDbBlockReference
  2
_OPEN30
 10
6346.838615960885
 20
2414.615511130601
 30
0.0
 41
20.0
 42
20.0
 43
20.0
 50
270.0
  0
MTEXT
  5
E44
330
AF2
100
AcDbEntity
  8
D-STR-DIM
100
AcDbMText
 10
6321.838615960885
 20
2489.615511130602
 30
0.0
 40
30.0
 41
0.0
 71
     5
 72
     1
  1
\A1;150
 11
0.0000000000000001
 21
1.0
 31
0.0
 73
     1
 44
1.0
  0
POINT
  5
E45
330
AF2
100
AcDbEntity
  8
DEFPOINTS
 62
     0
100
AcDbPoint
 10
6266.838615960885
 20
2564.615511130601
 30
0.0
  0
POINT
  5
E46
330
AF2
100
AcDbEntity
  8
DEFPOINTS
 62
     0
100
AcDbPoint
 10
6266.838615960885
 20
2414.615511130601
 30
0.0
  0
POINT
  5
E47
330
AF2
100
AcDbEntity
  8
DEFPOINTS
 62
     0
100
AcDbPoint
 10
6346.838615960885
 20
2414.615511130601
 30
0.0
  0
ENDBLK
  5
AFD
330
AF2
100
AcDbEntity
  8
0
100
AcDbBlockEnd
  0
BLOCK
  5
B08
330
AFE
100
AcDbEntity
  8
0
100
AcDbBlockBegin
  2
*D40
 70
     1
 10
0.0
 20
0.0
 30
0.0
  3
*D40
  1

  0
LINE
  5
E48
330
AFE
100
AcDbEntity
  8
D-STR-DIM
370
    -2
100
AcDbLine
 10
6106.838614561056
 20
2754.615411130601
 30
0.0
 11
6366.838615960886
 21
2754.615411130601
 31
0.0
  0
LINE
  5
E49
330
AFE
100
AcDbEntity
  8
D-STR-DIM
370
    -2
100
AcDbLine
 10
6276.838615960885
 20
2564.615511130601
 30
0.0
 11
6366.838615960886
 21
2564.615511130601
 31
0.0
  0
LINE
  5
E4A
330
AFE
100
AcDbEntity
  8
D-STR-DIM
370
    -2
100
AcDbLine
 10
6346.838615960885
 20
2734.615411130601
 30
0.0
 11
6346.838615960885
 21
2584.615511130602
 31
0.0
  0
MTEXT
  5
E4B
330
AFE
100
AcDbEntity
  8
D-STR-DIM
100
AcDbMText
 10
6321.838615960885
 20
2659.615461630602
 30
0.0
 40
30.0
 41
0.0
 71
     5
 72
     1
  1
\A1;190
 11
0.0000000000000001
 21
1.0
 31
0.0
 73
     1
 44
1.0
  0
INSERT
  5
E4C
330
AFE
100
AcDbEntity
  8
D-STR-DIM
370
    -2
100
AcDbBlockReference
  2
_OPEN30
 10
6346.838615960885
 20
2754.615411130601
 30
0.0
 41
20.0
 42
20.0
 43
20.0
 50
90.0
  0
INSERT
  5
E4D
330
AFE
100
AcDbEntity
  8
D-STR-DIM
370
    -2
100
AcDbBlockReference
  2
_OPEN30
 10
6346.838615960885
 20
2564.615511130601
 30
0.0
 41
20.0
 42
20.0
 43
20.0
 50
270.0
  0
POINT
  5
E4E
330
AFE
100
AcDbEntity
  8
DEFPOINTS
 62
     0
100
AcDbPoint
 10
6096.838614561057
 20
2754.615411130601
 30
0.0
  0
POINT
  5
E4F
330
AFE
100
AcDbEntity
  8
DEFPOINTS
 62
     0
100
AcDbPoint
 10
6266.838615960885
 20
2564.615511130601
 30
0.0
  0
POINT
  5
E50
330
AFE
100
AcDbEntity
  8
DEFPOINTS
 62
     0
100
AcDbPoint
 10
6346.838615960885
 20
2564.615511130601
 30
0.0
  0
ENDBLK
  5
B09
330
AFE
100
AcDbEntity
  8
0
100
AcDbBlockEnd
  0
BLOCK
  5
B16
330
B0A
100
AcDbEntity
  8
0
100
AcDbBlockBegin
  2
*D41
 70
     1
 10
0.0
 20
0.0
 30
0.0
  3
*D41
  1

  0
LINE
  5
E51
330
B0A
100
AcDbEntity
  8
D-STR-DIM
370
    -2
100
AcDbLine
 10
4503.127867461589
 20
4861.72717860099
 30
0.0
 11
4503.127867461589
 21
5196.744305770207
 31
0.0
  0
LINE
  5
E52
330
B0A
100
AcDbEntity
  8
D-STR-DIM
370
    -2
100
AcDbLine
 10
4523.128225167398
 20
5056.566367209309
 30
0.0
 11
4523.128225167398
 21
5196.744305770207
 31
0.0
  0
LINE
  5
E53
330
B0A
100
AcDbEntity
  8
D-STR-DIM
370
    -2
100
AcDbLine
 10
4483.127867461589
 20
5176.744305770206
 30
0.0
 11
4463.127867461589
 21
5176.744305770206
 31
0.0
  0
LINE
  5
E54
330
B0A
100
AcDbEntity
  8
D-STR-DIM
370
    -2
100
AcDbLine
 10
4543.128225167398
 20
5176.744305770206
 30
0.0
 11
4563.128225167399
 21
5176.744305770206
 31
0.0
  0
MTEXT
  5
E55
330
B0A
100
AcDbEntity
  8
D-STR-DIM
100
AcDbMText
 10
4513.128046314494
 20
5226.744305770207
 30
0.0
 40
30.0
 41
0.0
 71
     5
 72
     1
  1
\A1;20
 73
     1
 44
1.0
  0
LINE
  5
E56
330
B0A
100
AcDbEntity
  8
D-STR-DIM
370
    -2
100
AcDbLine
 10
4503.127867461589
 20
5176.744305770206
 30
0.0
 11
4523.128225167398
 21
5176.744305770206
 31
0.0
  0
INSERT
  5
E57
330
B0A
100
AcDbEntity
  8
D-STR-DIM
370
    -2
100
AcDbBlockReference
  2
_OPEN30
 10
4503.127867461589
 20
5176.744305770206
 30
0.0
 41
20.0
 42
20.0
 43
20.0
  0
INSERT
  5
E58
330
B0A
100
AcDbEntity
  8
D-STR-DIM
370
    -2
100
AcDbBlockReference
  2
_OPEN30
 10
4523.128225167398
 20
5176.744305770206
 30
0.0
 41
20.0
 42
20.0
 43
20.0
 50
180.0
  0
POINT
  5
E59
330
B0A
100
AcDbEntity
  8
DEFPOINTS
 62
     0
100
AcDbPoint
 10
4503.127867461589
 20
4851.72717860099
 30
0.0
  0
POINT
  5
E5A
330
B0A
100
AcDbEntity
  8
DEFPOINTS
 62
     0
100
AcDbPoint
 10
4523.128225167398
 20
5046.566367209308
 30
0.0
  0
POINT
  5
E5B
330
B0A
100
AcDbEntity
  8
DEFPOINTS
 62
     0
100
AcDbPoint
 10
4523.128225167398
 20
5176.744305770206
 30
0.0
  0
ENDBLK
  5
B17
330
B0A
100
AcDbEntity
  8
0
100
AcDbBlockEnd
  0
BLOCK
  5
B22
330
B18
100
AcDbEntity
  8
0
100
AcDbBlockBegin
  2
*D42
 70
     1
 10
0.0
 20
0.0
 30
0.0
  3
*D42
  1

  0
LINE
  5
E5C
330
B18
100
AcDbEntity
  8
D-STR-DIM
370
    -2
100
AcDbLine
 10
4353.128072461593
 20
4856.566267209308
 30
0.0
 11
4353.128072461593
 21
5326.922344331105
 31
0.0
  0
LINE
  5
E5D
330
B18
100
AcDbEntity
  8
D-STR-DIM
370
    -2
100
AcDbLine
 10
4873.127892461591
 20
4866.56646720931
 30
0.0
 11
4873.127892461591
 21
5326.922344331105
 31
0.0
  0
LINE
  5
E5E
330
B18
100
AcDbEntity
  8
D-STR-DIM
370
    -2
100
AcDbLine
 10
4373.128072461593
 20
5306.922344331105
 30
0.0
 11
4853.127892461591
 21
5306.922344331105
 31
0.0
  0
INSERT
  5
E5F
330
B18
100
AcDbEntity
  8
D-STR-DIM
370
    -2
100
AcDbBlockReference
  2
_OPEN30
 10
4353.128072461593
 20
5306.922344331105
 30
0.0
 41
20.0
 42
20.0
 43
20.0
 50
180.0
  0
INSERT
  5
E60
330
B18
100
AcDbEntity
  8
D-STR-DIM
370
    -2
100
AcDbBlockReference
  2
_OPEN30
 10
4873.127892461591
 20
5306.922344331105
 30
0.0
 41
20.0
 42
20.0
 43
20.0
  0
MTEXT
  5
E61
330
B18
100
AcDbEntity
  8
D-STR-DIM
100
AcDbMText
 10
4613.127982461592
 20
5331.922344331106
 30
0.0
 40
30.0
 41
0.0
 71
     5
 72
     1
  1
\A1;520
 73
     1
 44
1.0
  0
POINT
  5
E62
330
B18
100
AcDbEntity
  8
DEFPOINTS
 62
     0
100
AcDbPoint
 10
4353.128072461593
 20
4846.566267209309
 30
0.0
  0
POINT
  5
E63
330
B18
100
AcDbEntity
  8
DEFPOINTS
 62
     0
100
AcDbPoint
 10
4873.127892461591
 20
4856.566467209309
 30
0.0
  0
POINT
  5
E64
330
B18
100
AcDbEntity
  8
DEFPOINTS
 62
     0
100
AcDbPoint
 10
4873.127892461591
 20
5306.922344331105
 30
0.0
  0
ENDBLK
  5
B23
330
B18
100
AcDbEntity
  8
0
100
AcDbBlockEnd
  0
BLOCK
  5
B2E
330
B24
100
AcDbEntity
  8
0
100
AcDbBlockBegin
  2
*D43
 70
     1
 10
0.0
 20
0.0
 30
0.0
  3
*D43
  1

  0
LINE
  5
E65
330
B24
100
AcDbEntity
  8
D-STR-DIM
370
    -2
100
AcDbLine
 10
4523.128225167398
 20
5056.566367209309
 30
0.0
 11
4523.128225167398
 21
5196.744305770207
 31
0.0
  0
LINE
  5
E66
330
B24
100
AcDbEntity
  8
D-STR-DIM
370
    -2
100
AcDbLine
 10
4703.127891061762
 20
5056.566367209309
 30
0.0
 11
4703.127891061762
 21
5196.744305770207
 31
0.0
  0
LINE
  5
E67
330
B24
100
AcDbEntity
  8
D-STR-DIM
370
    -2
100
AcDbLine
 10
4543.128225167398
 20
5176.744305770206
 30
0.0
 11
4683.127891061761
 21
5176.744305770206
 31
0.0
  0
INSERT
  5
E68
330
B24
100
AcDbEntity
  8
D-STR-DIM
370
    -2
100
AcDbBlockReference
  2
_OPEN30
 10
4523.128225167398
 20
5176.744305770206
 30
0.0
 41
20.0
 42
20.0
 43
20.0
 50
180.0
  0
INSERT
  5
E69
330
B24
100
AcDbEntity
  8
D-STR-DIM
370
    -2
100
AcDbBlockReference
  2
_OPEN30
 10
4703.127891061762
 20
5176.744305770206
 30
0.0
 41
20.0
 42
20.0
 43
20.0
  0
MTEXT
  5
E6A
330
B24
100
AcDbEntity
  8
D-STR-DIM
100
AcDbMText
 10
4613.12805811458
 20
5201.744305770207
 30
0.0
 40
30.0
 41
0.0
 71
     5
 72
     1
  1
\A1;180
 73
     1
 44
1.0
  0
POINT
  5
E6B
330
B24
100
AcDbEntity
  8
DEFPOINTS
 62
     0
100
AcDbPoint
 10
4523.128225167398
 20
5046.566367209308
 30
0.0
  0
POINT
  5
E6C
330
B24
100
AcDbEntity
  8
DEFPOINTS
 62
     0
100
AcDbPoint
 10
4703.127891061762
 20
5046.566367209308
 30
0.0
  0
POINT
  5
E6D
330
B24
100
AcDbEntity
  8
DEFPOINTS
 62
     0
100
AcDbPoint
 10
4703.127891061762
 20
5176.744305770206
 30
0.0
  0
ENDBLK
  5
B2F
330
B24
100
AcDbEntity
  8
0
100
AcDbBlockEnd
  0
BLOCK
  5
B3A
330
B30
100
AcDbEntity
  8
0
100
AcDbBlockBegin
  2
*D44
 70
     1
 10
0.0
 20
0.0
 30
0.0
  3
*D44
  1

  0
LINE
  5
E6E
330
B30
100
AcDbEntity
  8
D-STR-DIM
370
    -2
100
AcDbLine
 10
2156.235806955807
 20
5033.39572762443
 30
0.0
 11
2156.235806955807
 21
4873.39572762443
 31
0.0
  0
LINE
  5
E6F
330
B30
100
AcDbEntity
  8
D-STR-DIM
370
    -2
100
AcDbLine
 10
2726.235626955815
 20
5033.39572762443
 30
0.0
 11
2726.235626955815
 21
4873.39572762443
 31
0.0
  0
LINE
  5
E70
330
B30
100
AcDbEntity
  8
D-STR-DIM
370
    -2
100
AcDbLine
 10
2181.235806955807
 20
4893.395727624429
 30
0.0
 11
2701.235626955815
 21
4893.395727624429
 31
0.0
  0
INSERT
  5
E71
330
B30
100
AcDbEntity
  8
D-STR-DIM
370
    -2
100
AcDbBlockReference
  2
_OPEN30
 10
2156.235806955807
 20
4893.395727624429
 30
0.0
 41
25.0
 42
25.0
 43
25.0
 50
180.0
  0
INSERT
  5
E72
330
B30
100
AcDbEntity
  8
D-STR-DIM
370
    -2
100
AcDbBlockReference
  2
_OPEN30
 10
2726.235626955815
 20
4893.395727624429
 30
0.0
 41
25.0
 42
25.0
 43
25.0
  0
MTEXT
  5
E73
330
B30
100
AcDbEntity
  8
D-STR-DIM
100
AcDbMText
 10
2441.23571695581
 20
4918.39572762443
 30
0.0
 40
30.0
 41
0.0
 71
     5
 72
     1
  1
570
 73
     1
 44
1.0
  0
POINT
  5
E74
330
B30
100
AcDbEntity
  8
DEFPOINTS
 62
     0
100
AcDbPoint
 10
2156.235806955807
 20
5043.39572762443
 30
0.0
  0
POINT
  5
E75
330
B30
100
AcDbEntity
  8
DEFPOINTS
 62
     0
100
AcDbPoint
 10
2726.235626955815
 20
5043.39572762443
 30
0.0
  0
POINT
  5
E76
330
B30
100
AcDbEntity
  8
DEFPOINTS
 62
     0
100
AcDbPoint
 10
2726.235626955815
 20
4893.395727624429
 30
0.0
  0
ENDBLK
  5
B3B
330
B30
100
AcDbEntity
  8
0
100
AcDbBlockEnd
  0
BLOCK
  5
B46
330
B3C
100
AcDbEntity
  8
0
100
AcDbBlockBegin
  2
*D45
 70
     1
 10
0.0
 20
0.0
 30
0.0
  3
*D45
  1

  0
LINE
  5
E77
330
B3C
100
AcDbEntity
  8
D-STR-DIM
370
    -2
100
AcDbLine
 10
4513.128225167398
 20
5046.566367209308
 30
0.0
 11
4068.709140931292
 21
5046.566367209308
 31
0.0
  0
LINE
  5
E78
330
B3C
100
AcDbEntity
  8
D-STR-DIM
370
    -2
100
AcDbLine
 10
4343.128072461615
 20
4706.566467209309
 30
0.0
 11
4068.709140931292
 21
4706.566467209309
 31
0.0
  0
LINE
  5
E79
330
B3C
100
AcDbEntity
  8
D-STR-DIM
370
    -2
100
AcDbLine
 10
4088.709140931292
 20
5026.566367209309
 30
0.0
 11
4088.709140931292
 21
4726.566467209308
 31
0.0
  0
INSERT
  5
E7A
330
B3C
100
AcDbEntity
  8
D-STR-DIM
370
    -2
100
AcDbBlockReference
  2
_OPEN30
 10
4088.709140931292
 20
5046.566367209308
 30
0.0
 41
20.0
 42
20.0
 43
20.0
 50
90.0
  0
INSERT
  5
E7B
330
B3C
100
AcDbEntity
  8
D-STR-DIM
370
    -2
100
AcDbBlockReference
  2
_OPEN30
 10
4088.709140931292
 20
4706.566467209309
 30
0.0
 41
20.0
 42
20.0
 43
20.0
 50
270.0
  0
MTEXT
  5
E7C
330
B3C
100
AcDbEntity
  8
D-STR-DIM
100
AcDbMText
 10
4063.709140931292
 20
4876.56641720931
 30
0.0
 40
30.0
 41
0.0
 71
     5
 72
     1
  1
\A1;340
 11
0.0000000000000001
 21
1.0
 31
0.0
 73
     1
 44
1.0
  0
POINT
  5
E7D
330
B3C
100
AcDbEntity
  8
DEFPOINTS
 62
     0
100
AcDbPoint
 10
4523.128225167398
 20
5046.566367209308
 30
0.0
  0
POINT
  5
E7E
330
B3C
100
AcDbEntity
  8
DEFPOINTS
 62
     0
100
AcDbPoint
 10
4353.128072461615
 20
4706.566467209309
 30
0.0
  0
POINT
  5
E7F
330
B3C
100
AcDbEntity
  8
DEFPOINTS
 62
     0
100
AcDbPoint
 10
4088.709140931292
 20
4706.566467209309
 30
0.0
  0
ENDBLK
  5
B47
330
B3C
100
AcDbEntity
  8
0
100
AcDbBlockEnd
  0
BLOCK
  5
B52
330
B48
100
AcDbEntity
  8
0
100
AcDbBlockBegin
  2
*D46
 70
     1
 10
0.0
 20
0.0
 30
0.0
  3
*D46
  1

  0
LINE
  5
E80
330
B48
100
AcDbEntity
  8
D-STR-DIM
370
    -2
100
AcDbLine
 10
4513.128225167398
 20
5046.566367209308
 30
0.0
 11
4173.128072461615
 21
5046.566367209308
 31
0.0
  0
LINE
  5
E81
330
B48
100
AcDbEntity
  8
D-STR-DIM
370
    -2
100
AcDbLine
 10
4343.128072461594
 20
4846.566267209309
 30
0.0
 11
4173.128072461615
 21
4846.566267209309
 31
0.0
  0
LINE
  5
E82
330
B48
100
AcDbEntity
  8
D-STR-DIM
370
    -2
100
AcDbLine
 10
4193.128072461615
 20
5026.566367209309
 30
0.0
 11
4193.128072461615
 21
4866.566267209308
 31
0.0
  0
INSERT
  5
E83
330
B48
100
AcDbEntity
  8
D-STR-DIM
370
    -2
100
AcDbBlockReference
  2
_OPEN30
 10
4193.128072461615
 20
5046.566367209308
 30
0.0
 41
20.0
 42
20.0
 43
20.0
 50
90.0
  0
INSERT
  5
E84
330
B48
100
AcDbEntity
  8
D-STR-DIM
370
    -2
100
AcDbBlockReference
  2
_OPEN30
 10
4193.128072461615
 20
4846.566267209309
 30
0.0
 41
20.0
 42
20.0
 43
20.0
 50
270.0
  0
MTEXT
  5
E85
330
B48
100
AcDbEntity
  8
D-STR-DIM
100
AcDbMText
 10
4168.128072461614
 20
4946.56631720931
 30
0.0
 40
30.0
 41
0.0
 71
     5
 72
     1
  1
\A1;200
 11
0.0000000000000001
 21
1.0
 31
0.0
 73
     1
 44
1.0
  0
POINT
  5
E86
330
B48
100
AcDbEntity
  8
DEFPOINTS
 62
     0
100
AcDbPoint
 10
4523.128225167398
 20
5046.566367209308
 30
0.0
  0
POINT
  5
E87
330
B48
100
AcDbEntity
  8
DEFPOINTS
 62
     0
100
AcDbPoint
 10
4353.128072461593
 20
4846.566267209309
 30
0.0
  0
POINT
  5
E88
330
B48
100
AcDbEntity
  8
DEFPOINTS
 62
     0
100
AcDbPoint
 10
4193.128072461615
 20
4846.566267209309
 30
0.0
  0
ENDBLK
  5
B53
330
B48
100
AcDbEntity
  8
0
100
AcDbBlockEnd
  0
BLOCK
  5
B5E
330
B54
100
AcDbEntity
  8
0
100
AcDbBlockBegin
  2
*D47
 70
     1
 10
0.0
 20
0.0
 30
0.0
  3
*D47
  1

  0
LINE
  5
E89
330
B54
100
AcDbEntity
  8
D-STR-DIM
  6
Continuous
370
    -2
100
AcDbLine
 10
4343.128072461594
 20
4846.566267209309
 30
0.0
 11
4238.128072461601
 21
4846.566267209309
 31
0.0
  0
LINE
  5
E8A
330
B54
100
AcDbEntity
  8
D-STR-DIM
  6
Continuous
370
    -2
100
AcDbLine
 10
4504.12814246161
 20
4956.566267209308
 30
0.0
 11
4238.128072461601
 21
4956.566267209308
 31
0.0
  0
LINE
  5
E8B
330
B54
100
AcDbEntity
  8
D-STR-DIM
  6
Continuous
370
    -2
100
AcDbLine
 10
4258.128072461601
 20
4866.566267209308
 30
0.0
 11
4258.128072461601
 21
4936.566267209308
 31
0.0
  0
INSERT
  5
E8C
330
B54
100
AcDbEntity
  8
D-STR-DIM
  6
Continuous
370
    -2
100
AcDbBlockReference
  2
_OPEN30
 10
4258.128072461601
 20
4846.566267209309
 30
0.0
 41
20.0
 42
20.0
 43
20.0
 50
270.0
  0
INSERT
  5
E8D
330
B54
100
AcDbEntity
  8
D-STR-DIM
  6
Continuous
370
    -2
100
AcDbBlockReference
  2
_OPEN30
 10
4258.128072461601
 20
4956.566267209308
 30
0.0
 41
20.0
 42
20.0
 43
20.0
 50
90.0
  0
MTEXT
  5
E8E
330
B54
100
AcDbEntity
  8
D-STR-DIM
  6
Continuous
100
AcDbMText
 10
4233.1280724616
 20
4901.566267209309
 30
0.0
 40
30.0
 41
0.0
 71
     5
 72
     1
  1
\A1;110
 11
0.0000000000000001
 21
1.0
 31
0.0
 73
     1
 44
1.0
  0
POINT
  5
E8F
330
B54
100
AcDbEntity
  8
DEFPOINTS
  6
Continuous
 62
     0
100
AcDbPoint
 10
4353.128072461593
 20
4846.566267209309
 30
0.0
  0
POINT
  5
E90
330
B54
100
AcDbEntity
  8
DEFPOINTS
  6
Continuous
 62
     0
100
AcDbPoint
 10
4514.12814246161
 20
4956.566267209308
 30
0.0
  0
POINT
  5
E91
330
B54
100
AcDbEntity
  8
DEFPOINTS
  6
Continuous
 62
     0
100
AcDbPoint
 10
4258.128072461601
 20
4956.566267209308
 30
0.0
  0
ENDBLK
  5
B5F
330
B54
100
AcDbEntity
  8
0
100
AcDbBlockEnd
  0
BLOCK
  5
B6A
330
B60
100
AcDbEntity
  8
0
100
AcDbBlockBegin
  2
*D48
 70
     1
 10
0.0
 20
0.0
 30
0.0
  3
*D48
  1

  0
LINE
  5
E92
330
B60
100
AcDbEntity
  8
D-STR-DIM
370
    -2
100
AcDbLine
 10
4353.128072461593
 20
4856.566267209308
 30
0.0
 11
4353.128072461593
 21
5196.744305770207
 31
0.0
  0
LINE
  5
E93
330
B60
100
AcDbEntity
  8
D-STR-DIM
370
    -2
100
AcDbLine
 10
4503.127867461589
 20
4861.72717860099
 30
0.0
 11
4503.127867461589
 21
5196.744305770207
 31
0.0
  0
LINE
  5
E94
330
B60
100
AcDbEntity
  8
D-STR-DIM
370
    -2
100
AcDbLine
 10
4373.128072461593
 20
5176.744305770206
 30
0.0
 11
4483.127867461589
 21
5176.744305770206
 31
0.0
  0
INSERT
  5
E95
330
B60
100
AcDbEntity
  8
D-STR-DIM
370
    -2
100
AcDbBlockReference
  2
_OPEN30
 10
4353.128072461593
 20
5176.744305770206
 30
0.0
 41
20.0
 42
20.0
 43
20.0
 50
180.0
  0
INSERT
  5
E96
330
B60
100
AcDbEntity
  8
D-STR-DIM
370
    -2
100
AcDbBlockReference
  2
_OPEN30
 10
4503.127867461589
 20
5176.744305770206
 30
0.0
 41
20.0
 42
20.0
 43
20.0
  0
MTEXT
  5
E97
330
B60
100
AcDbEntity
  8
D-STR-DIM
100
AcDbMText
 10
4428.127969961591
 20
5201.744305770207
 30
0.0
 40
30.0
 41
0.0
 71
     5
 72
     1
  1
\A1;150
 73
     1
 44
1.0
  0
POINT
  5
E98
330
B60
100
AcDbEntity
  8
DEFPOINTS
 62
     0
100
AcDbPoint
 10
4353.128072461593
 20
4846.566267209309
 30
0.0
  0
POINT
  5
E99
330
B60
100
AcDbEntity
  8
DEFPOINTS
 62
     0
100
AcDbPoint
 10
4503.127867461589
 20
4851.72717860099
 30
0.0
  0
POINT
  5
E9A
330
B60
100
AcDbEntity
  8
DEFPOINTS
 62
     0
100
AcDbPoint
 10
4503.127867461589
 20
5176.744305770206
 30
0.0
  0
ENDBLK
  5
B6B
330
B60
100
AcDbEntity
  8
0
100
AcDbBlockEnd
  0
BLOCK
  5
B76
330
B6C
100
AcDbEntity
  8
0
100
AcDbBlockBegin
  2
*D49
 70
     1
 10
0.0
 20
0.0
 30
0.0
  3
*D49
  1

  0
LINE
  5
E9B
330
B6C
100
AcDbEntity
  8
D-STR-DIM
370
    -2
100
AcDbLine
 10
4343.128072461594
 20
4846.566267209309
 30
0.0
 11
4173.128072461615
 21
4846.566267209309
 31
0.0
  0
LINE
  5
E9C
330
B6C
100
AcDbEntity
  8
D-STR-DIM
370
    -2
100
AcDbLine
 10
4343.128072461615
 20
4706.566467209309
 30
0.0
 11
4173.128072461615
 21
4706.566467209309
 31
0.0
  0
LINE
  5
E9D
330
B6C
100
AcDbEntity
  8
D-STR-DIM
370
    -2
100
AcDbLine
 10
4193.128072461615
 20
4826.566267209308
 30
0.0
 11
4193.128072461615
 21
4726.566467209308
 31
0.0
  0
INSERT
  5
E9E
330
B6C
100
AcDbEntity
  8
D-STR-DIM
370
    -2
100
AcDbBlockReference
  2
_OPEN30
 10
4193.128072461615
 20
4846.566267209309
 30
0.0
 41
20.0
 42
20.0
 43
20.0
 50
90.0
  0
INSERT
  5
E9F
330
B6C
100
AcDbEntity
  8
D-STR-DIM
370
    -2
100
AcDbBlockReference
  2
_OPEN30
 10
4193.128072461615
 20
4706.566467209309
 30
0.0
 41
20.0
 42
20.0
 43
20.0
 50
270.0
  0
MTEXT
  5
EA0
330
B6C
100
AcDbEntity
  8
D-STR-DIM
100
AcDbMText
 10
4168.128072461614
 20
4776.566367209309
 30
0.0
 40
30.0
 41
0.0
 71
     5
 72
     1
  1
\A1;140
 11
0.0000000000000001
 21
1.0
 31
0.0
 73
     1
 44
1.0
  0
POINT
  5
EA1
330
B6C
100
AcDbEntity
  8
DEFPOINTS
 62
     0
100
AcDbPoint
 10
4353.128072461593
 20
4846.566267209309
 30
0.0
  0
POINT
  5
EA2
330
B6C
100
AcDbEntity
  8
DEFPOINTS
 62
     0
100
AcDbPoint
 10
4353.128072461615
 20
4706.566467209309
 30
0.0
  0
POINT
  5
EA3
330
B6C
100
AcDbEntity
  8
DEFPOINTS
 62
     0
100
AcDbPoint
 10
4193.128072461615
 20
4706.566467209309
 30
0.0
  0
ENDBLK
  5
B77
330
B6C
100
AcDbEntity
  8
0
100
AcDbBlockEnd
  0
BLOCK
  5
B82
330
B78
100
AcDbEntity
  8
0
100
AcDbBlockBegin
  2
*D50
 70
     1
 10
0.0
 20
0.0
 30
0.0
  3
*D50
  1

  0
LINE
  5
EA4
330
B78
100
AcDbEntity
  8
D-STR-DIM
370
    -2
100
AcDbLine
 10
2206.235806955795
 20
5313.39552762443
 30
0.0
 11
2206.235806955795
 21
5653.351282293331
 31
0.0
  0
LINE
  5
EA5
330
B78
100
AcDbEntity
  8
D-STR-DIM
370
    -2
100
AcDbLine
 10
2726.235626955793
 20
5323.39572762443
 30
0.0
 11
2726.235626955793
 21
5653.351282293331
 31
0.0
  0
LINE
  5
EA6
330
B78
100
AcDbEntity
  8
D-STR-DIM
370
    -2
100
AcDbLine
 10
2226.235806955795
 20
5633.351282293331
 30
0.0
 11
2706.235626955793
 21
5633.351282293331
 31
0.0
  0
INSERT
  5
EA7
330
B78
100
AcDbEntity
  8
D-STR-DIM
370
    -2
100
AcDbBlockReference
  2
_OPEN30
 10
2206.235806955795
 20
5633.351282293331
 30
0.0
 41
20.0
 42
20.0
 43
20.0
 50
180.0
  0
INSERT
  5
EA8
330
B78
100
AcDbEntity
  8
D-STR-DIM
370
    -2
100
AcDbBlockReference
  2
_OPEN30
 10
2726.235626955793
 20
5633.351282293331
 30
0.0
 41
20.0
 42
20.0
 43
20.0
  0
MTEXT
  5
EA9
330
B78
100
AcDbEntity
  8
D-STR-DIM
100
AcDbMText
 10
2466.235716955794
 20
5658.351282293331
 30
0.0
 40
30.0
 41
0.0
 71
     5
 72
     1
  1
\A1;520
 73
     1
 44
1.0
  0
POINT
  5
EAA
330
B78
100
AcDbEntity
  8
DEFPOINTS
 62
     0
100
AcDbPoint
 10
2206.235806955795
 20
5303.39552762443
 30
0.0
  0
POINT
  5
EAB
330
B78
100
AcDbEntity
  8
DEFPOINTS
 62
     0
100
AcDbPoint
 10
2726.235626955793
 20
5313.39572762443
 30
0.0
  0
POINT
  5
EAC
330
B78
100
AcDbEntity
  8
DEFPOINTS
 62
     0
100
AcDbPoint
 10
2726.235626955793
 20
5633.351282293331
 30
0.0
  0
ENDBLK
  5
B83
330
B78
100
AcDbEntity
  8
0
100
AcDbBlockEnd
  0
BLOCK
  5
B8E
330
B84
100
AcDbEntity
  8
0
100
AcDbBlockBegin
  2
*D51
 70
     1
 10
0.0
 20
0.0
 30
0.0
  3
*D51
  1

  0
LINE
  5
EAD
330
B84
100
AcDbEntity
  8
D-STR-DIM
370
    -2
100
AcDbLine
 10
2196.23580695581
 20
5163.39572762443
 30
0.0
 11
1973.735736955808
 21
5163.395727624431
 31
0.0
  0
LINE
  5
EAE
330
B84
100
AcDbEntity
  8
D-STR-DIM
370
    -2
100
AcDbLine
 10
2196.23580695581
 20
5503.395627624431
 30
0.0
 11
1973.735736955808
 21
5503.395627624431
 31
0.0
  0
LINE
  5
EAF
330
B84
100
AcDbEntity
  8
D-STR-DIM
370
    -2
100
AcDbLine
 10
1993.735736955808
 20
5183.395727624431
 30
0.0
 11
1993.735736955808
 21
5483.395627624432
 31
0.0
  0
INSERT
  5
EB0
330
B84
100
AcDbEntity
  8
D-STR-DIM
370
    -2
100
AcDbBlockReference
  2
_OPEN30
 10
1993.735736955808
 20
5163.395727624431
 30
0.0
 41
20.0
 42
20.0
 43
20.0
 50
270.0
  0
INSERT
  5
EB1
330
B84
100
AcDbEntity
  8
D-STR-DIM
370
    -2
100
AcDbBlockReference
  2
_OPEN30
 10
1993.735736955808
 20
5503.395627624431
 30
0.0
 41
20.0
 42
20.0
 43
20.0
 50
90.0
  0
MTEXT
  5
EB2
330
B84
100
AcDbEntity
  8
D-STR-DIM
100
AcDbMText
 10
1968.735736955807
 20
5333.395677624431
 30
0.0
 40
30.0
 41
0.0
 71
     5
 72
     1
  1
\A1;340
 11
0.0000000000000001
 21
1.0
 31
0.0
 73
     1
 44
1.0
  0
POINT
  5
EB3
330
B84
100
AcDbEntity
  8
DEFPOINTS
 62
     0
100
AcDbPoint
 10
2206.23580695581
 20
5163.39572762443
 30
0.0
  0
POINT
  5
EB4
330
B84
100
AcDbEntity
  8
DEFPOINTS
 62
     0
100
AcDbPoint
 10
2206.23580695581
 20
5503.395627624431
 30
0.0
  0
POINT
  5
EB5
330
B84
100
AcDbEntity
  8
DEFPOINTS
 62
     0
100
AcDbPoint
 10
1993.735736955808
 20
5503.395627624431
 30
0.0
  0
ENDBLK
  5
B8F
330
B84
100
AcDbEntity
  8
0
100
AcDbBlockEnd
  0
BLOCK
  5
B9A
330
B90
100
AcDbEntity
  8
0
100
AcDbBlockBegin
  2
*D52
 70
     1
 10
0.0
 20
0.0
 30
0.0
  3
*D52
  1

  0
LINE
  5
EB6
330
B90
100
AcDbEntity
  8
D-STR-DIM
370
    -2
100
AcDbLine
 10
2196.23580695581
 20
5503.395627624431
 30
0.0
 11
1898.735736955808
 21
5503.395627624431
 31
0.0
  0
LINE
  5
EB7
330
B90
100
AcDbEntity
  8
D-STR-DIM
370
    -2
100
AcDbLine
 10
2146.235806955806
 20
5043.39572762443
 30
0.0
 11
1898.735736955808
 21
5043.395727624432
 31
0.0
  0
LINE
  5
EB8
330
B90
100
AcDbEntity
  8
D-STR-DIM
370
    -2
100
AcDbLine
 10
1918.735736955808
 20
5478.395627624432
 30
0.0
 11
1918.735736955808
 21
5068.395727624431
 31
0.0
  0
INSERT
  5
EB9
330
B90
100
AcDbEntity
  8
D-STR-DIM
370
    -2
100
AcDbBlockReference
  2
_OPEN30
 10
1918.735736955808
 20
5503.395627624431
 30
0.0
 41
25.0
 42
25.0
 43
25.0
 50
90.0
  0
INSERT
  5
EBA
330
B90
100
AcDbEntity
  8
D-STR-DIM
370
    -2
100
AcDbBlockReference
  2
_OPEN30
 10
1918.735736955808
 20
5043.395727624432
 30
0.0
 41
25.0
 42
25.0
 43
25.0
 50
270.0
  0
MTEXT
  5
EBB
330
B90
100
AcDbEntity
  8
D-STR-DIM
100
AcDbMText
 10
1893.735736955807
 20
5273.395677624431
 30
0.0
 40
30.0
 41
0.0
 71
     5
 72
     1
  1
460
 11
0.0000000000000001
 21
1.0
 31
0.0
 73
     1
 44
1.0
  0
POINT
  5
EBC
330
B90
100
AcDbEntity
  8
DEFPOINTS
 62
     0
100
AcDbPoint
 10
2206.23580695581
 20
5503.395627624431
 30
0.0
  0
POINT
  5
EBD
330
B90
100
AcDbEntity
  8
DEFPOINTS
 62
     0
100
AcDbPoint
 10
2156.235806955807
 20
5043.39572762443
 30
0.0
  0
POINT
  5
EBE
330
B90
100
AcDbEntity
  8
DEFPOINTS
 62
     0
100
AcDbPoint
 10
1918.735736955808
 20
5043.395727624432
 30
0.0
  0
ENDBLK
  5
B9B
330
B90
100
AcDbEntity
  8
0
100
AcDbBlockEnd
  0
BLOCK
  5
BA6
330
B9C
100
AcDbEntity
  8
0
100
AcDbBlockBegin
  2
*D53
 70
     1
 10
0.0
 20
0.0
 30
0.0
  3
*D53
  1

  0
LINE
  5
EBF
330
B9C
100
AcDbEntity
  8
D-STR-DIM
370
    -2
100
AcDbLine
 10
2206.23580695581
 20
5033.39572762443
 30
0.0
 11
2206.23580695581
 21
4948.39572762443
 31
0.0
  0
LINE
  5
EC0
330
B9C
100
AcDbEntity
  8
D-STR-DIM
370
    -2
100
AcDbLine
 10
2726.235626955815
 20
5033.39572762443
 30
0.0
 11
2726.235626955815
 21
4948.39572762443
 31
0.0
  0
LINE
  5
EC1
330
B9C
100
AcDbEntity
  8
D-STR-DIM
370
    -2
100
AcDbLine
 10
2231.23580695581
 20
4968.39572762443
 30
0.0
 11
2701.235626955815
 21
4968.39572762443
 31
0.0
  0
INSERT
  5
EC2
330
B9C
100
AcDbEntity
  8
D-STR-DIM
370
    -2
100
AcDbBlockReference
  2
_OPEN30
 10
2206.23580695581
 20
4968.39572762443
 30
0.0
 41
25.0
 42
25.0
 43
25.0
 50
180.0
  0
INSERT
  5
EC3
330
B9C
100
AcDbEntity
  8
D-STR-DIM
370
    -2
100
AcDbBlockReference
  2
_OPEN30
 10
2726.235626955815
 20
4968.39572762443
 30
0.0
 41
25.0
 42
25.0
 43
25.0
  0
MTEXT
  5
EC4
330
B9C
100
AcDbEntity
  8
D-STR-DIM
100
AcDbMText
 10
2466.235716955813
 20
4993.39572762443
 30
0.0
 40
30.0
 41
0.0
 71
     5
 72
     1
  1
520
 73
     1
 44
1.0
  0
POINT
  5
EC5
330
B9C
100
AcDbEntity
  8
DEFPOINTS
 62
     0
100
AcDbPoint
 10
2206.23580695581
 20
5043.39572762443
 30
0.0
  0
POINT
  5
EC6
330
B9C
100
AcDbEntity
  8
DEFPOINTS
 62
     0
100
AcDbPoint
 10
2726.235626955815
 20
5043.39572762443
 30
0.0
  0
POINT
  5
EC7
330
B9C
100
AcDbEntity
  8
DEFPOINTS
 62
     0
100
AcDbPoint
 10
2726.235626955815
 20
4968.39572762443
 30
0.0
  0
ENDBLK
  5
BA7
330
B9C
100
AcDbEntity
  8
0
100
AcDbBlockEnd
  0
BLOCK
  5
BB2
330
BA8
100
AcDbEntity
  8
0
100
AcDbBlockBegin
  2
*D54
 70
     1
 10
0.0
 20
0.0
 30
0.0
  3
*D54
  1

  0
LINE
  5
EC8
330
BA8
100
AcDbEntity
  8
D-STR-DIM
370
    -2
100
AcDbLine
 10
2146.235806955806
 20
5143.39573762443
 30
0.0
 11
1973.735736955808
 21
5143.39573762443
 31
0.0
  0
LINE
  5
EC9
330
BA8
100
AcDbEntity
  8
D-STR-DIM
370
    -2
100
AcDbLine
 10
2146.235806955806
 20
5043.39572762443
 30
0.0
 11
1973.735736955808
 21
5043.395727624432
 31
0.0
  0
LINE
  5
ECA
330
BA8
100
AcDbEntity
  8
D-STR-DIM
370
    -2
100
AcDbLine
 10
1993.735736955808
 20
5118.395737624431
 30
0.0
 11
1993.735736955808
 21
5068.395727624431
 31
0.0
  0
MTEXT
  5
ECB
330
BA8
100
AcDbEntity
  8
D-STR-DIM
100
AcDbMText
 10
1968.735736955808
 20
5093.395732624429
 30
0.0
 40
30.0
 41
0.0
 71
     5
 72
     1
  1
100
 11
0.0000000000000001
 21
1.0
 31
0.0
 73
     1
 44
1.0
  0
INSERT
  5
ECC
330
BA8
100
AcDbEntity
  8
D-STR-DIM
370
    -2
100
AcDbBlockReference
  2
_OPEN30
 10
1993.735736955808
 20
5143.39573762443
 30
0.0
 41
25.0
 42
25.0
 43
25.0
 50
90.0
  0
INSERT
  5
ECD
330
BA8
100
AcDbEntity
  8
D-STR-DIM
370
    -2
100
AcDbBlockReference
  2
_OPEN30
 10
1993.735736955808
 20
5043.395727624432
 30
0.0
 41
25.0
 42
25.0
 43
25.0
 50
270.0
  0
POINT
  5
ECE
330
BA8
100
AcDbEntity
  8
DEFPOINTS
 62
     0
100
AcDbPoint
 10
2156.235806955807
 20
5143.39573762443
 30
0.0
  0
POINT
  5
ECF
330
BA8
100
AcDbEntity
  8
DEFPOINTS
 62
     0
100
AcDbPoint
 10
2156.235806955807
 20
5043.39572762443
 30
0.0
  0
POINT
  5
ED0
330
BA8
100
AcDbEntity
  8
DEFPOINTS
 62
     0
100
AcDbPoint
 10
1993.735736955808
 20
5043.395727624432
 30
0.0
  0
ENDBLK
  5
BB3
330
BA8
100
AcDbEntity
  8
0
100
AcDbBlockEnd
  0
BLOCK
  5
BC0
330
BB4
100
AcDbEntity
  8
0
100
AcDbBlockBegin
  2
*D55
 70
     1
 10
0.0
 20
0.0
 30
0.0
  3
*D55
  1

  0
LINE
  5
ED1
330
BB4
100
AcDbEntity
  8
D-STR-DIM
370
    -2
100
AcDbLine
 10
2156.235806955807
 20
5033.39572762443
 30
0.0
 11
2156.235806955807
 21
4948.39572762443
 31
0.0
  0
LINE
  5
ED2
330
BB4
100
AcDbEntity
  8
D-STR-DIM
370
    -2
100
AcDbLine
 10
2206.23580695581
 20
5033.39572762443
 30
0.0
 11
2206.23580695581
 21
4948.39572762443
 31
0.0
  0
LINE
  5
ED3
330
BB4
100
AcDbEntity
  8
D-STR-DIM
370
    -2
100
AcDbLine
 10
2131.235806955806
 20
4968.39572762443
 30
0.0
 11
2106.235806955806
 21
4968.39572762443
 31
0.0
  0
LINE
  5
ED4
330
BB4
100
AcDbEntity
  8
D-STR-DIM
370
    -2
100
AcDbLine
 10
2231.23580695581
 20
4968.39572762443
 30
0.0
 11
2256.23580695581
 21
4968.39572762443
 31
0.0
  0
MTEXT
  5
ED5
330
BB4
100
AcDbEntity
  8
D-STR-DIM
100
AcDbMText
 10
2181.23580695581
 20
4993.39572762443
 30
0.0
 40
30.0
 41
0.0
 71
     5
 72
     1
  1
50
 73
     1
 44
1.0
  0
LINE
  5
ED6
330
BB4
100
AcDbEntity
  8
D-STR-DIM
370
    -2
100
AcDbLine
 10
2156.235806955807
 20
4968.39572762443
 30
0.0
 11
2206.23580695581
 21
4968.39572762443
 31
0.0
  0
INSERT
  5
ED7
330
BB4
100
AcDbEntity
  8
D-STR-DIM
370
    -2
100
AcDbBlockReference
  2
_OPEN30
 10
2156.235806955807
 20
4968.39572762443
 30
0.0
 41
25.0
 42
25.0
 43
25.0
  0
INSERT
  5
ED8
330
BB4
100
AcDbEntity
  8
D-STR-DIM
370
    -2
100
AcDbBlockReference
  2
_OPEN30
 10
2206.23580695581
 20
4968.39572762443
 30
0.0
 41
25.0
 42
25.0
 43
25.0
 50
180.0
  0
POINT
  5
ED9
330
BB4
100
AcDbEntity
  8
DEFPOINTS
 62
     0
100
AcDbPoint
 10
2156.235806955807
 20
5043.39572762443
 30
0.0
  0
POINT
  5
EDA
330
BB4
100
AcDbEntity
  8
DEFPOINTS
 62
     0
100
AcDbPoint
 10
2206.23580695581
 20
5043.39572762443
 30
0.0
  0
POINT
  5
EDB
330
BB4
100
AcDbEntity
  8
DEFPOINTS
 62
     0
100
AcDbPoint
 10
2206.23580695581
 20
4968.39572762443
 30
0.0
  0
ENDBLK
  5
BC1
330
BB4
100
AcDbEntity
  8
0
100
AcDbBlockEnd
  0
BLOCK
  5
BCE
330
BC2
100
AcDbEntity
  8
0
100
AcDbBlockBegin
  2
*D56
 70
     1
 10
0.0
 20
0.0
 30
0.0
  3
*D56
  1

  0
LINE
  5
EDC
330
BC2
100
AcDbEntity
  8
D-STR-DIM
370
    -2
100
AcDbLine
 10
2146.235806955806
 20
5143.39573762443
 30
0.0
 11
1973.735736955808
 21
5143.39573762443
 31
0.0
  0
LINE
  5
EDD
330
BC2
100
AcDbEntity
  8
D-STR-DIM
370
    -2
100
AcDbLine
 10
2196.23580695581
 20
5163.39572762443
 30
0.0
 11
1973.735736955808
 21
5163.395727624431
 31
0.0
  0
LINE
  5
EDE
330
BC2
100
AcDbEntity
  8
D-STR-DIM
370
    -2
100
AcDbLine
 10
1993.735736955808
 20
5123.395737624431
 30
0.0
 11
1993.735736955808
 21
5103.395737624431
 31
0.0
  0
LINE
  5
EDF
330
BC2
100
AcDbEntity
  8
D-STR-DIM
370
    -2
100
AcDbLine
 10
1993.735736955808
 20
5183.395727624431
 30
0.0
 11
1993.735736955808
 21
5203.395727624431
 31
0.0
  0
MTEXT
  5
EE0
330
BC2
100
AcDbEntity
  8
D-STR-DIM
100
AcDbMText
 10
1968.735736955808
 20
5153.39573262443
 30
0.0
 40
30.0
 41
0.0
 71
     5
 72
     1
  1
\A1;20
 11
0.0000000000000001
 21
1.0
 31
0.0
 73
     1
 44
1.0
  0
LINE
  5
EE1
330
BC2
100
AcDbEntity
  8
D-STR-DIM
370
    -2
100
AcDbLine
 10
1993.735736955808
 20
5143.39573762443
 30
0.0
 11
1993.735736955808
 21
5163.395727624431
 31
0.0
  0
INSERT
  5
EE2
330
BC2
100
AcDbEntity
  8
D-STR-DIM
370
    -2
100
AcDbBlockReference
  2
_OPEN30
 10
1993.735736955808
 20
5143.39573762443
 30
0.0
 41
20.0
 42
20.0
 43
20.0
 50
90.0
  0
INSERT
  5
EE3
330
BC2
100
AcDbEntity
  8
D-STR-DIM
370
    -2
100
AcDbBlockReference
  2
_OPEN30
 10
1993.735736955808
 20
5163.395727624431
 30
0.0
 41
20.0
 42
20.0
 43
20.0
 50
270.0
  0
POINT
  5
EE4
330
BC2
100
AcDbEntity
  8
DEFPOINTS
 62
     0
100
AcDbPoint
 10
2156.235806955807
 20
5143.39573762443
 30
0.0
  0
POINT
  5
EE5
330
BC2
100
AcDbEntity
  8
DEFPOINTS
 62
     0
100
AcDbPoint
 10
2206.23580695581
 20
5163.39572762443
 30
0.0
  0
POINT
  5
EE6
330
BC2
100
AcDbEntity
  8
DEFPOINTS
 62
     0
100
AcDbPoint
 10
1993.735736955808
 20
5163.395727624431
 30
0.0
  0
ENDBLK
  5
BCF
330
BC2
100
AcDbEntity
  8
0
100
AcDbBlockEnd
  0
BLOCK
  5
BDA
330
BD0
100
AcDbEntity
  8
0
100
AcDbBlockBegin
  2
*D57
 70
     1
 10
0.0
 20
0.0
 30
0.0
  3
*D57
  1

  0
LINE
  5
EE7
330
BD0
100
AcDbEntity
  8
D-STR-DIM
370
    -2
100
AcDbLine
 10
1617.690495369621
 20
2764.616926470173
 30
0.0
 11
1617.690495369621
 21
2904.794865031071
 31
0.0
  0
LINE
  5
EE8
330
BD0
100
AcDbEntity
  8
D-STR-DIM
370
    -2
100
AcDbLine
 10
1797.690161263985
 20
2764.616926470173
 30
0.0
 11
1797.690161263985
 21
2904.794865031071
 31
0.0
  0
LINE
  5
EE9
330
BD0
100
AcDbEntity
  8
D-STR-DIM
370
    -2
100
AcDbLine
 10
1637.690495369621
 20
2884.794865031071
 30
0.0
 11
1777.690161263985
 21
2884.794865031071
 31
0.0
  0
INSERT
  5
EEA
330
BD0
100
AcDbEntity
  8
D-STR-DIM
370
    -2
100
AcDbBlockReference
  2
_OPEN30
 10
1617.690495369621
 20
2884.794865031071
 30
0.0
 41
20.0
 42
20.0
 43
20.0
 50
180.0
  0
INSERT
  5
EEB
330
BD0
100
AcDbEntity
  8
D-STR-DIM
370
    -2
100
AcDbBlockReference
  2
_OPEN30
 10
1797.690161263985
 20
2884.794865031071
 30
0.0
 41
20.0
 42
20.0
 43
20.0
  0
MTEXT
  5
EEC
330
BD0
100
AcDbEntity
  8
D-STR-DIM
100
AcDbMText
 10
1707.690328316803
 20
2909.79486503107
 30
0.0
 40
30.0
 41
0.0
 71
     5
 72
     1
  1
\A1;180
 73
     1
 44
1.0
  0
POINT
  5
EED
330
BD0
100
AcDbEntity
  8
DEFPOINTS
 62
     0
100
AcDbPoint
 10
1617.690495369621
 20
2754.616926470173
 30
0.0
  0
POINT
  5
EEE
330
BD0
100
AcDbEntity
  8
DEFPOINTS
 62
     0
100
AcDbPoint
 10
1797.690161263985
 20
2754.616926470173
 30
0.0
  0
POINT
  5
EEF
330
BD0
100
AcDbEntity
  8
DEFPOINTS
 62
     0
100
AcDbPoint
 10
1797.690161263985
 20
2884.794865031071
 30
0.0
  0
ENDBLK
  5
BDB
330
BD0
100
AcDbEntity
  8
0
100
AcDbBlockEnd
  0
BLOCK
  5
BE6
330
BDC
100
AcDbEntity
  8
0
100
AcDbBlockBegin
  2
*D58
 70
     1
 10
0.0
 20
0.0
 30
0.0
  3
*D58
  1

  0
LINE
  5
EF0
330
BDC
100
AcDbEntity
  8
D-STR-DIM
370
    -2
100
AcDbLine
 10
1447.690342663816
 20
2564.616826470173
 30
0.0
 11
1447.690342663816
 21
3034.97290359197
 31
0.0
  0
LINE
  5
EF1
330
BDC
100
AcDbEntity
  8
D-STR-DIM
370
    -2
100
AcDbLine
 10
1967.690162663813
 20
2574.617026470173
 30
0.0
 11
1967.690162663813
 21
3034.97290359197
 31
0.0
  0
LINE
  5
EF2
330
BDC
100
AcDbEntity
  8
D-STR-DIM
370
    -2
100
AcDbLine
 10
1467.690342663816
 20
3014.97290359197
 30
0.0
 11
1947.690162663813
 21
3014.97290359197
 31
0.0
  0
INSERT
  5
EF3
330
BDC
100
AcDbEntity
  8
D-STR-DIM
370
    -2
100
AcDbBlockReference
  2
_OPEN30
 10
1447.690342663816
 20
3014.97290359197
 30
0.0
 41
20.0
 42
20.0
 43
20.0
 50
180.0
  0
INSERT
  5
EF4
330
BDC
100
AcDbEntity
  8
D-STR-DIM
370
    -2
100
AcDbBlockReference
  2
_OPEN30
 10
1967.690162663813
 20
3014.97290359197
 30
0.0
 41
20.0
 42
20.0
 43
20.0
  0
MTEXT
  5
EF5
330
BDC
100
AcDbEntity
  8
D-STR-DIM
100
AcDbMText
 10
1707.690252663815
 20
3039.97290359197
 30
0.0
 40
30.0
 41
0.0
 71
     5
 72
     1
  1
\A1;520
 73
     1
 44
1.0
  0
POINT
  5
EF6
330
BDC
100
AcDbEntity
  8
DEFPOINTS
 62
     0
100
AcDbPoint
 10
1447.690342663816
 20
2554.616826470172
 30
0.0
  0
POINT
  5
EF7
330
BDC
100
AcDbEntity
  8
DEFPOINTS
 62
     0
100
AcDbPoint
 10
1967.690162663813
 20
2564.617026470173
 30
0.0
  0
POINT
  5
EF8
330
BDC
100
AcDbEntity
  8
DEFPOINTS
 62
     0
100
AcDbPoint
 10
1967.690162663813
 20
3014.97290359197
 30
0.0
  0
ENDBLK
  5
BE7
330
BDC
100
AcDbEntity
  8
0
100
AcDbBlockEnd
  0
BLOCK
  5
BF4
330
BE8
100
AcDbEntity
  8
0
100
AcDbBlockBegin
  2
*D59
 70
     1
 10
0.0
 20
0.0
 30
0.0
  3
*D59
  1

  0
LINE
  5
EF9
330
BE8
100
AcDbEntity
  8
D-STR-DIM
370
    -2
100
AcDbLine
 10
1597.690137663812
 20
2569.777737861854
 30
0.0
 11
1597.690137663812
 21
2904.794865031071
 31
0.0
  0
LINE
  5
EFA
330
BE8
100
AcDbEntity
  8
D-STR-DIM
370
    -2
100
AcDbLine
 10
1617.690495369621
 20
2764.616926470173
 30
0.0
 11
1617.690495369621
 21
2904.794865031071
 31
0.0
  0
LINE
  5
EFB
330
BE8
100
AcDbEntity
  8
D-STR-DIM
370
    -2
100
AcDbLine
 10
1577.690137663812
 20
2884.794865031071
 30
0.0
 11
1557.690137663812
 21
2884.794865031071
 31
0.0
  0
LINE
  5
EFC
330
BE8
100
AcDbEntity
  8
D-STR-DIM
370
    -2
100
AcDbLine
 10
1637.690495369621
 20
2884.794865031071
 30
0.0
 11
1657.690495369621
 21
2884.794865031071
 31
0.0
  0
MTEXT
  5
EFD
330
BE8
100
AcDbEntity
  8
D-STR-DIM
100
AcDbMText
 10
1607.690316516717
 20
2934.79486503107
 30
0.0
 40
30.0
 41
0.0
 71
     5
 72
     1
  1
\A1;20
 73
     1
 44
1.0
  0
LINE
  5
EFE
330
BE8
100
AcDbEntity
  8
D-STR-DIM
370
    -2
100
AcDbLine
 10
1597.690137663812
 20
2884.794865031071
 30
0.0
 11
1617.690495369621
 21
2884.794865031071
 31
0.0
  0
INSERT
  5
EFF
330
BE8
100
AcDbEntity
  8
D-STR-DIM
370
    -2
100
AcDbBlockReference
  2
_OPEN30
 10
1597.690137663812
 20
2884.794865031071
 30
0.0
 41
20.0
 42
20.0
 43
20.0
  0
INSERT
  5
F00
330
BE8
100
AcDbEntity
  8
D-STR-DIM
370
    -2
100
AcDbBlockReference
  2
_OPEN30
 10
1617.690495369621
 20
2884.794865031071
 30
0.0
 41
20.0
 42
20.0
 43
20.0
 50
180.0
  0
POINT
  5
F01
330
BE8
100
AcDbEntity
  8
DEFPOINTS
 62
     0
100
AcDbPoint
 10
1597.690137663812
 20
2559.777737861853
 30
0.0
  0
POINT
  5
F02
330
BE8
100
AcDbEntity
  8
DEFPOINTS
 62
     0
100
AcDbPoint
 10
1617.690495369621
 20
2754.616926470173
 30
0.0
  0
POINT
  5
F03
330
BE8
100
AcDbEntity
  8
DEFPOINTS
 62
     0
100
AcDbPoint
 10
1617.690495369621
 20
2884.794865031071
 30
0.0
  0
ENDBLK
  5
BF5
330
BE8
100
AcDbEntity
  8
0
100
AcDbBlockEnd
  0
BLOCK
  5
C00
330
BF6
100
AcDbEntity
  8
0
100
AcDbBlockBegin
  2
*D60
 70
     1
 10
0.0
 20
0.0
 30
0.0
  3
*D60
  1

  0
LINE
  5
F04
330
BF6
100
AcDbEntity
  8
D-STR-DIM
370
    -2
100
AcDbLine
 10
1447.690342663816
 20
2564.616826470173
 30
0.0
 11
1447.690342663816
 21
2904.794865031071
 31
0.0
  0
LINE
  5
F05
330
BF6
100
AcDbEntity
  8
D-STR-DIM
370
    -2
100
AcDbLine
 10
1597.690137663812
 20
2569.777737861854
 30
0.0
 11
1597.690137663812
 21
2904.794865031071
 31
0.0
  0
LINE
  5
F06
330
BF6
100
AcDbEntity
  8
D-STR-DIM
370
    -2
100
AcDbLine
 10
1467.690342663816
 20
2884.794865031071
 30
0.0
 11
1577.690137663812
 21
2884.794865031071
 31
0.0
  0
INSERT
  5
F07
330
BF6
100
AcDbEntity
  8
D-STR-DIM
370
    -2
100
AcDbBlockReference
  2
_OPEN30
 10
1447.690342663816
 20
2884.794865031071
 30
0.0
 41
20.0
 42
20.0
 43
20.0
 50
180.0
  0
INSERT
  5
F08
330
BF6
100
AcDbEntity
  8
D-STR-DIM
370
    -2
100
AcDbBlockReference
  2
_OPEN30
 10
1597.690137663812
 20
2884.794865031071
 30
0.0
 41
20.0
 42
20.0
 43
20.0
  0
MTEXT
  5
F09
330
BF6
100
AcDbEntity
  8
D-STR-DIM
100
AcDbMText
 10
1522.690240163814
 20
2909.79486503107
 30
0.0
 40
30.0
 41
0.0
 71
     5
 72
     1
  1
\A1;150
 73
     1
 44
1.0
  0
POINT
  5
F0A
330
BF6
100
AcDbEntity
  8
DEFPOINTS
 62
     0
100
AcDbPoint
 10
1447.690342663816
 20
2554.616826470172
 30
0.0
  0
POINT
  5
F0B
330
BF6
100
AcDbEntity
  8
DEFPOINTS
 62
     0
100
AcDbPoint
 10
1597.690137663812
 20
2559.777737861853
 30
0.0
  0
POINT
  5
F0C
330
BF6
100
AcDbEntity
  8
DEFPOINTS
 62
     0
100
AcDbPoint
 10
1597.690137663812
 20
2884.794865031071
 30
0.0
  0
ENDBLK
  5
C01
330
BF6
100
AcDbEntity
  8
0
100
AcDbBlockEnd
  0
BLOCK
  5
C0C
330
C02
100
AcDbEntity
  8
0
100
AcDbBlockBegin
  2
*D61
 70
     1
 10
0.0
 20
0.0
 30
0.0
  3
*D61
  1

  0
LINE
  5
F0D
330
C02
100
AcDbEntity
  8
D-STR-DIM
  6
Continuous
370
    -2
100
AcDbLine
 10
1437.690342663816
 20
2554.616826470172
 30
0.0
 11
1332.690342663823
 21
2554.616826470172
 31
0.0
  0
LINE
  5
F0E
330
C02
100
AcDbEntity
  8
D-STR-DIM
  6
Continuous
370
    -2
100
AcDbLine
 10
1598.690412663833
 20
2664.616826470172
 30
0.0
 11
1332.690342663823
 21
2664.616826470172
 31
0.0
  0
LINE
  5
F0F
330
C02
100
AcDbEntity
  8
D-STR-DIM
  6
Continuous
370
    -2
100
AcDbLine
 10
1352.690342663823
 20
2574.616826470172
 30
0.0
 11
1352.690342663823
 21
2644.616826470173
 31
0.0
  0
INSERT
  5
F10
330
C02
100
AcDbEntity
  8
D-STR-DIM
  6
Continuous
370
    -2
100
AcDbBlockReference
  2
_OPEN30
 10
1352.690342663823
 20
2554.616826470172
 30
0.0
 41
20.0
 42
20.0
 43
20.0
 50
270.0
  0
INSERT
  5
F11
330
C02
100
AcDbEntity
  8
D-STR-DIM
  6
Continuous
370
    -2
100
AcDbBlockReference
  2
_OPEN30
 10
1352.690342663823
 20
2664.616826470172
 30
0.0
 41
20.0
 42
20.0
 43
20.0
 50
90.0
  0
MTEXT
  5
F12
330
C02
100
AcDbEntity
  8
D-STR-DIM
  6
Continuous
100
AcDbMText
 10
1327.690342663823
 20
2609.616826470173
 30
0.0
 40
30.0
 41
0.0
 71
     5
 72
     1
  1
\A1;110
 11
0.0000000000000001
 21
1.0
 31
0.0
 73
     1
 44
1.0
  0
POINT
  5
F13
330
C02
100
AcDbEntity
  8
DEFPOINTS
  6
Continuous
 62
     0
100
AcDbPoint
 10
1447.690342663816
 20
2554.616826470172
 30
0.0
  0
POINT
  5
F14
330
C02
100
AcDbEntity
  8
DEFPOINTS
  6
Continuous
 62
     0
100
AcDbPoint
 10
1608.690412663832
 20
2664.616826470172
 30
0.0
  0
POINT
  5
F15
330
C02
100
AcDbEntity
  8
DEFPOINTS
  6
Continuous
 62
     0
100
AcDbPoint
 10
1352.690342663823
 20
2664.616826470172
 30
0.0
  0
ENDBLK
  5
C0D
330
C02
100
AcDbEntity
  8
0
100
AcDbBlockEnd
  0
BLOCK
  5
C18
330
C0E
100
AcDbEntity
  8
0
100
AcDbBlockBegin
  2
*D62
 70
     1
 10
0.0
 20
0.0
 30
0.0
  3
*D62
  1

  0
LINE
  5
F16
330
C0E
100
AcDbEntity
  8
D-STR-DIM
370
    -2
100
AcDbLine
 10
1607.690495369621
 20
2754.616926470173
 30
0.0
 11
1163.271411133519
 21
2754.616926470173
 31
0.0
  0
LINE
  5
F17
330
C0E
100
AcDbEntity
  8
D-STR-DIM
370
    -2
100
AcDbLine
 10
1437.690342663834
 20
2414.617026470173
 30
0.0
 11
1163.271411133518
 21
2414.617026470173
 31
0.0
  0
LINE
  5
F18
330
C0E
100
AcDbEntity
  8
D-STR-DIM
370
    -2
100
AcDbLine
 10
1183.271411133519
 20
2734.616926470172
 30
0.0
 11
1183.271411133519
 21
2434.617026470173
 31
0.0
  0
INSERT
  5
F19
330
C0E
100
AcDbEntity
  8
D-STR-DIM
370
    -2
100
AcDbBlockReference
  2
_OPEN30
 10
1183.271411133519
 20
2754.616926470173
 30
0.0
 41
20.0
 42
20.0
 43
20.0
 50
90.0
  0
INSERT
  5
F1A
330
C0E
100
AcDbEntity
  8
D-STR-DIM
370
    -2
100
AcDbBlockReference
  2
_OPEN30
 10
1183.271411133519
 20
2414.617026470173
 30
0.0
 41
20.0
 42
20.0
 43
20.0
 50
270.0
  0
MTEXT
  5
F1B
330
C0E
100
AcDbEntity
  8
D-STR-DIM
100
AcDbMText
 10
1158.271411133518
 20
2584.616976470173
 30
0.0
 40
30.0
 41
0.0
 71
     5
 72
     1
  1
\A1;340
 11
0.0000000000000001
 21
1.0
 31
0.0
 73
     1
 44
1.0
  0
POINT
  5
F1C
330
C0E
100
AcDbEntity
  8
DEFPOINTS
 62
     0
100
AcDbPoint
 10
1617.690495369621
 20
2754.616926470173
 30
0.0
  0
POINT
  5
F1D
330
C0E
100
AcDbEntity
  8
DEFPOINTS
 62
     0
100
AcDbPoint
 10
1447.690342663834
 20
2414.617026470173
 30
0.0
  0
POINT
  5
F1E
330
C0E
100
AcDbEntity
  8
DEFPOINTS
 62
     0
100
AcDbPoint
 10
1183.271411133519
 20
2414.617026470173
 30
0.0
  0
ENDBLK
  5
C19
330
C0E
100
AcDbEntity
  8
0
100
AcDbBlockEnd
  0
BLOCK
  5
C24
330
C1A
100
AcDbEntity
  8
0
100
AcDbBlockBegin
  2
*D63
 70
     1
 10
0.0
 20
0.0
 30
0.0
  3
*D63
  1

  0
LINE
  5
F1F
330
C1A
100
AcDbEntity
  8
D-STR-DIM
370
    -2
100
AcDbLine
 10
1607.690495369621
 20
2754.616926470173
 30
0.0
 11
1267.690342663835
 21
2754.616926470173
 31
0.0
  0
LINE
  5
F20
330
C1A
100
AcDbEntity
  8
D-STR-DIM
370
    -2
100
AcDbLine
 10
1437.690342663816
 20
2554.616826470172
 30
0.0
 11
1267.690342663834
 21
2554.616826470172
 31
0.0
  0
LINE
  5
F21
330
C1A
100
AcDbEntity
  8
D-STR-DIM
370
    -2
100
AcDbLine
 10
1287.690342663834
 20
2734.616926470172
 30
0.0
 11
1287.690342663834
 21
2574.616826470172
 31
0.0
  0
INSERT
  5
F22
330
C1A
100
AcDbEntity
  8
D-STR-DIM
370
    -2
100
AcDbBlockReference
  2
_OPEN30
 10
1287.690342663834
 20
2754.616926470173
 30
0.0
 41
20.0
 42
20.0
 43
20.0
 50
90.0
  0
INSERT
  5
F23
330
C1A
100
AcDbEntity
  8
D-STR-DIM
370
    -2
100
AcDbBlockReference
  2
_OPEN30
 10
1287.690342663834
 20
2554.616826470172
 30
0.0
 41
20.0
 42
20.0
 43
20.0
 50
270.0
  0
MTEXT
  5
F24
330
C1A
100
AcDbEntity
  8
D-STR-DIM
100
AcDbMText
 10
1262.690342663834
 20
2654.616876470173
 30
0.0
 40
30.0
 41
0.0
 71
     5
 72
     1
  1
\A1;200
 11
0.0000000000000001
 21
1.0
 31
0.0
 73
     1
 44
1.0
  0
POINT
  5
F25
330
C1A
100
AcDbEntity
  8
DEFPOINTS
 62
     0
100
AcDbPoint
 10
1617.690495369621
 20
2754.616926470173
 30
0.0
  0
POINT
  5
F26
330
C1A
100
AcDbEntity
  8
DEFPOINTS
 62
     0
100
AcDbPoint
 10
1447.690342663816
 20
2554.616826470172
 30
0.0
  0
POINT
  5
F27
330
C1A
100
AcDbEntity
  8
DEFPOINTS
 62
     0
100
AcDbPoint
 10
1287.690342663834
 20
2554.616826470172
 30
0.0
  0
ENDBLK
  5
C25
330
C1A
100
AcDbEntity
  8
0
100
AcDbBlockEnd
  0
BLOCK
  5
C30
330
C26
100
AcDbEntity
  8
0
100
AcDbBlockBegin
  2
*D64
 70
     1
 10
0.0
 20
0.0
 30
0.0
  3
*D64
  1

  0
LINE
  5
F28
330
C26
100
AcDbEntity
  8
D-STR-DIM
370
    -2
100
AcDbLine
 10
1437.690342663816
 20
2554.616826470172
 30
0.0
 11
1267.690342663834
 21
2554.616826470172
 31
0.0
  0
LINE
  5
F29
330
C26
100
AcDbEntity
  8
D-STR-DIM
370
    -2
100
AcDbLine
 10
1437.690342663834
 20
2414.617026470173
 30
0.0
 11
1267.690342663834
 21
2414.617026470173
 31
0.0
  0
LINE
  5
F2A
330
C26
100
AcDbEntity
  8
D-STR-DIM
370
    -2
100
AcDbLine
 10
1287.690342663834
 20
2534.616826470172
 30
0.0
 11
1287.690342663834
 21
2434.617026470173
 31
0.0
  0
INSERT
  5
F2B
330
C26
100
AcDbEntity
  8
D-STR-DIM
370
    -2
100
AcDbBlockReference
  2
_OPEN30
 10
1287.690342663834
 20
2554.616826470172
 30
0.0
 41
20.0
 42
20.0
 43
20.0
 50
90.0
  0
INSERT
  5
F2C
330
C26
100
AcDbEntity
  8
D-STR-DIM
370
    -2
100
AcDbBlockReference
  2
_OPEN30
 10
1287.690342663834
 20
2414.617026470173
 30
0.0
 41
20.0
 42
20.0
 43
20.0
 50
270.0
  0
MTEXT
  5
F2D
330
C26
100
AcDbEntity
  8
D-STR-DIM
100
AcDbMText
 10
1262.690342663834
 20
2484.616926470173
 30
0.0
 40
30.0
 41
0.0
 71
     5
 72
     1
  1
\A1;140
 11
0.0000000000000001
 21
1.0
 31
0.0
 73
     1
 44
1.0
  0
POINT
  5
F2E
330
C26
100
AcDbEntity
  8
DEFPOINTS
 62
     0
100
AcDbPoint
 10
1447.690342663816
 20
2554.616826470172
 30
0.0
  0
POINT
  5
F2F
330
C26
100
AcDbEntity
  8
DEFPOINTS
 62
     0
100
AcDbPoint
 10
1447.690342663834
 20
2414.617026470173
 30
0.0
  0
POINT
  5
F30
330
C26
100
AcDbEntity
  8
DEFPOINTS
 62
     0
100
AcDbPoint
 10
1287.690342663834
 20
2414.617026470173
 30
0.0
  0
ENDBLK
  5
C31
330
C26
100
AcDbEntity
  8
0
100
AcDbBlockEnd
  0
BLOCK
  5
C3C
330
C32
100
AcDbEntity
  8
0
100
AcDbBlockBegin
  2
*D65
 70
     1
 10
0.0
 20
0.0
 30
0.0
  3
*D65
  1

  0
LINE
  5
F31
330
C32
100
AcDbEntity
  8
D-STR-DIM
370
    -2
100
AcDbLine
 10
7613.83873503057
 20
2569.615201130496
 30
0.0
 11
7613.83873503057
 21
3029.971735694298
 31
0.0
  0
LINE
  5
F32
330
C32
100
AcDbEntity
  8
D-STR-DIM
370
    -2
100
AcDbLine
 10
6615.838675960943
 20
2739.6158585725
 30
0.0
 11
6615.838675960943
 21
3029.971735694298
 31
0.0
  0
LINE
  5
F33
330
C32
100
AcDbEntity
  8
D-STR-DIM
370
    -2
100
AcDbLine
 10
7593.838735030572
 20
3009.971735694298
 30
0.0
 11
6635.838675960942
 21
3009.971735694298
 31
0.0
  0
INSERT
  5
F34
330
C32
100
AcDbEntity
  8
D-STR-DIM
370
    -2
100
AcDbBlockReference
  2
_OPEN30
 10
7613.83873503057
 20
3009.971735694298
 30
0.0
 41
20.0
 42
20.0
 43
20.0
  0
INSERT
  5
F35
330
C32
100
AcDbEntity
  8
D-STR-DIM
370
    -2
100
AcDbBlockReference
  2
_OPEN30
 10
6615.838675960943
 20
3009.971735694298
 30
0.0
 41
20.0
 42
20.0
 43
20.0
 50
180.0
  0
MTEXT
  5
F36
330
C32
100
AcDbEntity
  8
D-STR-DIM
100
AcDbMText
 10
7114.838705495756
 20
3034.971735694298
 30
0.0
 40
30.0
 41
0.0
 71
     5
 72
     1
  1
\A1;998
 73
     1
 44
1.0
  0
POINT
  5
F37
330
C32
100
AcDbEntity
  8
DEFPOINTS
 62
     0
100
AcDbPoint
 10
7613.83873503057
 20
2559.615201130496
 30
0.0
  0
POINT
  5
F38
330
C32
100
AcDbEntity
  8
DEFPOINTS
 62
     0
100
AcDbPoint
 10
6615.838675960943
 20
2729.6158585725
 30
0.0
  0
POINT
  5
F39
330
C32
100
AcDbEntity
  8
DEFPOINTS
 62
     0
100
AcDbPoint
 10
6615.838675960943
 20
3009.971735694298
 30
0.0
  0
ENDBLK
  5
C3D
330
C32
100
AcDbEntity
  8
0
100
AcDbBlockEnd
  0
BLOCK
  5
C48
330
C3E
100
AcDbEntity
  8
0
100
AcDbBlockBegin
  2
*D66
 70
     1
 10
0.0
 20
0.0
 30
0.0
  3
*D66
  1

  0
LINE
  5
F3A
330
C3E
100
AcDbEntity
  8
D-STR-DIM
370
    -2
100
AcDbLine
 10
6656.492822608955
 20
1013.714075049916
 30
0.0
 11
6656.492822608955
 21
1309.070090078741
 31
0.0
  0
LINE
  5
F3B
330
C3E
100
AcDbEntity
  8
D-STR-DIM
370
    -2
100
AcDbLine
 10
7654.492844469423
 20
1013.714075049916
 30
0.0
 11
7654.492844469423
 21
1309.070090078741
 31
0.0
  0
LINE
  5
F3C
330
C3E
100
AcDbEntity
  8
D-STR-DIM
370
    -2
100
AcDbLine
 10
6676.492822608953
 20
1289.070090078741
 30
0.0
 11
7634.492844469423
 21
1289.070090078741
 31
0.0
  0
INSERT
  5
F3D
330
C3E
100
AcDbEntity
  8
D-STR-DIM
370
    -2
100
AcDbBlockReference
  2
_OPEN30
 10
6656.492822608955
 20
1289.070090078741
 30
0.0
 41
20.0
 42
20.0
 43
20.0
 50
180.0
  0
INSERT
  5
F3E
330
C3E
100
AcDbEntity
  8
D-STR-DIM
370
    -2
100
AcDbBlockReference
  2
_OPEN30
 10
7654.492844469423
 20
1289.070090078741
 30
0.0
 41
20.0
 42
20.0
 43
20.0
  0
MTEXT
  5
F3F
330
C3E
100
AcDbEntity
  8
D-STR-DIM
100
AcDbMText
 10
7155.492833539189
 20
1314.070090078741
 30
0.0
 40
30.0
 41
0.0
 71
     5
 72
     1
  1
\A1;998
 73
     1
 44
1.0
  0
POINT
  5
F40
330
C3E
100
AcDbEntity
  8
DEFPOINTS
 62
     0
100
AcDbPoint
 10
6656.492822608955
 20
1003.714075049916
 30
0.0
  0
POINT
  5
F41
330
C3E
100
AcDbEntity
  8
DEFPOINTS
 62
     0
100
AcDbPoint
 10
7654.492844469423
 20
1003.714075049916
 30
0.0
  0
POINT
  5
F42
330
C3E
100
AcDbEntity
  8
DEFPOINTS
 62
     0
100
AcDbPoint
 10
7654.492844469423
 20
1289.070090078741
 30
0.0
  0
ENDBLK
  5
C49
330
C3E
100
AcDbEntity
  8
0
100
AcDbBlockEnd
  0
BLOCK
  5
C54
330
C4A
100
AcDbEntity
  8
0
100
AcDbBlockBegin
  2
*D67
 70
     1
 10
0.0
 20
0.0
 30
0.0
  3
*D67
  1

  0
LINE
  5
F43
330
C4A
100
AcDbEntity
  8
D-STR-DIM
370
    -2
100
AcDbLine
 10
3517.794026606847
 20
1013.713842956838
 30
0.0
 11
3517.794026606847
 21
1480.071677520641
 31
0.0
  0
LINE
  5
F44
330
C4A
100
AcDbEntity
  8
D-STR-DIM
370
    -2
100
AcDbLine
 10
4515.794085676484
 20
1189.715800398843
 30
0.0
 11
4515.794085676484
 21
1480.071677520641
 31
0.0
  0
LINE
  5
F45
330
C4A
100
AcDbEntity
  8
D-STR-DIM
370
    -2
100
AcDbLine
 10
3537.794026606847
 20
1460.07167752064
 30
0.0
 11
4495.794085676483
 21
1460.07167752064
 31
0.0
  0
INSERT
  5
F46
330
C4A
100
AcDbEntity
  8
D-STR-DIM
370
    -2
100
AcDbBlockReference
  2
_OPEN30
 10
3517.794026606847
 20
1460.07167752064
 30
0.0
 41
20.0
 42
20.0
 43
20.0
 50
180.0
  0
INSERT
  5
F47
330
C4A
100
AcDbEntity
  8
D-STR-DIM
370
    -2
100
AcDbBlockReference
  2
_OPEN30
 10
4515.794085676484
 20
1460.07167752064
 30
0.0
 41
20.0
 42
20.0
 43
20.0
  0
MTEXT
  5
F48
330
C4A
100
AcDbEntity
  8
D-STR-DIM
100
AcDbMText
 10
4016.794056141665
 20
1485.07167752064
 30
0.0
 40
30.0
 41
0.0
 71
     5
 72
     1
  1
\A1;998
 73
     1
 44
1.0
  0
POINT
  5
F49
330
C4A
100
AcDbEntity
  8
DEFPOINTS
 62
     0
100
AcDbPoint
 10
3517.794026606847
 20
1003.713842956838
 30
0.0
  0
POINT
  5
F4A
330
C4A
100
AcDbEntity
  8
DEFPOINTS
 62
     0
100
AcDbPoint
 10
4515.794085676484
 20
1179.715800398843
 30
0.0
  0
POINT
  5
F4B
330
C4A
100
AcDbEntity
  8
DEFPOINTS
 62
     0
100
AcDbPoint
 10
4515.794085676484
 20
1460.07167752064
 30
0.0
  0
ENDBLK
  5
C55
330
C4A
100
AcDbEntity
  8
0
100
AcDbBlockEnd
  0
BLOCK
  5
C62
330
C56
100
AcDbEntity
  8
0
100
AcDbBlockBegin
  2
*D68
 70
     1
 10
0.0
 20
0.0
 30
0.0
  3
*D68
  1

  0
LINE
  5
F4C
330
C56
100
AcDbEntity
  8
D-STR-DIM
370
    -2
100
AcDbLine
 10
3025.794458467324
 20
1028.714112062643
 30
0.0
 11
3267.794258467322
 21
1028.714112062643
 31
0.0
  0
LINE
  5
F4D
330
C56
100
AcDbEntity
  8
D-STR-DIM
370
    -2
100
AcDbLine
 10
3177.794258467322
 20
1008.714212956983
 30
0.0
 11
3267.794258467322
 21
1008.714212956983
 31
0.0
  0
LINE
  5
F4E
330
C56
100
AcDbEntity
  8
D-STR-DIM
370
    -2
100
AcDbLine
 10
3247.794258467322
 20
1048.714112062643
 30
0.0
 11
3247.794258467322
 21
1068.714112062643
 31
0.0
  0
LINE
  5
F4F
330
C56
100
AcDbEntity
  8
D-STR-DIM
370
    -2
100
AcDbLine
 10
3247.794258467322
 20
988.7142129569831
 30
0.0
 11
3247.794258467322
 21
968.7142129569831
 31
0.0
  0
MTEXT
  5
F50
330
C56
100
AcDbEntity
  8
D-STR-DIM
100
AcDbMText
 10
3222.794258467322
 20
1018.714162509813
 30
0.0
 40
30.0
 41
0.0
 71
     5
 72
     1
  1
\A1;20
 11
0.0000000000000001
 21
1.0
 31
0.0
 73
     1
 44
1.0
  0
LINE
  5
F51
330
C56
100
AcDbEntity
  8
D-STR-DIM
370
    -2
100
AcDbLine
 10
3247.794258467322
 20
1028.714112062643
 30
0.0
 11
3247.794258467322
 21
1008.714212956983
 31
0.0
  0
INSERT
  5
F52
330
C56
100
AcDbEntity
  8
D-STR-DIM
370
    -2
100
AcDbBlockReference
  2
_OPEN30
 10
3247.794258467322
 20
1028.714112062643
 30
0.0
 41
20.0
 42
20.0
 43
20.0
 50
270.0
  0
INSERT
  5
F53
330
C56
100
AcDbEntity
  8
D-STR-DIM
370
    -2
100
AcDbBlockReference
  2
_OPEN30
 10
3247.794258467322
 20
1008.714212956983
 30
0.0
 41
20.0
 42
20.0
 43
20.0
 50
90.0
  0
POINT
  5
F54
330
C56
100
AcDbEntity
  8
DEFPOINTS
 62
     0
100
AcDbPoint
 10
3015.794458467324
 20
1028.714112062643
 30
0.0
  0
POINT
  5
F55
330
C56
100
AcDbEntity
  8
DEFPOINTS
 62
     0
100
AcDbPoint
 10
3167.794258467322
 20
1008.714212956983
 30
0.0
  0
POINT
  5
F56
330
C56
100
AcDbEntity
  8
DEFPOINTS
 62
     0
100
AcDbPoint
 10
3247.794258467322
 20
1008.714212956983
 30
0.0
  0
ENDBLK
  5
C63
330
C56
100
AcDbEntity
  8
0
100
AcDbBlockEnd
  0
BLOCK
  5
C6E
330
C64
100
AcDbEntity
  8
0
100
AcDbBlockBegin
  2
*D69
 70
     1
 10
0.0
 20
0.0
 30
0.0
  3
*D69
  1

  0
LINE
  5
F57
330
C64
100
AcDbEntity
  8
D-STR-DIM
370
    -2
100
AcDbLine
 10
3025.794458467324
 20
1028.714112062643
 30
0.0
 11
3372.213189997638
 21
1028.714112062643
 31
0.0
  0
LINE
  5
F58
330
C64
100
AcDbEntity
  8
D-STR-DIM
370
    -2
100
AcDbLine
 10
3177.794258467322
 20
858.7142129569832
 30
0.0
 11
3372.213189997637
 21
858.714212956983
 31
0.0
  0
LINE
  5
F59
330
C64
100
AcDbEntity
  8
D-STR-DIM
370
    -2
100
AcDbLine
 10
3352.213189997637
 20
1008.714112062643
 30
0.0
 11
3352.213189997637
 21
878.7142129569829
 31
0.0
  0
INSERT
  5
F5A
330
C64
100
AcDbEntity
  8
D-STR-DIM
370
    -2
100
AcDbBlockReference
  2
_OPEN30
 10
3352.213189997637
 20
1028.714112062643
 30
0.0
 41
20.0
 42
20.0
 43
20.0
 50
90.0
  0
INSERT
  5
F5B
330
C64
100
AcDbEntity
  8
D-STR-DIM
370
    -2
100
AcDbBlockReference
  2
_OPEN30
 10
3352.213189997637
 20
858.714212956983
 30
0.0
 41
20.0
 42
20.0
 43
20.0
 50
270.0
  0
MTEXT
  5
F5C
330
C64
100
AcDbEntity
  8
D-STR-DIM
100
AcDbMText
 10
3327.213189997637
 20
943.7141625098135
 30
0.0
 40
30.0
 41
0.0
 71
     5
 72
     1
  1
\A1;170
 11
0.0000000000000001
 21
1.0
 31
0.0
 73
     1
 44
1.0
  0
POINT
  5
F5D
330
C64
100
AcDbEntity
  8
DEFPOINTS
 62
     0
100
AcDbPoint
 10
3015.794458467324
 20
1028.714112062643
 30
0.0
  0
POINT
  5
F5E
330
C64
100
AcDbEntity
  8
DEFPOINTS
 62
     0
100
AcDbPoint
 10
3167.794258467322
 20
858.7142129569832
 30
0.0
  0
POINT
  5
F5F
330
C64
100
AcDbEntity
  8
DEFPOINTS
 62
     0
100
AcDbPoint
 10
3352.213189997637
 20
858.714212956983
 30
0.0
  0
ENDBLK
  5
C6F
330
C64
100
AcDbEntity
  8
0
100
AcDbBlockEnd
  0
BLOCK
  5
C7A
330
C70
100
AcDbEntity
  8
0
100
AcDbBlockBegin
  2
*D70
 70
     1
 10
0.0
 20
0.0
 30
0.0
  3
*D70
  1

  0
LINE
  5
F60
330
C70
100
AcDbEntity
  8
D-STR-DIM
370
    -2
100
AcDbLine
 10
2647.794558467321
 20
1008.714012956982
 30
0.0
 11
2647.794558467321
 21
1309.07009007878
 31
0.0
  0
LINE
  5
F61
330
C70
100
AcDbEntity
  8
D-STR-DIM
370
    -2
100
AcDbLine
 10
3167.794258467322
 20
1018.714212956983
 30
0.0
 11
3167.794258467322
 21
1309.07009007878
 31
0.0
  0
LINE
  5
F62
330
C70
100
AcDbEntity
  8
D-STR-DIM
370
    -2
100
AcDbLine
 10
2667.794558467321
 20
1289.07009007878
 30
0.0
 11
3147.794258467321
 21
1289.07009007878
 31
0.0
  0
INSERT
  5
F63
330
C70
100
AcDbEntity
  8
D-STR-DIM
370
    -2
100
AcDbBlockReference
  2
_OPEN30
 10
2647.794558467321
 20
1289.07009007878
 30
0.0
 41
20.0
 42
20.0
 43
20.0
 50
180.0
  0
INSERT
  5
F64
330
C70
100
AcDbEntity
  8
D-STR-DIM
370
    -2
100
AcDbBlockReference
  2
_OPEN30
 10
3167.794258467322
 20
1289.07009007878
 30
0.0
 41
20.0
 42
20.0
 43
20.0
  0
MTEXT
  5
F65
330
C70
100
AcDbEntity
  8
D-STR-DIM
100
AcDbMText
 10
2907.794408467322
 20
1314.07009007878
 30
0.0
 40
30.0
 41
0.0
 71
     5
 72
     1
  1
\A1;520
 73
     1
 44
1.0
  0
POINT
  5
F66
330
C70
100
AcDbEntity
  8
DEFPOINTS
 62
     0
100
AcDbPoint
 10
2647.794558467321
 20
998.7140129569826
 30
0.0
  0
POINT
  5
F67
330
C70
100
AcDbEntity
  8
DEFPOINTS
 62
     0
100
AcDbPoint
 10
3167.794258467322
 20
1008.714212956983
 30
0.0
  0
POINT
  5
F68
330
C70
100
AcDbEntity
  8
DEFPOINTS
 62
     0
100
AcDbPoint
 10
3167.794258467322
 20
1289.07009007878
 30
0.0
  0
ENDBLK
  5
C7B
330
C70
100
AcDbEntity
  8
0
100
AcDbBlockEnd
  0
BLOCK
  5
C86
330
C7C
100
AcDbEntity
  8
0
100
AcDbBlockBegin
  2
*D71
 70
     1
 10
0.0
 20
0.0
 30
0.0
  3
*D71
  1

  0
LINE
  5
F69
330
C7C
100
AcDbEntity
  8
D-STR-DIM
370
    -2
100
AcDbLine
 10
3017.794558467322
 20
1018.714212956983
 30
0.0
 11
3017.794558467322
 21
1178.892051517881
 31
0.0
  0
LINE
  5
F6A
330
C7C
100
AcDbEntity
  8
D-STR-DIM
370
    -2
100
AcDbLine
 10
3167.794258467322
 20
1018.714212956983
 30
0.0
 11
3167.794258467322
 21
1178.892051517881
 31
0.0
  0
LINE
  5
F6B
330
C7C
100
AcDbEntity
  8
D-STR-DIM
370
    -2
100
AcDbLine
 10
3037.794558467322
 20
1158.892051517881
 30
0.0
 11
3147.794258467321
 21
1158.892051517881
 31
0.0
  0
INSERT
  5
F6C
330
C7C
100
AcDbEntity
  8
D-STR-DIM
370
    -2
100
AcDbBlockReference
  2
_OPEN30
 10
3017.794558467322
 20
1158.892051517881
 30
0.0
 41
20.0
 42
20.0
 43
20.0
 50
180.0
  0
INSERT
  5
F6D
330
C7C
100
AcDbEntity
  8
D-STR-DIM
370
    -2
100
AcDbBlockReference
  2
_OPEN30
 10
3167.794258467322
 20
1158.892051517881
 30
0.0
 41
20.0
 42
20.0
 43
20.0
  0
MTEXT
  5
F6E
330
C7C
100
AcDbEntity
  8
D-STR-DIM
100
AcDbMText
 10
3092.794408467321
 20
1183.892051517881
 30
0.0
 40
30.0
 41
0.0
 71
     5
 72
     1
  1
\A1;150
 73
     1
 44
1.0
  0
POINT
  5
F6F
330
C7C
100
AcDbEntity
  8
DEFPOINTS
 62
     0
100
AcDbPoint
 10
3017.794558467322
 20
1008.714212956983
 30
0.0
  0
POINT
  5
F70
330
C7C
100
AcDbEntity
  8
DEFPOINTS
 62
     0
100
AcDbPoint
 10
3167.794258467322
 20
1008.714212956983
 30
0.0
  0
POINT
  5
F71
330
C7C
100
AcDbEntity
  8
DEFPOINTS
 62
     0
100
AcDbPoint
 10
3167.794258467322
 20
1158.892051517881
 30
0.0
  0
ENDBLK
  5
C87
330
C7C
100
AcDbEntity
  8
0
100
AcDbBlockEnd
  0
BLOCK
  5
C92
330
C88
100
AcDbEntity
  8
0
100
AcDbBlockBegin
  2
*D72
 70
     1
 10
0.0
 20
0.0
 30
0.0
  3
*D72
  1

  0
LINE
  5
F72
330
C88
100
AcDbEntity
  8
D-STR-DIM
  6
Continuous
370
    -2
100
AcDbLine
 10
4883.12789246159
 20
4856.566467209309
 30
0.0
 11
4988.127892461598
 21
4856.566467209309
 31
0.0
  0
LINE
  5
F73
330
C88
100
AcDbEntity
  8
D-STR-DIM
  6
Continuous
370
    -2
100
AcDbLine
 10
4719.127914503195
 20
4986.566385985033
 30
0.0
 11
4988.127892461598
 21
4986.566385985033
 31
0.0
  0
LINE
  5
F74
330
C88
100
AcDbEntity
  8
D-STR-DIM
  6
Continuous
370
    -2
100
AcDbLine
 10
4968.127892461598
 20
4876.566467209308
 30
0.0
 11
4968.127892461598
 21
4966.566385985032
 31
0.0
  0
INSERT
  5
F75
330
C88
100
AcDbEntity
  8
D-STR-DIM
  6
Continuous
370
    -2
100
AcDbBlockReference
  2
_OPEN30
 10
4968.127892461598
 20
4856.566467209309
 30
0.0
 41
20.0
 42
20.0
 43
20.0
 50
270.0
  0
INSERT
  5
F76
330
C88
100
AcDbEntity
  8
D-STR-DIM
  6
Continuous
370
    -2
100
AcDbBlockReference
  2
_OPEN30
 10
4968.127892461598
 20
4986.566385985033
 30
0.0
 41
20.0
 42
20.0
 43
20.0
 50
90.0
  0
MTEXT
  5
F77
330
C88
100
AcDbEntity
  8
D-STR-DIM
  6
Continuous
100
AcDbMText
 10
4943.127892461597
 20
4921.566426597172
 30
0.0
 40
30.0
 41
0.0
 71
     5
 72
     1
  1
\A1;130
 11
0.0000000000000001
 21
1.0
 31
0.0
 73
     1
 44
1.0
  0
POINT
  5
F78
330
C88
100
AcDbEntity
  8
DEFPOINTS
  6
Continuous
 62
     0
100
AcDbPoint
 10
4873.127892461591
 20
4856.566467209309
 30
0.0
  0
POINT
  5
F79
330
C88
100
AcDbEntity
  8
DEFPOINTS
  6
Continuous
 62
     0
100
AcDbPoint
 10
4709.127914503194
 20
4986.566385985033
 30
0.0
  0
POINT
  5
F7A
330
C88
100
AcDbEntity
  8
DEFPOINTS
  6
Continuous
 62
     0
100
AcDbPoint
 10
4968.127892461598
 20
4986.566385985033
 30
0.0
  0
ENDBLK
  5
C93
330
C88
100
AcDbEntity
  8
0
100
AcDbBlockEnd
  0
BLOCK
  5
C9E
330
C94
100
AcDbEntity
  8
0
100
AcDbBlockBegin
  2
*D73
 70
     1
 10
0.0
 20
0.0
 30
0.0
  3
*D73
  1

  0
LINE
  5
F7B
330
C94
100
AcDbEntity
  8
D-STR-DIM
370
    -2
100
AcDbLine
 10
4713.127891061762
 20
5046.566367209308
 30
0.0
 11
5053.127892461612
 21
5046.566367209308
 31
0.0
  0
LINE
  5
F7C
330
C94
100
AcDbEntity
  8
D-STR-DIM
370
    -2
100
AcDbLine
 10
4883.12789246159
 20
4856.566467209309
 30
0.0
 11
5053.127892461612
 21
4856.566467209309
 31
0.0
  0
LINE
  5
F7D
330
C94
100
AcDbEntity
  8
D-STR-DIM
370
    -2
100
AcDbLine
 10
5033.127892461613
 20
5026.566367209309
 30
0.0
 11
5033.127892461613
 21
4876.566467209308
 31
0.0
  0
MTEXT
  5
F7E
330
C94
100
AcDbEntity
  8
D-STR-DIM
100
AcDbMText
 10
5008.127892461613
 20
4951.566417709308
 30
0.0
 40
30.0
 41
0.0
 71
     5
 72
     1
  1
\A1;190
 11
0.0000000000000001
 21
1.0
 31
0.0
 73
     1
 44
1.0
  0
INSERT
  5
F7F
330
C94
100
AcDbEntity
  8
D-STR-DIM
370
    -2
100
AcDbBlockReference
  2
_OPEN30
 10
5033.127892461613
 20
5046.566367209308
 30
0.0
 41
20.0
 42
20.0
 43
20.0
 50
90.0
  0
INSERT
  5
F80
330
C94
100
AcDbEntity
  8
D-STR-DIM
370
    -2
100
AcDbBlockReference
  2
_OPEN30
 10
5033.127892461613
 20
4856.566467209309
 30
0.0
 41
20.0
 42
20.0
 43
20.0
 50
270.0
  0
POINT
  5
F81
330
C94
100
AcDbEntity
  8
DEFPOINTS
 62
     0
100
AcDbPoint
 10
4703.127891061762
 20
5046.566367209308
 30
0.0
  0
POINT
  5
F82
330
C94
100
AcDbEntity
  8
DEFPOINTS
 62
     0
100
AcDbPoint
 10
4873.127892461591
 20
4856.566467209309
 30
0.0
  0
POINT
  5
F83
330
C94
100
AcDbEntity
  8
DEFPOINTS
 62
     0
100
AcDbPoint
 10
5033.127892461613
 20
4856.566467209309
 30
0.0
  0
ENDBLK
  5
C9F
330
C94
100
AcDbEntity
  8
0
100
AcDbBlockEnd
  0
BLOCK
  5
CAA
330
CA0
100
AcDbEntity
  8
0
100
AcDbBlockBegin
  2
*D74
 70
     1
 10
0.0
 20
0.0
 30
0.0
  3
*D74
  1

  0
LINE
  5
F84
330
CA0
100
AcDbEntity
  8
D-STR-DIM
370
    -2
100
AcDbLine
 10
4713.127891061762
 20
5046.566367209308
 30
0.0
 11
5157.546823991928
 21
5046.566367209308
 31
0.0
  0
LINE
  5
F85
330
CA0
100
AcDbEntity
  8
D-STR-DIM
370
    -2
100
AcDbLine
 10
4883.127892461613
 20
4706.566467209309
 30
0.0
 11
5157.546823991928
 21
4706.566467209309
 31
0.0
  0
LINE
  5
F86
330
CA0
100
AcDbEntity
  8
D-STR-DIM
370
    -2
100
AcDbLine
 10
5137.546823991929
 20
5026.566367209309
 30
0.0
 11
5137.546823991929
 21
4726.566467209308
 31
0.0
  0
INSERT
  5
F87
330
CA0
100
AcDbEntity
  8
D-STR-DIM
370
    -2
100
AcDbBlockReference
  2
_OPEN30
 10
5137.546823991929
 20
5046.566367209308
 30
0.0
 41
20.0
 42
20.0
 43
20.0
 50
90.0
  0
INSERT
  5
F88
330
CA0
100
AcDbEntity
  8
D-STR-DIM
370
    -2
100
AcDbBlockReference
  2
_OPEN30
 10
5137.546823991929
 20
4706.566467209309
 30
0.0
 41
20.0
 42
20.0
 43
20.0
 50
270.0
  0
MTEXT
  5
F89
330
CA0
100
AcDbEntity
  8
D-STR-DIM
100
AcDbMText
 10
5112.546823991927
 20
4876.56641720931
 30
0.0
 40
30.0
 41
0.0
 71
     5
 72
     1
  1
\A1;340
 11
0.0000000000000001
 21
1.0
 31
0.0
 73
     1
 44
1.0
  0
POINT
  5
F8A
330
CA0
100
AcDbEntity
  8
DEFPOINTS
 62
     0
100
AcDbPoint
 10
4703.127891061762
 20
5046.566367209308
 30
0.0
  0
POINT
  5
F8B
330
CA0
100
AcDbEntity
  8
DEFPOINTS
 62
     0
100
AcDbPoint
 10
4873.127892461613
 20
4706.566467209309
 30
0.0
  0
POINT
  5
F8C
330
CA0
100
AcDbEntity
  8
DEFPOINTS
 62
     0
100
AcDbPoint
 10
5137.546823991929
 20
4706.566467209309
 30
0.0
  0
ENDBLK
  5
CAB
330
CA0
100
AcDbEntity
  8
0
100
AcDbBlockEnd
  0
BLOCK
  5
CB6
330
CAC
100
AcDbEntity
  8
0
100
AcDbBlockBegin
  2
*D75
 70
     1
 10
0.0
 20
0.0
 30
0.0
  3
*D75
  1

  0
LINE
  5
F8D
330
CAC
100
AcDbEntity
  8
D-STR-DIM
370
    -2
100
AcDbLine
 10
4723.128167461589
 20
4865.513101561461
 30
0.0
 11
4723.128167461589
 21
5196.744305770207
 31
0.0
  0
LINE
  5
F8E
330
CAC
100
AcDbEntity
  8
D-STR-DIM
370
    -2
100
AcDbLine
 10
4873.12786746159
 20
5036.566467209309
 30
0.0
 11
4873.12786746159
 21
5196.744305770207
 31
0.0
  0
LINE
  5
F8F
330
CAC
100
AcDbEntity
  8
D-STR-DIM
370
    -2
100
AcDbLine
 10
4743.128167461589
 20
5176.744305770206
 30
0.0
 11
4853.12786746159
 21
5176.744305770206
 31
0.0
  0
INSERT
  5
F90
330
CAC
100
AcDbEntity
  8
D-STR-DIM
370
    -2
100
AcDbBlockReference
  2
_OPEN30
 10
4723.128167461589
 20
5176.744305770206
 30
0.0
 41
20.0
 42
20.0
 43
20.0
 50
180.0
  0
INSERT
  5
F91
330
CAC
100
AcDbEntity
  8
D-STR-DIM
370
    -2
100
AcDbBlockReference
  2
_OPEN30
 10
4873.12786746159
 20
5176.744305770206
 30
0.0
 41
20.0
 42
20.0
 43
20.0
  0
MTEXT
  5
F92
330
CAC
100
AcDbEntity
  8
D-STR-DIM
100
AcDbMText
 10
4798.128017461589
 20
5201.744305770207
 30
0.0
 40
30.0
 41
0.0
 71
     5
 72
     1
  1
\A1;150
 73
     1
 44
1.0
  0
POINT
  5
F93
330
CAC
100
AcDbEntity
  8
DEFPOINTS
 62
     0
100
AcDbPoint
 10
4723.128167461589
 20
4855.51310156146
 30
0.0
  0
POINT
  5
F94
330
CAC
100
AcDbEntity
  8
DEFPOINTS
 62
     0
100
AcDbPoint
 10
4873.12786746159
 20
5026.566467209309
 30
0.0
  0
POINT
  5
F95
330
CAC
100
AcDbEntity
  8
DEFPOINTS
 62
     0
100
AcDbPoint
 10
4873.12786746159
 20
5176.744305770206
 30
0.0
  0
ENDBLK
  5
CB7
330
CAC
100
AcDbEntity
  8
0
100
AcDbBlockEnd
  0
BLOCK
  5
CC4
330
CB8
100
AcDbEntity
  8
0
100
AcDbBlockBegin
  2
*D76
 70
     1
 10
0.0
 20
0.0
 30
0.0
  3
*D76
  1

  0
LINE
  5
F96
330
CB8
100
AcDbEntity
  8
D-STR-DIM
370
    -2
100
AcDbLine
 10
4703.127891061762
 20
5056.566367209309
 30
0.0
 11
4703.127891061762
 21
5196.744305770207
 31
0.0
  0
LINE
  5
F97
330
CB8
100
AcDbEntity
  8
D-STR-DIM
370
    -2
100
AcDbLine
 10
4723.128167461589
 20
4865.513101561461
 30
0.0
 11
4723.128167461589
 21
5196.744305770207
 31
0.0
  0
LINE
  5
F98
330
CB8
100
AcDbEntity
  8
D-STR-DIM
370
    -2
100
AcDbLine
 10
4683.127891061761
 20
5176.744305770206
 30
0.0
 11
4663.127891061762
 21
5176.744305770206
 31
0.0
  0
LINE
  5
F99
330
CB8
100
AcDbEntity
  8
D-STR-DIM
370
    -2
100
AcDbLine
 10
4743.128167461589
 20
5176.744305770206
 30
0.0
 11
4763.128167461589
 21
5176.744305770206
 31
0.0
  0
MTEXT
  5
F9A
330
CB8
100
AcDbEntity
  8
D-STR-DIM
100
AcDbMText
 10
4713.128029261675
 20
5226.744305770207
 30
0.0
 40
30.0
 41
0.0
 71
     5
 72
     1
  1
\A1;20
 73
     1
 44
1.0
  0
LINE
  5
F9B
330
CB8
100
AcDbEntity
  8
D-STR-DIM
370
    -2
100
AcDbLine
 10
4703.127891061762
 20
5176.744305770206
 30
0.0
 11
4723.128167461589
 21
5176.744305770206
 31
0.0
  0
INSERT
  5
F9C
330
CB8
100
AcDbEntity
  8
D-STR-DIM
370
    -2
100
AcDbBlockReference
  2
_OPEN30
 10
4703.127891061762
 20
5176.744305770206
 30
0.0
 41
20.0
 42
20.0
 43
20.0
  0
INSERT
  5
F9D
330
CB8
100
AcDbEntity
  8
D-STR-DIM
370
    -2
100
AcDbBlockReference
  2
_OPEN30
 10
4723.128167461589
 20
5176.744305770206
 30
0.0
 41
20.0
 42
20.0
 43
20.0
 50
180.0
  0
POINT
  5
F9E
330
CB8
100
AcDbEntity
  8
DEFPOINTS
 62
     0
100
AcDbPoint
 10
4703.127891061762
 20
5046.566367209308
 30
0.0
  0
POINT
  5
F9F
330
CB8
100
AcDbEntity
  8
DEFPOINTS
 62
     0
100
AcDbPoint
 10
4723.128167461589
 20
4855.51310156146
 30
0.0
  0
POINT
  5
FA0
330
CB8
100
AcDbEntity
  8
DEFPOINTS
 62
     0
100
AcDbPoint
 10
4723.128167461589
 20
5176.744305770206
 30
0.0
  0
ENDBLK
  5
CC5
330
CB8
100
AcDbEntity
  8
0
100
AcDbBlockEnd
  0
BLOCK
  5
CD0
330
CC6
100
AcDbEntity
  8
0
100
AcDbBlockBegin
  2
*D77
 70
     1
 10
0.0
 20
0.0
 30
0.0
  3
*D77
  1

  0
LINE
  5
FA1
330
CC6
100
AcDbEntity
  8
D-STR-DIM
370
    -2
100
AcDbLine
 10
4883.12789246159
 20
4856.566467209309
 30
0.0
 11
5053.127892461612
 21
4856.566467209309
 31
0.0
  0
LINE
  5
FA2
330
CC6
100
AcDbEntity
  8
D-STR-DIM
370
    -2
100
AcDbLine
 10
4883.127892461613
 20
4706.566467209309
 30
0.0
 11
5053.127892461612
 21
4706.566467209309
 31
0.0
  0
LINE
  5
FA3
330
CC6
100
AcDbEntity
  8
D-STR-DIM
370
    -2
100
AcDbLine
 10
5033.127892461613
 20
4836.566467209308
 30
0.0
 11
5033.127892461613
 21
4726.566467209308
 31
0.0
  0
INSERT
  5
FA4
330
CC6
100
AcDbEntity
  8
D-STR-DIM
370
    -2
100
AcDbBlockReference
  2
_OPEN30
 10
5033.127892461613
 20
4856.566467209309
 30
0.0
 41
20.0
 42
20.0
 43
20.0
 50
90.0
  0
INSERT
  5
FA5
330
CC6
100
AcDbEntity
  8
D-STR-DIM
370
    -2
100
AcDbBlockReference
  2
_OPEN30
 10
5033.127892461613
 20
4706.566467209309
 30
0.0
 41
20.0
 42
20.0
 43
20.0
 50
270.0
  0
MTEXT
  5
FA6
330
CC6
100
AcDbEntity
  8
D-STR-DIM
100
AcDbMText
 10
5008.127892461612
 20
4781.56646720931
 30
0.0
 40
30.0
 41
0.0
 71
     5
 72
     1
  1
\A1;150
 11
0.0000000000000001
 21
1.0
 31
0.0
 73
     1
 44
1.0
  0
POINT
  5
FA7
330
CC6
100
AcDbEntity
  8
DEFPOINTS
 62
     0
100
AcDbPoint
 10
4873.127892461591
 20
4856.566467209309
 30
0.0
  0
POINT
  5
FA8
330
CC6
100
AcDbEntity
  8
DEFPOINTS
 62
     0
100
AcDbPoint
 10
4873.127892461613
 20
4706.566467209309
 30
0.0
  0
POINT
  5
FA9
330
CC6
100
AcDbEntity
  8
DEFPOINTS
 62
     0
100
AcDbPoint
 10
5033.127892461613
 20
4706.566467209309
 30
0.0
  0
ENDBLK
  5
CD1
330
CC6
100
AcDbEntity
  8
0
100
AcDbBlockEnd
  0
BLOCK
  5
CDC
330
CD2
100
AcDbEntity
  8
0
100
AcDbBlockBegin
  2
*D78
 70
     1
 10
0.0
 20
0.0
 30
0.0
  3
*D78
  1

  0
LINE
  5
FAA
330
CD2
100
AcDbEntity
  8
D-STR-DIM
370
    -2
100
AcDbLine
 10
7221.127778855008
 20
5031.566504638057
 30
0.0
 11
7221.127778855008
 21
5321.922381759853
 31
0.0
  0
LINE
  5
FAB
330
CD2
100
AcDbEntity
  8
D-STR-DIM
370
    -2
100
AcDbLine
 10
5223.127838855005
 20
5031.566504638057
 30
0.0
 11
5223.127838855005
 21
5321.922381759853
 31
0.0
  0
LINE
  5
FAC
330
CD2
100
AcDbEntity
  8
D-STR-DIM
370
    -2
100
AcDbLine
 10
7201.127778855007
 20
5301.922381759853
 30
0.0
 11
5243.127838855006
 21
5301.922381759853
 31
0.0
  0
INSERT
  5
FAD
330
CD2
100
AcDbEntity
  8
D-STR-DIM
370
    -2
100
AcDbBlockReference
  2
_OPEN30
 10
7221.127778855008
 20
5301.922381759853
 30
0.0
 41
20.0
 42
20.0
 43
20.0
  0
INSERT
  5
FAE
330
CD2
100
AcDbEntity
  8
D-STR-DIM
370
    -2
100
AcDbBlockReference
  2
_OPEN30
 10
5223.127838855005
 20
5301.922381759853
 30
0.0
 41
20.0
 42
20.0
 43
20.0
 50
180.0
  0
MTEXT
  5
FAF
330
CD2
100
AcDbEntity
  8
D-STR-DIM
100
AcDbMText
 10
6222.127808855006
 20
5326.922381759853
 30
0.0
 40
30.0
 41
0.0
 71
     5
 72
     1
  1
\A1;1998
 73
     1
 44
1.0
  0
POINT
  5
FB0
330
CD2
100
AcDbEntity
  8
DEFPOINTS
 62
     0
100
AcDbPoint
 10
7221.127778855008
 20
5021.566504638056
 30
0.0
  0
POINT
  5
FB1
330
CD2
100
AcDbEntity
  8
DEFPOINTS
 62
     0
100
AcDbPoint
 10
5223.127838855005
 20
5021.566504638056
 30
0.0
  0
POINT
  5
FB2
330
CD2
100
AcDbEntity
  8
DEFPOINTS
 62
     0
100
AcDbPoint
 10
5223.127838855005
 20
5301.922381759853
 30
0.0
  0
ENDBLK
  5
CDD
330
CD2
100
AcDbEntity
  8
0
100
AcDbBlockEnd
  0
ENDSEC
  0
SECTION
  2
ENTITIES
  0
LINE
  5
68E
330
1F
100
AcDbEntity
  8
D-TTL
100
AcDbLine
 10
8580.683636427217
 20
6077.530092335418
 30
0.0
 11
8580.683636427217
 21
137.5300923354177
 31
0.0
  0
LINE
  5
68F
330
1F
100
AcDbEntity
  8
D-TTL
100
AcDbLine
 10
180.6836364272168
 20
6077.530092335418
 30
0.0
 11
180.6836364272168
 21
137.5300923354177
 31
0.0
  0
LINE
  5
690
330
1F
100
AcDbEntity
  8
D-TTL
100
AcDbLine
 10
180.6836364272168
 20
137.5300923354177
 30
0.0
 11
8580.683636427217
 21
137.5300923354177
 31
0.0
  0
DIMENSION
  5
691
330
1F
100
AcDbEntity
  8
D-STR-DIM
 48
10.0
100
AcDbDimension
  2
*D57
 10
1797.690161263985
 20
2884.794865031071
 30
0.0
 11
1707.690328316803
 21
2909.79486503107
 31
0.0
 70
    32
 71
     5
 42
179.9996658943637
  3
STANDARD
100
AcDbAlignedDimension
 13
1617.690495369621
 23
2754.616926470173
 33
0.0
 14
1797.690161263985
 24
2754.616926470173
 34
0.0
100
AcDbRotatedDimension
  0
DIMENSION
  5
692
330
1F
100
AcDbEntity
  8
D-STR-DIM
 48
10.0
100
AcDbDimension
  2
*D58
 10
1967.690162663813
 20
3014.97290359197
 30
0.0
 11
1707.690252663815
 21
3039.97290359197
 31
0.0
 70
    32
 71
     5
 42
519.9998199999972
  3
STANDARD
100
AcDbAlignedDimension
 13
1447.690342663816
 23
2554.616826470172
 33
0.0
 14
1967.690162663813
 24
2564.617026470173
 34
0.0
100
AcDbRotatedDimension
  0
LINE
  5
693
330
1F
100
AcDbEntity
  8
D-STR
100
AcDbLine
 10
1644.840012663837
 20
2729.616926470173
 30
0.0
 11
1770.540562663831
 21
2729.616926470173
 31
0.0
  0
LINE
  5
694
330
1F
100
AcDbEntity
  8
D-STR
100
AcDbLine
 10
1644.840012663837
 20
2733.616926470173
 30
0.0
 11
1770.540562663831
 21
2733.616926470173
 31
0.0
  0
LINE
  5
695
330
1F
100
AcDbEntity
  8
D-STR
100
AcDbLine
 10
1644.840012663837
 20
2748.616926470173
 30
0.0
 11
1770.540562663831
 21
2748.616926470173
 31
0.0
  0
LINE
  5
696
330
1F
100
AcDbEntity
  8
D-STR
100
AcDbLine
 10
1644.840012663837
 20
2754.616926470173
 30
0.0
 11
1770.540562663831
 21
2754.616926470173
 31
0.0
  0
LINE
  5
697
330
1F
100
AcDbEntity
  8
D-STR
100
AcDbLine
 10
1597.979391812754
 20
2557.507121723829
 30
0.0
 11
1816.980062663831
 21
2561.718726470172
 31
0.0
  0
LINE
  5
698
330
1F
100
AcDbEntity
  8
D-STR
100
AcDbLine
 10
1608.690412663832
 20
2664.616826470172
 30
0.0
 11
1803.69006266383
 21
2694.616926470173
 31
0.0
  0
LINE
  5
699
330
1F
100
AcDbEntity
  8
D-STR
100
AcDbLine
 10
1447.690342663834
 20
2424.617026470173
 30
0.0
 11
1967.690162663835
 21
2424.617026470173
 31
0.0
  0
LINE
  5
69A
330
1F
100
AcDbEntity
  8
D-STR
100
AcDbLine
 10
1447.690342663834
 20
2414.617026470173
 30
0.0
 11
1967.690162663835
 21
2414.617026470173
 31
0.0
  0
LINE
  5
69B
330
1F
100
AcDbEntity
  8
D-TTL
100
AcDbLine
 10
180.6836364272168
 20
6077.530092335418
 30
0.0
 11
8580.683636427217
 21
6077.530092335418
 31
0.0
  0
LINE
  5
69C
330
1F
100
AcDbEntity
  8
D-STR-DIM
 48
15.0
100
AcDbLine
 10
1336.314979128954
 20
2277.340081728865
 30
0.0
 11
1366.314979128954
 21
2259.840081728865
 31
0.0
  0
LINE
  5
69D
330
1F
100
AcDbEntity
  8
D-STR-DIM
 48
15.0
100
AcDbLine
 10
1336.314979128954
 20
2277.340081728865
 30
0.0
 11
1366.314979128954
 21
2294.840081728864
 31
0.0
  0
LINE
  5
69E
330
1F
100
AcDbEntity
  8
D-STR-DIM
 48
15.0
100
AcDbLine
 10
1336.314979128954
 20
2277.340081728865
 30
0.0
 11
1396.314979128954
 21
2277.340081728865
 31
0.0
  0
MTEXT
  5
69F
330
1F
100
AcDbEntity
  8
D-STR-DIM
 48
15.0
100
AcDbMText
 10
1416.1387323507
 20
2281.13112813635
 30
0.0
 40
25.0
 41
0.0
 71
     4
 72
     1
  1
歩道側
 73
     1
 44
1.0
  0
DIMENSION
  5
6A0
330
1F
100
AcDbEntity
  8
D-STR-DIM
 48
10.0
100
AcDbDimension
  2
*D59
 10
1617.690495369621
 20
2884.794865031071
 30
0.0
 11
1607.690316516717
 21
2934.79486503107
 31
0.0
 70
    32
 71
     5
 42
20.00035770580871
  3
STANDARD
100
AcDbAlignedDimension
 13
1597.690137663812
 23
2559.777737861853
 33
0.0
 14
1617.690495369621
 24
2754.616926470173
 34
0.0
100
AcDbRotatedDimension
  0
DIMENSION
  5
6A1
330
1F
100
AcDbEntity
  8
D-STR-DIM
 48
10.0
100
AcDbDimension
  2
*D60
 10
1597.690137663812
 20
2884.794865031071
 30
0.0
 11
1522.690240163814
 21
2909.79486503107
 31
0.0
 70
    32
 71
     5
 42
149.999794999996
  3
STANDARD
100
AcDbAlignedDimension
 13
1447.690342663816
 23
2554.616826470172
 33
0.0
 14
1597.690137663812
 24
2559.777737861853
 34
0.0
100
AcDbRotatedDimension
  0
DIMENSION
  5
6A2
330
1F
100
AcDbEntity
  8
D-STR-DIM
  6
Continuous
 48
10.0
100
AcDbDimension
  2
*D61
 10
1352.690342663823
 20
2664.616826470172
 30
0.0
 11
1327.690342663823
 21
2609.616826470173
 31
0.0
 70
    32
 71
     5
 42
110.0
  3
STANDARD
100
AcDbAlignedDimension
 13
1447.690342663816
 23
2554.616826470172
 33
0.0
 14
1608.690412663832
 24
2664.616826470172
 34
0.0
 50
90.0
100
AcDbRotatedDimension
  0
DIMENSION
  5
6A3
330
1F
100
AcDbEntity
  8
D-STR-DIM
 48
10.0
100
AcDbDimension
  2
*D62
 10
1183.271411133519
 20
2414.617026470173
 30
0.0
 11
1158.271411133518
 21
2584.616976470173
 31
0.0
 70
    32
 71
     5
 42
339.9998999999997
  3
STANDARD
100
AcDbAlignedDimension
 13
1617.690495369621
 23
2754.616926470173
 33
0.0
 14
1447.690342663834
 24
2414.617026470173
 34
0.0
 50
90.0
100
AcDbRotatedDimension
  0
DIMENSION
  5
6A4
330
1F
100
AcDbEntity
  8
D-STR-DIM
 48
10.0
100
AcDbDimension
  2
*D63
 10
1287.690342663834
 20
2554.616826470172
 30
0.0
 11
1262.690342663834
 21
2654.616876470173
 31
0.0
 70
    32
 71
     5
 42
200.0001000000001
  3
STANDARD
100
AcDbAlignedDimension
 13
1617.690495369621
 23
2754.616926470173
 33
0.0
 14
1447.690342663816
 24
2554.616826470172
 34
0.0
 50
90.0
100
AcDbRotatedDimension
  0
ARC
  5
6A5
330
1F
100
AcDbEntity
  8
D-STR
100
AcDbCircle
 10
1593.445860618652
 20
2562.42086335334
 30
0.0
 40
5.0
100
AcDbArc
 50
271.1017538988296
 51
354.2893801816391
  0
ARC
  5
6A6
330
1F
100
AcDbEntity
  8
D-STR
100
AcDbCircle
 10
1593.445860618652
 20
2562.42086335334
 30
0.0
 40
11.0
100
AcDbArc
 50
271.1017538988296
 51
354.2893801816391
  0
LINE
  5
6A7
330
1F
100
AcDbEntity
  8
D-STR
100
AcDbLine
 10
1639.864921260683
 20
2725.114421910699
 30
0.0
 11
1621.442134093966
 21
2540.887416710406
 31
0.0
  0
LINE
  5
6A8
330
1F
100
AcDbEntity
  8
D-STR
100
AcDbLine
 10
1635.884772685189
 20
2725.512438640214
 30
0.0
 11
1617.461985518464
 21
2541.285433439921
 31
0.0
  0
DIMENSION
  5
6A9
330
1F
100
AcDbEntity
  8
D-STR-DIM
 48
10.0
100
AcDbDimension
  2
*D64
 10
1287.690342663834
 20
2414.617026470173
 30
0.0
 11
1262.690342663834
 21
2484.616926470173
 31
0.0
 70
    32
 71
     5
 42
139.9997999999996
  3
STANDARD
100
AcDbAlignedDimension
 13
1447.690342663816
 23
2554.616826470172
 33
0.0
 14
1447.690342663834
 24
2414.617026470173
 34
0.0
 50
90.0
100
AcDbRotatedDimension
  0
ARC
  5
6AA
330
1F
100
AcDbEntity
  8
D-STR
100
AcDbCircle
 10
1612.486799799095
 20
2541.782954351816
 30
0.0
 40
5.0
100
AcDbArc
 50
271.1016508086995
 51
354.2893801816391
  0
ARC
  5
6AB
330
1F
100
AcDbEntity
  8
D-STR
100
AcDbCircle
 10
1612.486799799095
 20
2541.782954351816
 30
0.0
 40
9.0
100
AcDbArc
 50
271.1016508086995
 51
354.2893801816391
  0
LINE
  5
6AC
330
1F
100
AcDbEntity
  8
D-STR
 48
15.0
100
AcDbLine
 10
1463.690442663832
 20
2507.116926470173
 30
0.0
 11
1447.690342663834
 21
2512.116926470173
 31
0.0
  0
LINE
  5
6AD
330
1F
100
AcDbEntity
  8
D-STR
100
AcDbLine
 10
1463.690442663832
 20
2507.116926470173
 30
0.0
 11
1463.690442663832
 21
2467.116926470173
 31
0.0
  0
LINE
  5
6AE
330
1F
100
AcDbEntity
  8
D-STR
100
AcDbLine
 10
1447.690342663834
 20
2550.116826470173
 30
0.0
 11
1452.189510721807
 21
2554.703352686435
 31
0.0
  0
LINE
  5
6AF
330
1F
100
AcDbEntity
  8
D-STR
100
AcDbLine
 10
1452.189510721807
 20
2554.703352686435
 30
0.0
 11
1593.542000858942
 21
2557.421787733368
 31
0.0
  0
LINE
  5
6B0
330
1F
100
AcDbEntity
  8
D-STR
100
AcDbLine
 10
1447.690342663834
 20
2529.612126470173
 30
0.0
 11
1612.659836041268
 21
2532.784617924515
 31
0.0
  0
LINE
  5
6B1
330
1F
100
AcDbEntity
  8
D-STR
100
AcDbLine
 10
1447.690342663834
 20
2533.613026470172
 30
0.0
 11
1612.582931044744
 21
2536.783878558871
 31
0.0
  0
LINE
  5
6B2
330
1F
100
AcDbEntity
  8
D-STR
100
AcDbLine
 10
1447.690342663834
 20
2548.615626470173
 30
0.0
 11
1593.657369147295
 21
2551.422896989402
 31
0.0
  0
LINE
  5
6B3
330
1F
100
AcDbEntity
  8
D-STR
100
AcDbLine
 10
1447.690342663834
 20
2550.116826470173
 30
0.0
 11
1447.690342663834
 21
2414.617026470173
 31
0.0
  0
LINE
  5
6B4
330
1F
100
AcDbEntity
  8
D-STR
 48
15.0
100
AcDbLine
 10
1463.690442663832
 20
2467.116926470173
 30
0.0
 11
1447.690342663834
 21
2457.116826470173
 31
0.0
  0
ARC
  5
6B5
330
1F
100
AcDbEntity
  8
D-STR
100
AcDbCircle
 10
1644.840012663837
 20
2724.616926470173
 30
0.0
 40
30.000001
100
AcDbArc
 50
90.0
 51
174.2893799999884
  0
ARC
  5
6B6
330
1F
100
AcDbEntity
  8
D-STR
100
AcDbCircle
 10
1644.840012663837
 20
2724.616926470173
 30
0.0
 40
5.000001000000001
100
AcDbArc
 50
90.0
 51
174.2893799999884
  0
ARC
  5
6B7
330
1F
100
AcDbEntity
  8
D-STR
100
AcDbCircle
 10
1644.840012663837
 20
2724.616926470173
 30
0.0
 40
9.000001000000001
100
AcDbArc
 50
90.0
 51
174.2893799999884
  0
ARC
  5
6B8
330
1F
100
AcDbEntity
  8
D-STR
100
AcDbCircle
 10
1644.840012663837
 20
2724.616926470173
 30
0.0
 40
24.000001
100
AcDbArc
 50
90.0
 51
174.2893799999884
  0
LINE
  5
6B9
330
1F
100
AcDbEntity
  8
D-STR
100
AcDbLine
 10
1620.95921552708
 20
2727.005001375899
 30
0.0
 11
1604.391269201267
 21
2561.326317347171
 31
0.0
  0
LINE
  5
6BA
330
1F
100
AcDbEntity
  8
D-STR
100
AcDbLine
 10
1614.988992663835
 20
2727.602026470172
 30
0.0
 11
1598.421046338022
 21
2561.923342441445
 31
0.0
  0
LINE
  5
6BB
330
1F
100
AcDbEntity
  8
D-STR-DIM
100
AcDbLine
 10
2500.86296846364
 20
4442.494217457696
 30
0.0
 11
2500.86296846364
 21
3782.494217457696
 31
0.0
  0
LINE
  5
6BC
330
1F
100
AcDbEntity
  8
D-STR-DIM
100
AcDbLine
 10
2400.86296846364
 20
4442.494217457696
 30
0.0
 11
2400.86296846364
 21
3782.494217457696
 31
0.0
  0
LINE
  5
6BD
330
1F
100
AcDbEntity
  8
D-STR-DIM
100
AcDbLine
 10
2100.86296846364
 20
4442.494217457696
 30
0.0
 11
2100.86296846364
 21
3782.494217457696
 31
0.0
  0
LINE
  5
6BE
330
1F
100
AcDbEntity
  8
D-STR-DIM
100
AcDbLine
 10
3100.86296846364
 20
4442.494217457696
 30
0.0
 11
3100.86296846364
 21
3782.494217457697
 31
0.0
  0
LINE
  5
6BF
330
1F
100
AcDbEntity
  8
D-STR-DIM
100
AcDbLine
 10
2800.86296846364
 20
4442.494217457696
 30
0.0
 11
2800.86296846364
 21
3782.494217457696
 31
0.0
  0
LINE
  5
6C0
330
1F
100
AcDbEntity
  8
D-STR-DIM
100
AcDbLine
 10
1800.86296846364
 20
4442.494217457696
 30
0.0
 11
1800.86296846364
 21
3782.494217457696
 31
0.0
  0
DIMENSION
  5
6C1
330
1F
100
AcDbEntity
  8
D-STR-DIM
 48
10.0
100
AcDbDimension
  2
*D65
 10
6615.838675960943
 20
3009.971735694298
 30
0.0
 11
7114.838705495756
 21
3034.971735694298
 31
0.0
 70
    32
 71
     5
 42
998.000059069629
  3
STANDARD
100
AcDbAlignedDimension
 13
7613.83873503057
 23
2559.615201130496
 33
0.0
 14
6615.838675960943
 24
2729.6158585725
 34
0.0
100
AcDbRotatedDimension
  0
LINE
  5
6C2
330
1F
100
AcDbEntity
  8
D-STR
100
AcDbLine
 10
6620.338615960936
 20
2564.615571130585
 30
0.0
 11
7604.67216361453
 21
2564.615342215759
 31
0.0
  0
LINE
  5
6C3
330
1F
100
AcDbEntity
  8
D-STR
100
AcDbLine
 10
6625.838715960941
 20
2414.615798572502
 30
0.0
 11
7603.838615960835
 21
2414.615343688701
 31
0.0
  0
LINE
  5
6C4
330
1F
100
AcDbEntity
  8
D-STR
 48
15.0
100
AcDbLine
 10
6620.338615960936
 20
2560.115511130601
 30
0.0
 11
7609.33878363535
 21
2560.115511130601
 31
0.0
  0
LINE
  5
6C5
330
1F
100
AcDbEntity
  8
D-STR
100
AcDbLine
 10
7009.838674100523
 20
2754.615719967856
 30
0.0
 11
7609.338795030577
 21
2584.615241130497
 31
0.0
  0
DIMENSION
  5
6C6
330
1F
100
AcDbEntity
  8
D-STR-DIM
 48
10.0
100
AcDbDimension
  2
*D66
 10
7654.492844469423
 20
1289.070090078741
 30
0.0
 11
7155.492833539189
 21
1314.070090078741
 31
0.0
 70
    32
 71
     5
 42
998.0000218604692
  3
STANDARD
100
AcDbAlignedDimension
 13
6656.492822608955
 23
1003.714075049916
 33
0.0
 14
7654.492844469423
 24
1003.714075049916
 34
0.0
100
AcDbRotatedDimension
  0
LINE
  5
6C7
330
1F
100
AcDbEntity
  8
D-STR
100
AcDbLine
 10
7649.992783539194
 20
1008.714212956945
 30
0.0
 11
6660.992883539191
 21
1008.714212956945
 31
0.0
  0
LINE
  5
6C8
330
1F
100
AcDbEntity
  8
D-STR
100
AcDbLine
 10
7644.49268353919
 20
858.7142129569445
 30
0.0
 11
6666.492983539189
 21
858.7142129569445
 31
0.0
  0
LINE
  5
6C9
330
1F
100
AcDbEntity
  8
D-STR
100
AcDbLine
 10
6660.992883539191
 20
1028.714112956944
 30
0.0
 11
7649.992783539194
 21
1028.714112956944
 31
0.0
  0
LINE
  5
6CA
330
1F
100
AcDbEntity
  8
D-STR
 48
15.0
100
AcDbLine
 10
6660.992883539191
 20
1004.214212956944
 30
0.0
 11
7649.992783539186
 21
1004.214212956945
 31
0.0
  0
DIMENSION
  5
6CB
330
1F
100
AcDbEntity
  8
D-STR-DIM
 48
10.0
100
AcDbDimension
  2
*D67
 10
4515.794085676484
 20
1460.07167752064
 30
0.0
 11
4016.794056141665
 21
1485.07167752064
 31
0.0
 70
    32
 71
     5
 42
998.0000590696363
  3
STANDARD
100
AcDbAlignedDimension
 13
3517.794026606847
 23
1003.713842956838
 33
0.0
 14
4515.794085676484
 24
1179.715800398843
 34
0.0
100
AcDbRotatedDimension
  0
DIMENSION
  5
6CC
330
1F
100
AcDbEntity
  8
D-STR-DIM
 48
10.0
100
AcDbDimension
  2
*D68
 10
3247.794258467322
 20
1008.714212956983
 30
0.0
 11
3247.794258467322
 21
1018.714162509813
 31
0.0
 70
   160
 71
     5
 42
19.99989910566
  3
STANDARD
100
AcDbAlignedDimension
 13
3015.794458467324
 23
1028.714112062643
 33
0.0
 14
3167.794258467322
 24
1008.714212956983
 34
0.0
 50
90.0
100
AcDbRotatedDimension
1001
ACAD
1000
DSTYLE
1002
{
1070
   279
1070
     1
1002
}
  0
DIMENSION
  5
6CD
330
1F
100
AcDbEntity
  8
D-STR-DIM
 48
10.0
100
AcDbDimension
  2
*D69
 10
3352.213189997637
 20
858.714212956983
 30
0.0
 11
3327.213189997637
 21
943.7141625098135
 31
0.0
 70
    32
 71
     5
 42
169.99989910566
  3
STANDARD
100
AcDbAlignedDimension
 13
3015.794458467324
 23
1028.714112062643
 33
0.0
 14
3167.794258467322
 24
858.7142129569832
 34
0.0
 50
90.0
100
AcDbRotatedDimension
  0
DIMENSION
  5
6CE
330
1F
100
AcDbEntity
  8
D-STR-DIM
 48
10.0
100
AcDbDimension
  2
*D70
 10
3167.794258467322
 20
1289.07009007878
 30
0.0
 11
2907.794408467322
 21
1314.07009007878
 31
0.0
 70
    32
 71
     5
 42
519.9997000000003
  3
STANDARD
100
AcDbAlignedDimension
 13
2647.794558467321
 23
998.7140129569826
 33
0.0
 14
3167.794258467322
 24
1008.714212956983
 34
0.0
100
AcDbRotatedDimension
  0
DIMENSION
  5
6CF
330
1F
100
AcDbEntity
  8
D-STR-DIM
 48
10.0
100
AcDbDimension
  2
*D71
 10
3167.794258467322
 20
1158.892051517881
 30
0.0
 11
3092.794408467321
 21
1183.892051517881
 31
0.0
 70
    32
 71
     5
 42
149.9997000000003
  3
STANDARD
100
AcDbAlignedDimension
 13
3017.794558467322
 23
1008.714212956983
 33
0.0
 14
3167.794258467322
 24
1008.714212956983
 34
0.0
100
AcDbRotatedDimension
  0
MTEXT
  5
6D0
330
1F
100
AcDbEntity
  8
D-STR-DIM
 48
15.0
100
AcDbMText
 10
3119.090937351517
 20
725.2283146231604
 30
0.0
 40
25.0
 41
0.0
 71
     4
 72
     1
  1
車道側
 73
     1
 44
1.0
  0
LINE
  5
6D1
330
1F
100
AcDbEntity
  8
D-STR
100
AcDbLine
 10
3002.860315103797
 20
984.5383362420331
 30
0.0
 11
3167.794258467322
 21
987.710112956983
 31
0.0
  0
LINE
  5
6D2
330
1F
100
AcDbEntity
  8
D-STR
100
AcDbLine
 10
3002.908948526208
 20
980.5385763651477
 30
0.0
 11
3167.794258467322
 21
983.7095129569828
 31
0.0
  0
LINE
  5
6D3
330
1F
100
AcDbEntity
  8
D-STR
100
AcDbLine
 10
3020.821781009632
 20
999.8866778882186
 30
0.0
 11
3167.794258467322
 21
1002.712912956982
 31
0.0
  0
LINE
  5
6D4
330
1F
100
AcDbEntity
  8
D-STR
100
AcDbLine
 10
3020.70641642344
 20
1005.885568703382
 30
0.0
 11
3163.295090355946
 21
1008.627689517334
 31
0.0
  0
LINE
  5
6D5
330
1F
100
AcDbEntity
  8
D-STR
100
AcDbLine
 10
2647.794558467321
 20
868.7142129569831
 30
0.0
 11
3167.794258467322
 21
868.7142129569831
 31
0.0
  0
LINE
  5
6D6
330
1F
100
AcDbEntity
  8
D-STR
100
AcDbLine
 10
2647.794558467321
 20
858.7142129569832
 30
0.0
 11
3167.794258467322
 21
858.7142129569832
 31
0.0
  0
DIMENSION
  5
6D7
330
1F
100
AcDbEntity
  8
D-STR-DIM
 48
10.0
100
AcDbDimension
  2
*D2
 10
3017.794558467322
 20
1158.892051517881
 30
0.0
 11
3016.85843160062
 21
1208.892051517881
 31
0.0
 70
    32
 71
     5
 42
1.87225373340334
  3
STANDARD
100
AcDbAlignedDimension
 13
3015.922304733918
 23
1009.145996986376
 33
0.0
 14
3017.794558467322
 24
1008.714212956983
 34
0.0
100
AcDbRotatedDimension
  0
DIMENSION
  5
6D8
330
1F
100
AcDbEntity
  8
D-STR-DIM
 48
10.0
100
AcDbDimension
  2
*D3
 10
3015.922304733918
 20
1158.892051517881
 30
0.0
 11
2907.858331600622
 21
1183.892051517881
 31
0.0
 70
    32
 71
     5
 42
216.1279462665916
  3
STANDARD
100
AcDbAlignedDimension
 13
2799.794358467326
 23
1008.714212956983
 33
0.0
 14
3015.922304733918
 24
1009.145996986376
 34
0.0
100
AcDbRotatedDimension
  0
DIMENSION
  5
6D9
330
1F
100
AcDbEntity
  8
D-STR-DIM
 48
10.0
100
AcDbDimension
  2
*D4
 10
2799.794358467326
 20
1158.892051517881
 30
0.0
 11
2798.794308467324
 21
1208.892051517881
 31
0.0
 70
    32
 71
     5
 42
2.000100000004749
  3
STANDARD
100
AcDbAlignedDimension
 13
2797.794258467321
 23
1008.714212956983
 33
0.0
 14
2799.794358467326
 24
1008.714212956983
 34
0.0
100
AcDbRotatedDimension
  0
DIMENSION
  5
6DA
330
1F
100
AcDbEntity
  8
D-STR-DIM
 48
10.0
100
AcDbDimension
  2
*D5
 10
2797.794258467321
 20
1158.892051517881
 30
0.0
 11
2722.794408467322
 21
1183.892051517881
 31
0.0
 70
    32
 71
     5
 42
149.9997000000003
  3
STANDARD
100
AcDbAlignedDimension
 13
2647.794558467321
 23
998.7140129569826
 33
0.0
 14
2797.794258467321
 24
1008.714212956983
 34
0.0
100
AcDbRotatedDimension
  0
DIMENSION
  5
6DB
330
1F
100
AcDbEntity
  8
D-STR-DIM
 48
10.0
100
AcDbDimension
  2
*D6
 10
2463.375626937006
 20
858.7142129569832
 30
0.0
 11
2438.375626937006
 21
943.7141625098137
 31
0.0
 70
    32
 71
     5
 42
169.9998991056601
  3
STANDARD
100
AcDbAlignedDimension
 13
2799.794358467319
 23
1028.714112062643
 33
0.0
 14
2647.794558467321
 24
858.7142129569832
 34
0.0
 50
90.0
100
AcDbRotatedDimension
  0
DIMENSION
  5
6DC
330
1F
100
AcDbEntity
  8
D-STR-DIM
 48
10.0
100
AcDbDimension
  2
*D7
 10
2567.794558467321
 20
858.7142129569832
 30
0.0
 11
2542.794558467321
 21
928.7141129569834
 31
0.0
 70
    32
 71
     5
 42
139.9997999999996
  3
STANDARD
100
AcDbAlignedDimension
 13
2647.794558467321
 23
998.7140129569826
 33
0.0
 14
2647.794558467321
 24
858.7142129569832
 34
0.0
 50
90.0
100
AcDbRotatedDimension
  0
LINE
  5
6DD
330
1F
100
AcDbEntity
  8
D-STR
100
AcDbLine
 10
2647.794558467321
 20
994.2140129569818
 30
0.0
 11
2647.794558467321
 21
858.7142129569832
 31
0.0
  0
LINE
  5
6DE
330
1F
100
AcDbEntity
  8
D-STR-DIM
 48
15.0
100
AcDbLine
 10
2536.419134932439
 20
721.4372682156747
 30
0.0
 11
2566.419134932439
 21
703.9372682156747
 31
0.0
  0
LINE
  5
6DF
330
1F
100
AcDbEntity
  8
D-STR-DIM
 48
15.0
100
AcDbLine
 10
2536.419134932439
 20
721.4372682156747
 30
0.0
 11
2566.419134932439
 21
738.9372682156747
 31
0.0
  0
LINE
  5
6E0
330
1F
100
AcDbEntity
  8
D-STR-DIM
 48
15.0
100
AcDbLine
 10
2536.419134932439
 20
721.4372682156747
 30
0.0
 11
2596.419134932439
 21
721.4372682156747
 31
0.0
  0
MTEXT
  5
6E1
330
1F
100
AcDbEntity
  8
D-STR-DIM
 48
15.0
100
AcDbMText
 10
2616.242888154185
 20
725.2283146231604
 30
0.0
 40
25.0
 41
0.0
 71
     4
 72
     1
  1
歩道側
 73
     1
 44
1.0
  0
DIMENSION
  5
6E2
330
1F
100
AcDbEntity
  8
D-STR-DIM
 48
10.0
100
AcDbDimension
  2
*D8
 10
2567.794558467321
 20
998.7140129569826
 30
0.0
 11
2567.794558467321
 21
1013.714062509813
 31
0.0
 70
   160
 71
     5
 42
30.00009910566052
  3
STANDARD
100
AcDbAlignedDimension
 13
2799.794358467319
 23
1028.714112062643
 33
0.0
 14
2647.794558467321
 24
998.7140129569826
 34
0.0
 50
90.0
100
AcDbRotatedDimension
1001
ACAD
1000
DSTYLE
1002
{
1070
   279
1070
     1
1002
}
  0
LINE
  5
6E3
330
1F
100
AcDbEntity
  8
D-STR
100
AcDbLine
 10
2647.794558467321
 20
973.7093129569823
 30
0.0
 11
2812.631709880784
 21
976.8793887431559
 31
0.0
  0
LINE
  5
6E4
330
1F
100
AcDbEntity
  8
D-STR
100
AcDbLine
 10
2647.794558467321
 20
977.7102129569833
 30
0.0
 11
2812.554801748309
 21
980.8786493172071
 31
0.0
  0
LINE
  5
6E5
330
1F
100
AcDbEntity
  8
D-STR
100
AcDbLine
 10
2647.794558467321
 20
992.712812956983
 30
0.0
 11
2793.887558986563
 21
995.5225900466009
 31
0.0
  0
LINE
  5
6E6
330
1F
100
AcDbEntity
  8
D-STR
100
AcDbLine
 10
2652.293726475589
 20
998.8005417577863
 30
0.0
 11
2793.772187252157
 21
1001.521480724293
 31
0.0
  0
LINE
  5
6E7
330
1F
100
AcDbEntity
  8
D-STR
100
AcDbLine
 10
2663.794658467319
 20
951.214112956983
 30
0.0
 11
2663.794658467319
 21
911.2141129569829
 31
0.0
  0
LINE
  5
6E8
330
1F
100
AcDbEntity
  8
D-STR
 48
15.0
100
AcDbLine
 10
2663.794658467319
 20
951.214112956983
 30
0.0
 11
2647.794558467321
 21
956.2141129569829
 31
0.0
  0
LINE
  5
6E9
330
1F
100
AcDbEntity
  8
D-STR
100
AcDbLine
 10
2652.293726475589
 20
998.8005417577863
 30
0.0
 11
2647.794558467321
 21
994.2140129569818
 31
0.0
  0
LINE
  5
6EA
330
1F
100
AcDbEntity
  8
D-STR
 48
15.0
100
AcDbLine
 10
2663.794658467319
 20
911.2141129569829
 30
0.0
 11
2647.794558467321
 21
901.2140129569827
 31
0.0
  0
ARC
  5
6EB
330
1F
100
AcDbEntity
  8
D-STR
100
AcDbCircle
 10
2987.794458467171
 20
998.7141129565845
 30
0.0
 40
23.99999900039447
100
AcDbArc
 50
20.34850265496767
 51
89.99999999958312
  0
ARC
  5
6EC
330
1F
100
AcDbEntity
  8
D-STR
100
AcDbCircle
 10
2987.794458467324
 20
998.7141129569829
 30
0.0
 40
29.999999
100
AcDbArc
 50
20.34850265421081
 51
90.0
  0
ARC
  5
6ED
330
1F
100
AcDbEntity
  8
D-STR
100
AcDbCircle
 10
2827.794358467436
 20
998.7141129567023
 30
0.0
 40
23.99999900028081
100
AcDbArc
 50
90.00000000020843
 51
167.1122770233986
  0
ARC
  5
6EE
330
1F
100
AcDbEntity
  8
D-STR
100
AcDbCircle
 10
2827.794358467326
 20
998.7141129569829
 30
0.0
 40
29.999999
100
AcDbArc
 50
90.0
 51
167.1122770239564
  0
ARC
  5
6EF
330
1F
100
AcDbEntity
  8
D-STR
100
AcDbCircle
 10
2987.794458467324
 20
998.7141129569829
 30
0.0
 40
4.999998999999998
100
AcDbArc
 50
2.127550000004042
 51
90.0
  0
LINE
  5
6F0
330
1F
100
AcDbEntity
  8
D-STR
100
AcDbLine
 10
2827.794358467326
 20
1003.714112956983
 30
0.0
 11
2987.794458467324
 21
1003.714112956983
 31
0.0
  0
ARC
  5
6F1
330
1F
100
AcDbEntity
  8
D-STR
100
AcDbCircle
 10
2827.794358467326
 20
998.7141129569829
 30
0.0
 40
4.999998999999998
100
AcDbArc
 50
90.0
 51
177.8724517999981
  0
ARC
  5
6F2
330
1F
100
AcDbEntity
  8
D-STR
100
AcDbCircle
 10
2827.794358467326
 20
998.7141129569829
 30
0.0
 40
8.999998999999998
100
AcDbArc
 50
90.0
 51
177.8724517999981
  0
ARC
  5
6F3
330
1F
100
AcDbEntity
  8
D-STR
100
AcDbCircle
 10
2987.794458467324
 20
998.7141129569829
 30
0.0
 40
8.999998999999998
100
AcDbArc
 50
2.127550000004042
 51
90.0
  0
LINE
  5
6F4
330
1F
100
AcDbEntity
  8
D-STR
100
AcDbLine
 10
2827.794358467326
 20
1007.714112956983
 30
0.0
 11
2987.794458467324
 21
1007.714112956983
 31
0.0
  0
LINE
  5
6F5
330
1F
100
AcDbEntity
  8
D-STR
100
AcDbLine
 10
2827.794358467326
 20
1022.714112956983
 30
0.0
 11
2987.794458467324
 21
1022.714112956983
 31
0.0
  0
LINE
  5
6F6
330
1F
100
AcDbEntity
  8
D-STR
100
AcDbLine
 10
2827.794358467326
 20
1028.714112956983
 30
0.0
 11
2987.794458467324
 21
1028.714112956983
 31
0.0
  0
LINE
  5
6F7
330
1F
100
AcDbEntity
  8
D-STR
100
AcDbLine
 10
2996.788158086623
 20
999.048205298139
 30
0.0
 11
2997.788994218834
 21
989.0398910477026
 31
0.0
  0
LINE
  5
6F8
330
1F
100
AcDbEntity
  8
D-STR
100
AcDbLine
 10
2992.808009511129
 20
998.6501885686232
 30
0.0
 11
2993.808845643339
 21
988.6418743181868
 31
0.0
  0
LINE
  5
6F9
330
1F
100
AcDbEntity
  8
D-STR
100
AcDbLine
 10
2822.780807423514
 20
998.6501885686232
 30
0.0
 11
2821.414000877579
 21
984.9821873933594
 31
0.0
  0
LINE
  5
6FA
330
1F
100
AcDbEntity
  8
D-STR
100
AcDbLine
 10
2818.800658848028
 20
999.048205298139
 30
0.0
 11
2817.433852302085
 21
985.3802041228766
 31
0.0
  0
ARC
  5
6FB
330
1F
100
AcDbEntity
  8
D-STR
100
AcDbCircle
 10
3002.764179938203
 20
989.5374119595969
 30
0.0
 40
5.0
100
AcDbArc
 50
185.7106198183591
 51
271.1016957362119
  0
ARC
  5
6FC
330
1F
100
AcDbEntity
  8
D-STR
100
AcDbCircle
 10
3002.764179938203
 20
989.5374119595969
 30
0.0
 40
9.0
100
AcDbArc
 50
185.7106198183591
 51
271.1016957362119
  0
ARC
  5
6FD
330
1F
100
AcDbEntity
  8
D-STR
100
AcDbCircle
 10
2812.458666582715
 20
985.877725034771
 30
0.0
 40
5.0
100
AcDbArc
 50
271.1016957362119
 51
354.2893801816391
  0
ARC
  5
6FE
330
1F
100
AcDbEntity
  8
D-STR
100
AcDbCircle
 10
2793.676044140149
 20
1006.520556289036
 30
0.0
 40
5.0
100
AcDbArc
 50
271.1017868123025
 51
347.1122770239564
  0
ARC
  5
6FF
330
1F
100
AcDbEntity
  8
D-STR
100
AcDbCircle
 10
2812.458666582715
 20
985.877725034771
 30
0.0
 40
9.0
100
AcDbArc
 50
271.1016957362119
 51
354.2893801816391
  0
ARC
  5
700
330
1F
100
AcDbEntity
  8
D-STR
100
AcDbCircle
 10
2793.676044140149
 20
1006.520556289036
 30
0.0
 40
11.0
100
AcDbArc
 50
271.1017868123025
 51
347.1122770239564
  0
ARC
  5
701
330
1F
100
AcDbEntity
  8
D-STR
100
AcDbCircle
 10
3020.610279268272
 20
1010.884644382684
 30
0.0
 40
5.0
100
AcDbArc
 50
200.3485026542108
 51
271.1017185392685
  0
ARC
  5
702
330
1F
100
AcDbEntity
  8
D-STR
100
AcDbCircle
 10
3020.610279268272
 20
1010.884644382684
 30
0.0
 40
11.0
100
AcDbArc
 50
200.3485026542108
 51
271.1017185392685
  0
LINE
  5
703
330
1F
100
AcDbEntity
  8
D-STR
100
AcDbLine
 10
4121.794087536895
 20
1198.714361794198
 30
0.0
 11
3522.293966606849
 21
1028.713882956839
 31
0.0
  0
LINE
  5
704
330
1F
100
AcDbEntity
  8
D-STR
100
AcDbLine
 10
4515.794145676482
 20
868.7144403988442
 30
0.0
 11
4515.794085676484
 21
1173.714500398842
 31
0.0
  0
LINE
  5
705
330
1F
100
AcDbEntity
  8
D-STR
100
AcDbLine
 10
4511.294145676482
 20
1002.714340398844
 30
0.0
 11
4511.294145676482
 21
1175.60921621598
 31
0.0
  0
LINE
  5
706
330
1F
100
AcDbEntity
  8
D-STR
100
AcDbLine
 10
4511.294145676482
 20
1008.714212956927
 30
0.0
 11
3526.960598022888
 21
1008.713984042102
 31
0.0
  0
LINE
  5
707
330
1F
100
AcDbEntity
  8
D-STR
100
AcDbLine
 10
4505.794045676477
 20
858.7144403988443
 30
0.0
 11
3527.794145676583
 21
858.7139855150446
 31
0.0
  0
LINE
  5
708
330
1F
100
AcDbEntity
  8
D-STR
 48
15.0
100
AcDbLine
 10
3522.293978002039
 20
1004.214212956983
 30
0.0
 11
4511.294145676475
 21
1004.214212956983
 31
0.0
  0
DIMENSION
  5
709
330
1F
100
AcDbEntity
  8
D-STR-DIM
 48
10.0
100
AcDbDimension
  2
*D9
 10
3247.794258467322
 20
858.7142129569832
 30
0.0
 11
3222.794258467322
 21
933.7142129569835
 31
0.0
 70
    32
 71
     5
 42
150.0
  3
STANDARD
100
AcDbAlignedDimension
 13
3167.794258467322
 23
1008.714212956983
 33
0.0
 14
3167.794258467322
 24
858.7142129569832
 34
0.0
 50
90.0
100
AcDbRotatedDimension
  0
LINE
  5
70A
330
1F
100
AcDbEntity
  8
D-STR
100
AcDbLine
 10
3517.79414102542
 20
868.7139808638788
 30
0.0
 11
3527.794145676583
 21
858.7139855150446
 31
0.0
  0
LINE
  5
70B
330
1F
100
AcDbEntity
  8
D-STR
100
AcDbLine
 10
3167.794258467322
 20
1004.214212956983
 30
0.0
 11
3167.794258467322
 21
858.7142129569832
 31
0.0
  0
LINE
  5
70C
330
1F
100
AcDbEntity
  8
D-STR-DIM
 48
15.0
100
AcDbLine
 10
3279.169632002202
 20
721.4372682156747
 30
0.0
 11
3249.169632002202
 21
703.9372682156747
 31
0.0
  0
LINE
  5
70D
330
1F
100
AcDbEntity
  8
D-STR-DIM
 48
15.0
100
AcDbLine
 10
3279.169632002202
 20
721.4372682156747
 30
0.0
 11
3249.169632002202
 21
738.9372682156747
 31
0.0
  0
LINE
  5
70E
330
1F
100
AcDbEntity
  8
D-STR-DIM
 48
15.0
100
AcDbLine
 10
3279.169632002202
 20
721.4372682156747
 30
0.0
 11
3219.169632002202
 21
721.4372682156747
 31
0.0
  0
LINE
  5
70F
330
1F
100
AcDbEntity
  8
D-STR
100
AcDbLine
 10
3151.794158467324
 20
951.214112956983
 30
0.0
 11
3151.794158467324
 21
911.2141129569829
 31
0.0
  0
LINE
  5
710
330
1F
100
AcDbEntity
  8
D-STR
 48
15.0
100
AcDbLine
 10
3151.794158467324
 20
951.214112956983
 30
0.0
 11
3167.794258467322
 21
956.2141129569829
 31
0.0
  0
LINE
  5
711
330
1F
100
AcDbEntity
  8
D-STR
100
AcDbLine
 10
3163.295090355946
 20
1008.627689517334
 30
0.0
 11
3167.794258467322
 21
1004.214212956983
 31
0.0
  0
LINE
  5
712
330
1F
100
AcDbEntity
  8
D-STR
 48
15.0
100
AcDbLine
 10
3151.794158467324
 20
911.2141129569829
 30
0.0
 11
3167.794258467322
 21
901.2140129569827
 31
0.0
  0
LINE
  5
713
330
1F
100
AcDbEntity
  8
D-STR
100
AcDbLine
 10
3592.794102653359
 20
951.2139157476006
 30
0.0
 11
3595.794000327776
 21
956.2139171429027
 31
0.0
  0
CIRCLE
  5
714
330
1F
100
AcDbEntity
  8
D-STR
100
AcDbCircle
 10
3567.794213118482
 20
928.713904119739
 30
0.0
 40
5.9999999
  0
LINE
  5
715
330
1F
100
AcDbEntity
  8
D-STR
100
AcDbLine
 10
3517.794102653367
 20
951.2138808638704
 30
0.0
 11
3592.794102653359
 21
951.2139157476006
 31
0.0
  0
LINE
  5
716
330
1F
100
AcDbEntity
  8
D-STR
100
AcDbLine
 10
3517.794121258019
 20
911.2138808638739
 30
0.0
 11
3592.794121258011
 21
911.213915747605
 31
0.0
  0
LINE
  5
717
330
1F
100
AcDbEntity
  8
D-STR
100
AcDbLine
 10
3592.794121258011
 20
911.213915747605
 30
0.0
 11
3592.794102653359
 21
951.2139157476006
 31
0.0
  0
LINE
  5
718
330
1F
100
AcDbEntity
  8
D-STR
100
AcDbLine
 10
3517.794100327781
 20
956.2138808638694
 30
0.0
 11
3595.794000327776
 21
956.2139171429027
 31
0.0
  0
LINE
  5
719
330
1F
100
AcDbEntity
  8
D-STR
100
AcDbLine
 10
3517.794026606847
 20
1003.713842956838
 30
0.0
 11
3527.293981606846
 21
1007.713832956839
 31
0.0
  0
LINE
  5
71A
330
1F
100
AcDbEntity
  8
D-STR
100
AcDbLine
 10
3522.293966606849
 20
1022.713882956839
 30
0.0
 11
3527.293981606846
 21
1007.713832956839
 31
0.0
  0
LINE
  5
71B
330
1F
100
AcDbEntity
  8
D-STR
100
AcDbLine
 10
3522.293978699869
 20
1002.713882956841
 30
0.0
 11
3522.293966606849
 21
1028.713882956839
 31
0.0
  0
LINE
  5
71C
330
1F
100
AcDbEntity
  8
D-STR
100
AcDbLine
 10
3517.794087537084
 20
983.7138808638668
 30
0.0
 11
3527.293985676617
 21
987.7138852824248
 31
0.0
  0
LINE
  5
71D
330
1F
100
AcDbEntity
  8
D-STR
100
AcDbLine
 10
3522.293978699869
 20
1002.713882956841
 30
0.0
 11
3527.293985676617
 21
987.7138852824248
 31
0.0
  0
LINE
  5
71E
330
1F
100
AcDbEntity
  8
D-STR
100
AcDbLine
 10
3517.794125909233
 20
901.2137808638756
 30
0.0
 11
3595.794025909221
 21
901.2138171429089
 31
0.0
  0
LINE
  5
71F
330
1F
100
AcDbEntity
  8
D-STR
100
AcDbLine
 10
3517.79414102542
 20
868.7139808638788
 30
0.0
 11
3517.794026606847
 21
1003.713842956838
 31
0.0
  0
LINE
  5
720
330
1F
100
AcDbEntity
  8
D-STR
100
AcDbLine
 10
3595.794025909221
 20
901.2138171429089
 30
0.0
 11
3595.794000327776
 21
956.2139171429027
 31
0.0
  0
LINE
  5
721
330
1F
100
AcDbEntity
  8
D-STR
100
AcDbLine
 10
3592.794121258011
 20
911.213915747605
 30
0.0
 11
3595.794025909221
 21
901.2138171429089
 31
0.0
  0
LINE
  5
722
330
1F
100
AcDbEntity
  8
D-STR
100
AcDbLine
 10
4515.794045676477
 20
868.7144403988442
 30
0.0
 11
4505.794045676477
 21
858.7144403988443
 31
0.0
  0
LINE
  5
723
330
1F
100
AcDbEntity
  8
D-STR
100
AcDbLine
 10
4437.794145676482
 20
951.2143403988449
 30
0.0
 11
4434.794145676482
 21
956.214340398845
 31
0.0
  0
CIRCLE
  5
724
330
1F
100
AcDbEntity
  8
D-STR
100
AcDbCircle
 10
4465.794045676477
 20
928.714340398845
 30
0.0
 40
5.9999999
  0
LINE
  5
725
330
1F
100
AcDbEntity
  8
D-STR
100
AcDbLine
 10
4437.794145676482
 20
911.2143403988451
 30
0.0
 11
4437.794145676482
 21
951.2143403988449
 31
0.0
  0
LINE
  5
726
330
1F
100
AcDbEntity
  8
D-STR
100
AcDbLine
 10
4511.294145676482
 20
1002.714340398844
 30
0.0
 11
4506.294145676482
 21
987.714340398845
 31
0.0
  0
LINE
  5
727
330
1F
100
AcDbEntity
  8
D-STR
100
AcDbLine
 10
4515.794145676482
 20
951.2143403988449
 30
0.0
 11
4437.794145676482
 21
951.2143403988449
 31
0.0
  0
LINE
  5
728
330
1F
100
AcDbEntity
  8
D-STR
100
AcDbLine
 10
4515.794145676482
 20
911.2143403988451
 30
0.0
 11
4437.794145676482
 21
911.2143403988451
 31
0.0
  0
LINE
  5
729
330
1F
100
AcDbEntity
  8
D-STR
100
AcDbLine
 10
4515.794145676482
 20
956.214340398845
 30
0.0
 11
4434.794145676482
 21
956.214340398845
 31
0.0
  0
LINE
  5
72A
330
1F
100
AcDbEntity
  8
D-STR
100
AcDbLine
 10
4515.794145676482
 20
983.714340398845
 30
0.0
 11
4506.294145676482
 21
987.714340398845
 31
0.0
  0
LINE
  5
72B
330
1F
100
AcDbEntity
  8
D-STR
100
AcDbLine
 10
4515.794145676482
 20
901.2142403988439
 30
0.0
 11
4434.794145676482
 21
901.2142403988439
 31
0.0
  0
LINE
  5
72C
330
1F
100
AcDbEntity
  8
D-STR
100
AcDbLine
 10
4434.794145676482
 20
901.2142403988439
 30
0.0
 11
4434.794145676482
 21
956.214340398845
 31
0.0
  0
LINE
  5
72D
330
1F
100
AcDbEntity
  8
D-STR
100
AcDbLine
 10
4437.794145676482
 20
911.2143403988451
 30
0.0
 11
4434.794145676482
 21
901.2142403988439
 31
0.0
  0
LINE
  5
72E
330
1F
100
AcDbEntity
  8
D-STR
100
AcDbLine
 10
4511.293987536854
 20
1198.714542956993
 30
0.0
 11
4121.794087536895
 21
1198.714361794198
 31
0.0
  0
LINE
  5
72F
330
1F
100
AcDbEntity
  8
D-STR
100
AcDbLine
 10
4511.294145676482
 20
1192.714540398843
 30
0.0
 11
4506.294130676477
 21
1177.714490398843
 31
0.0
  0
LINE
  5
730
330
1F
100
AcDbEntity
  8
D-STR
100
AcDbLine
 10
4511.294145676482
 20
1192.714540398843
 30
0.0
 11
4511.294145676482
 21
1198.714540398843
 31
0.0
  0
LINE
  5
731
330
1F
100
AcDbEntity
  8
D-STR
100
AcDbLine
 10
4515.794085676484
 20
1173.714500398842
 30
0.0
 11
4506.294130676477
 21
1177.714490398843
 31
0.0
  0
LINE
  5
732
330
1F
100
AcDbEntity
  8
D-STR-DIM
 48
15.0
100
AcDbLine
 10
2079.065476198717
 20
2277.340081728865
 30
0.0
 11
2049.065476198717
 21
2259.840081728865
 31
0.0
  0
LINE
  5
733
330
1F
100
AcDbEntity
  8
D-STR-DIM
 48
15.0
100
AcDbLine
 10
2079.065476198717
 20
2277.340081728865
 30
0.0
 11
2049.065476198717
 21
2294.840081728864
 31
0.0
  0
LINE
  5
734
330
1F
100
AcDbEntity
  8
D-STR-DIM
 48
15.0
100
AcDbLine
 10
2079.065476198717
 20
2277.340081728865
 30
0.0
 11
2019.065476198717
 21
2277.340081728865
 31
0.0
  0
MTEXT
  5
735
330
1F
100
AcDbEntity
  8
D-STR-DIM
 48
15.0
100
AcDbMText
 10
1918.986781548031
 20
2281.13112813635
 30
0.0
 40
25.0
 41
0.0
 71
     4
 72
     1
  1
車道側
 73
     1
 44
1.0
  0
MTEXT
  5
736
330
1F
100
AcDbEntity
  8
D-STR-TXT
370
    -3
100
AcDbMText
 10
3504.983448156476
 20
1745.079115530856
 30
0.0
 40
50.0
 41
0.0
 71
     5
 72
     1
  1
S=1/10
 73
     1
 44
1.0
  0
MTEXT
  5
737
330
1F
100
AcDbEntity
  8
D-STR-TXT
370
    -3
100
AcDbMText
 10
3408.030247470037
 20
1818.16045907287
 30
0.0
 40
50.0
 41
0.0
 71
     5
 72
     1
  1
{\L1型（左下がり）}
 73
     1
 44
1.0
  0
DIMENSION
  5
738
330
1F
100
AcDbEntity
  8
D-STR-DIM
 48
10.0
100
AcDbDimension
  2
*D10
 10
6154.620879805785
 20
1158.892051517842
 30
0.0
 11
6046.556906672489
 21
1183.892051517842
 31
0.0
 70
    32
 71
     5
 42
216.1279462665916
  3
STANDARD
100
AcDbAlignedDimension
 13
5938.492933539194
 23
1008.714212956944
 33
0.0
 14
6154.620879805785
 24
1009.145996986338
 34
0.0
100
AcDbRotatedDimension
  0
DIMENSION
  5
739
330
1F
100
AcDbEntity
  8
D-STR-DIM
 48
10.0
100
AcDbDimension
  2
*D11
 10
6306.492833539189
 20
1289.070090078741
 30
0.0
 11
6046.492983539188
 21
1314.070090078741
 31
0.0
 70
    32
 71
     5
 42
519.9997000000003
  3
STANDARD
100
AcDbAlignedDimension
 13
5786.493133539188
 23
998.7140129569441
 33
0.0
 14
6306.492833539189
 24
1008.714212956944
 34
0.0
100
AcDbRotatedDimension
  0
LINE
  5
73A
330
1F
100
AcDbEntity
  8
D-STR
100
AcDbLine
 10
5966.492933539186
 20
1028.714112956944
 30
0.0
 11
6126.49303353919
 21
1028.714112956944
 31
0.0
  0
LINE
  5
73B
330
1F
100
AcDbEntity
  8
D-STR
100
AcDbLine
 10
5966.492933539186
 20
1022.714112956944
 30
0.0
 11
6126.49303353919
 21
1022.714112956944
 31
0.0
  0
LINE
  5
73C
330
1F
100
AcDbEntity
  8
D-STR
100
AcDbLine
 10
5966.492933539186
 20
1007.714112956944
 30
0.0
 11
6126.49303353919
 21
1007.714112956944
 31
0.0
  0
LINE
  5
73D
330
1F
100
AcDbEntity
  8
D-STR
100
AcDbLine
 10
5966.492933539186
 20
1003.714112956944
 30
0.0
 11
6126.49303353919
 21
1003.714112956944
 31
0.0
  0
LINE
  5
73E
330
1F
100
AcDbEntity
  8
D-STR
100
AcDbLine
 10
5786.493133539188
 20
858.7142129569445
 30
0.0
 11
6306.492833539189
 21
858.7142129569445
 31
0.0
  0
LINE
  5
73F
330
1F
100
AcDbEntity
  8
D-STR
100
AcDbLine
 10
5786.493133539188
 20
868.7142129569444
 30
0.0
 11
6306.492833539189
 21
868.7142129569444
 31
0.0
  0
DIMENSION
  5
740
330
1F
100
AcDbEntity
  8
D-STR-DIM
 48
10.0
100
AcDbDimension
  2
*D12
 10
5938.492933539194
 20
1158.892051517842
 30
0.0
 11
5937.492883539191
 21
1208.892051517842
 31
0.0
 70
    32
 71
     5
 42
2.000100000004749
  3
STANDARD
100
AcDbAlignedDimension
 13
5936.492833539189
 23
1008.714212956944
 33
0.0
 14
5938.492933539194
 24
1008.714212956944
 34
0.0
100
AcDbRotatedDimension
  0
DIMENSION
  5
741
330
1F
100
AcDbEntity
  8
D-STR-DIM
 48
10.0
100
AcDbDimension
  2
*D13
 10
5936.492833539189
 20
1158.892051517842
 30
0.0
 11
5861.492983539188
 21
1183.892051517842
 31
0.0
 70
    32
 71
     5
 42
149.9997000000003
  3
STANDARD
100
AcDbAlignedDimension
 13
5786.493133539188
 23
998.7140129569441
 33
0.0
 14
5936.492833539189
 24
1008.714212956944
 34
0.0
100
AcDbRotatedDimension
  0
DIMENSION
  5
742
330
1F
100
AcDbEntity
  8
D-STR-DIM
 48
10.0
100
AcDbDimension
  2
*D14
 10
5602.074202008873
 20
858.7142129569445
 30
0.0
 11
5577.074202008873
 21
943.7141625097755
 31
0.0
 70
    32
 71
     5
 42
169.9998991056601
  3
STANDARD
100
AcDbAlignedDimension
 13
5938.492933539186
 23
1028.714112062604
 33
0.0
 14
5786.493133539188
 24
858.7142129569445
 34
0.0
 50
90.0
100
AcDbRotatedDimension
  0
DIMENSION
  5
743
330
1F
100
AcDbEntity
  8
D-STR-DIM
 48
10.0
100
AcDbDimension
  2
*D15
 10
5706.493133539188
 20
858.7142129569445
 30
0.0
 11
5681.493133539188
 21
928.7141129569452
 31
0.0
 70
    32
 71
     5
 42
139.9997999999996
  3
STANDARD
100
AcDbAlignedDimension
 13
5786.493133539188
 23
998.7140129569441
 33
0.0
 14
5786.493133539188
 24
858.7142129569445
 34
0.0
 50
90.0
100
AcDbRotatedDimension
  0
LINE
  5
744
330
1F
100
AcDbEntity
  8
D-STR
100
AcDbLine
 10
5786.493133539188
 20
994.2140129569441
 30
0.0
 11
5786.493133539188
 21
858.7142129569445
 31
0.0
  0
MTEXT
  5
745
330
1F
100
AcDbEntity
  8
D-STR-DIM
 48
15.0
100
AcDbMText
 10
5754.941463226052
 20
725.2283146231218
 30
0.0
 40
25.0
 41
0.0
 71
     4
 72
     1
  1
歩道側
 73
     1
 44
1.0
  0
LINE
  5
746
330
1F
100
AcDbEntity
  8
D-STR-DIM
 48
15.0
100
AcDbLine
 10
5675.117710004306
 20
721.437268215636
 30
0.0
 11
5705.117710004306
 21
703.937268215636
 31
0.0
  0
LINE
  5
747
330
1F
100
AcDbEntity
  8
D-STR-DIM
 48
15.0
100
AcDbLine
 10
5675.117710004306
 20
721.437268215636
 30
0.0
 11
5705.117710004306
 21
738.9372682156361
 31
0.0
  0
LINE
  5
748
330
1F
100
AcDbEntity
  8
D-STR-DIM
 48
15.0
100
AcDbLine
 10
5675.117710004306
 20
721.437268215636
 30
0.0
 11
5735.117710004306
 21
721.437268215636
 31
0.0
  0
DIMENSION
  5
749
330
1F
100
AcDbEntity
  8
D-STR-DIM
 48
10.0
100
AcDbDimension
  2
*D16
 10
5706.493133539188
 20
998.7140129569441
 30
0.0
 11
5706.493133539188
 21
1013.714062509774
 31
0.0
 70
   160
 71
     5
 42
30.00009910566052
  3
STANDARD
100
AcDbAlignedDimension
 13
5938.492933539186
 23
1028.714112062604
 33
0.0
 14
5786.493133539188
 24
998.7140129569441
 34
0.0
 50
90.0
100
AcDbRotatedDimension
1001
ACAD
1000
DSTYLE
1002
{
1070
   279
1070
     1
1002
}
  0
LINE
  5
74A
330
1F
100
AcDbEntity
  8
D-STR
100
AcDbLine
 10
5957.499233919887
 20
999.0482052981004
 30
0.0
 11
5956.132427373952
 21
985.380204122838
 31
0.0
  0
LINE
  5
74B
330
1F
100
AcDbEntity
  8
D-STR
100
AcDbLine
 10
5961.479382495388
 20
998.6501885685845
 30
0.0
 11
5960.112575949446
 21
984.9821873933212
 31
0.0
  0
ARC
  5
74C
330
1F
100
AcDbEntity
  8
D-STR
100
AcDbCircle
 10
5966.492933539186
 20
998.7141129569442
 30
0.0
 40
4.999998999999998
100
AcDbArc
 50
90.0
 51
177.8724517999981
  0
ARC
  5
74D
330
1F
100
AcDbEntity
  8
D-STR
100
AcDbCircle
 10
5966.492933539186
 20
998.7141129569442
 30
0.0
 40
8.999998999999998
100
AcDbArc
 50
90.0
 51
177.8724517999981
  0
ARC
  5
74E
330
1F
100
AcDbEntity
  8
D-STR
100
AcDbCircle
 10
5966.492933539303
 20
998.7141129566573
 30
0.0
 40
23.99999900028694
100
AcDbArc
 50
90.00000000020843
 51
167.1122770233986
  0
ARC
  5
74F
330
1F
100
AcDbEntity
  8
D-STR
100
AcDbCircle
 10
5966.492933539186
 20
998.7141129569442
 30
0.0
 40
29.999999
100
AcDbArc
 50
90.0
 51
167.1122770239564
  0
ARC
  5
750
330
1F
100
AcDbEntity
  8
D-STR
100
AcDbCircle
 10
5932.374619212023
 20
1006.520556288997
 30
0.0
 40
5.0
100
AcDbArc
 50
271.1017868123025
 51
347.1122770239564
  0
ARC
  5
751
330
1F
100
AcDbEntity
  8
D-STR
100
AcDbCircle
 10
5951.157241654582
 20
985.8777250347323
 30
0.0
 40
5.0
100
AcDbArc
 50
271.1016957362119
 51
354.2893801816391
  0
ARC
  5
752
330
1F
100
AcDbEntity
  8
D-STR
100
AcDbCircle
 10
5951.157241654582
 20
985.8777250347323
 30
0.0
 40
9.0
100
AcDbArc
 50
271.1016957362119
 51
354.2893801816391
  0
ARC
  5
753
330
1F
100
AcDbEntity
  8
D-STR
100
AcDbCircle
 10
5932.374619212023
 20
1006.520556288997
 30
0.0
 40
11.0
100
AcDbArc
 50
271.1017868123025
 51
347.1122770239564
  0
LINE
  5
754
330
1F
100
AcDbEntity
  8
D-STR
100
AcDbLine
 10
5790.992301547456
 20
998.8005417577475
 30
0.0
 11
5786.493133539188
 21
994.2140129569441
 31
0.0
  0
LINE
  5
755
330
1F
100
AcDbEntity
  8
D-STR
 48
15.0
100
AcDbLine
 10
5802.493233539186
 20
951.2141129569442
 30
0.0
 11
5786.493133539188
 21
956.2141129569443
 31
0.0
  0
LINE
  5
756
330
1F
100
AcDbEntity
  8
D-STR
100
AcDbLine
 10
5802.493233539186
 20
951.2141129569442
 30
0.0
 11
5802.493233539186
 21
911.2141129569442
 31
0.0
  0
LINE
  5
757
330
1F
100
AcDbEntity
  8
D-STR
 48
15.0
100
AcDbLine
 10
5802.493233539186
 20
911.2141129569442
 30
0.0
 11
5786.493133539188
 21
901.2140129569441
 31
0.0
  0
LINE
  5
758
330
1F
100
AcDbEntity
  8
D-STR
100
AcDbLine
 10
5790.992301547456
 20
998.8005417577475
 30
0.0
 11
5932.470762324025
 21
1001.521480724254
 31
0.0
  0
LINE
  5
759
330
1F
100
AcDbEntity
  8
D-STR
100
AcDbLine
 10
5786.493133539188
 20
992.7128129569444
 30
0.0
 11
5932.586134058431
 21
995.5225900465622
 31
0.0
  0
LINE
  5
75A
330
1F
100
AcDbEntity
  8
D-STR
100
AcDbLine
 10
5786.493133539188
 20
977.7102129569446
 30
0.0
 11
5951.253376820176
 21
980.878649317168
 31
0.0
  0
LINE
  5
75B
330
1F
100
AcDbEntity
  8
D-STR
100
AcDbLine
 10
5786.493133539188
 20
973.7093129569437
 30
0.0
 11
5951.330284952652
 21
976.8793887431172
 31
0.0
  0
DIMENSION
  5
75C
330
1F
100
AcDbEntity
  8
D-STR-DIM
 48
10.0
100
AcDbDimension
  2
*D17
 10
6306.492833539189
 20
1158.892051517842
 30
0.0
 11
6231.492983539189
 21
1183.892051517842
 31
0.0
 70
    32
 71
     5
 42
149.9997000000003
  3
STANDARD
100
AcDbAlignedDimension
 13
6156.493133539188
 23
1008.714212956944
 33
0.0
 14
6306.492833539189
 24
1008.714212956944
 34
0.0
100
AcDbRotatedDimension
  0
DIMENSION
  5
75D
330
1F
100
AcDbEntity
  8
D-STR-DIM
 48
10.0
100
AcDbDimension
  2
*D18
 10
6156.493133539188
 20
1158.892051517842
 30
0.0
 11
6155.557006672487
 21
1208.892051517842
 31
0.0
 70
    32
 71
     5
 42
1.87225373340334
  3
STANDARD
100
AcDbAlignedDimension
 13
6154.620879805785
 23
1009.145996986338
 33
0.0
 14
6156.493133539188
 24
1008.714212956944
 34
0.0
100
AcDbRotatedDimension
  0
LINE
  5
75E
330
1F
100
AcDbEntity
  8
D-STR
100
AcDbLine
 10
6656.492883539191
 20
956.2141129569443
 30
0.0
 11
6734.492883539191
 21
956.2141129569443
 31
0.0
  0
LINE
  5
75F
330
1F
100
AcDbEntity
  8
D-STR
100
AcDbLine
 10
6656.492883539191
 20
911.2141129569442
 30
0.0
 11
6731.492883539191
 21
911.2141129569442
 31
0.0
  0
LINE
  5
760
330
1F
100
AcDbEntity
  8
D-STR
100
AcDbLine
 10
6656.492883539191
 20
951.2141129569442
 30
0.0
 11
6731.492883539191
 21
951.2141129569442
 31
0.0
  0
LINE
  5
761
330
1F
100
AcDbEntity
  8
D-STR
100
AcDbLine
 10
6656.492883539191
 20
901.2140129569441
 30
0.0
 11
6734.492883539191
 21
901.2140129569441
 31
0.0
  0
DIMENSION
  5
762
330
1F
100
AcDbEntity
  8
D-STR-DIM
 48
10.0
100
AcDbDimension
  2
*D19
 10
6386.492833539189
 20
858.7142129569445
 30
0.0
 11
6361.492833539188
 21
933.7142129569455
 31
0.0
 70
    32
 71
     5
 42
150.0
  3
STANDARD
100
AcDbAlignedDimension
 13
6306.492833539189
 23
1008.714212956944
 33
0.0
 14
6306.492833539189
 24
858.7142129569445
 34
0.0
 50
90.0
100
AcDbRotatedDimension
  0
DIMENSION
  5
763
330
1F
100
AcDbEntity
  8
D-STR-DIM
 48
10.0
100
AcDbDimension
  2
*D20
 10
6490.911765069504
 20
858.7142129569443
 30
0.0
 11
6465.911765069503
 21
943.7141625097755
 31
0.0
 70
    32
 71
     5
 42
169.99989910566
  3
STANDARD
100
AcDbAlignedDimension
 13
6154.493033539191
 23
1028.714112062604
 33
0.0
 14
6306.492833539189
 24
858.7142129569445
 34
0.0
 50
90.0
100
AcDbRotatedDimension
  0
LINE
  5
764
330
1F
100
AcDbEntity
  8
D-STR
100
AcDbLine
 10
6656.492883539191
 20
868.7142129569444
 30
0.0
 11
6666.492983539189
 21
858.7142129569445
 31
0.0
  0
LINE
  5
765
330
1F
100
AcDbEntity
  8
D-STR
100
AcDbLine
 10
6306.492833539189
 20
1004.214212956944
 30
0.0
 11
6306.492833539189
 21
858.7142129569445
 31
0.0
  0
MTEXT
  5
766
330
1F
100
AcDbEntity
  8
D-STR-DIM
 48
15.0
100
AcDbMText
 10
6257.789512423384
 20
725.2283146231218
 30
0.0
 40
25.0
 41
0.0
 71
     4
 72
     1
  1
車道側
 73
     1
 44
1.0
  0
LINE
  5
767
330
1F
100
AcDbEntity
  8
D-STR-DIM
 48
15.0
100
AcDbLine
 10
6417.868207074069
 20
721.437268215636
 30
0.0
 11
6387.868207074069
 21
703.937268215636
 31
0.0
  0
LINE
  5
768
330
1F
100
AcDbEntity
  8
D-STR-DIM
 48
15.0
100
AcDbLine
 10
6417.868207074069
 20
721.437268215636
 30
0.0
 11
6387.868207074069
 21
738.9372682156361
 31
0.0
  0
LINE
  5
769
330
1F
100
AcDbEntity
  8
D-STR-DIM
 48
15.0
100
AcDbLine
 10
6417.868207074069
 20
721.437268215636
 30
0.0
 11
6357.868207074069
 21
721.437268215636
 31
0.0
  0
DIMENSION
  5
76A
330
1F
100
AcDbEntity
  8
D-STR-DIM
 48
10.0
100
AcDbDimension
  2
*D21
 10
6386.492833539189
 20
1008.714212956944
 30
0.0
 11
6386.492833539189
 21
1018.714162509774
 31
0.0
 70
   160
 71
     5
 42
19.99989910566
  3
STANDARD
100
AcDbAlignedDimension
 13
6154.493033539191
 23
1028.714112062604
 33
0.0
 14
6306.492833539189
 24
1008.714212956944
 34
0.0
 50
90.0
100
AcDbRotatedDimension
1001
ACAD
1000
DSTYLE
1002
{
1070
   279
1070
     1
1002
}
  0
LINE
  5
76B
330
1F
100
AcDbEntity
  8
D-STR
100
AcDbLine
 10
6159.4049914953
 20
1005.885568703343
 30
0.0
 11
6301.993665427821
 21
1008.627689517295
 31
0.0
  0
LINE
  5
76C
330
1F
100
AcDbEntity
  8
D-STR
100
AcDbLine
 10
6141.607523597806
 20
980.5385763651045
 30
0.0
 11
6306.492833539189
 21
983.7095129569441
 31
0.0
  0
LINE
  5
76D
330
1F
100
AcDbEntity
  8
D-STR
100
AcDbLine
 10
6141.558890175663
 20
984.5383362419946
 30
0.0
 11
6306.492833539189
 21
987.7101129569444
 31
0.0
  0
LINE
  5
76E
330
1F
100
AcDbEntity
  8
D-STR
100
AcDbLine
 10
6159.520356081491
 20
999.8866778881799
 30
0.0
 11
6306.492833539189
 21
1002.712912956943
 31
0.0
  0
LINE
  5
76F
330
1F
100
AcDbEntity
  8
D-STR
100
AcDbLine
 10
6306.492833539189
 20
1004.214212956944
 30
0.0
 11
6301.993665427821
 21
1008.627689517295
 31
0.0
  0
LINE
  5
770
330
1F
100
AcDbEntity
  8
D-STR
100
AcDbLine
 10
6131.506584582997
 20
998.6501885685845
 30
0.0
 11
6132.507420715199
 21
988.6418743181481
 31
0.0
  0
LINE
  5
771
330
1F
100
AcDbEntity
  8
D-STR
100
AcDbLine
 10
6135.48673315849
 20
999.0482052981004
 30
0.0
 11
6136.4875692907
 21
989.039891047664
 31
0.0
  0
ARC
  5
772
330
1F
100
AcDbEntity
  8
D-STR
100
AcDbCircle
 10
6126.49303353919
 20
998.7141129569442
 30
0.0
 40
4.999998999999998
100
AcDbArc
 50
2.127550000004042
 51
90.0
  0
ARC
  5
773
330
1F
100
AcDbEntity
  8
D-STR
100
AcDbCircle
 10
6126.49303353919
 20
998.7141129569442
 30
0.0
 40
8.999998999999998
100
AcDbArc
 50
2.127550000004042
 51
90.0
  0
ARC
  5
774
330
1F
100
AcDbEntity
  8
D-STR
100
AcDbCircle
 10
6126.493033539031
 20
998.7141129565568
 30
0.0
 40
23.99999900039075
100
AcDbArc
 50
20.34850265494346
 51
89.99999999958312
  0
ARC
  5
775
330
1F
100
AcDbEntity
  8
D-STR
100
AcDbCircle
 10
6126.49303353919
 20
998.7141129569442
 30
0.0
 40
29.999999
100
AcDbArc
 50
20.34850265421081
 51
90.0
  0
ARC
  5
776
330
1F
100
AcDbEntity
  8
D-STR
100
AcDbCircle
 10
6159.308854340146
 20
1010.884644382646
 30
0.0
 40
5.0
100
AcDbArc
 50
200.3485026542108
 51
271.1017185392685
  0
ARC
  5
777
330
1F
100
AcDbEntity
  8
D-STR
100
AcDbCircle
 10
6141.462755010071
 20
989.5374119595583
 30
0.0
 40
5.0
100
AcDbArc
 50
185.7106198183591
 51
271.1016957362119
  0
ARC
  5
778
330
1F
100
AcDbEntity
  8
D-STR
100
AcDbCircle
 10
6159.308854340146
 20
1010.884644382646
 30
0.0
 40
11.0
100
AcDbArc
 50
200.3485026542108
 51
271.1017185392685
  0
ARC
  5
779
330
1F
100
AcDbEntity
  8
D-STR
100
AcDbCircle
 10
6141.462755010071
 20
989.5374119595583
 30
0.0
 40
9.0
100
AcDbArc
 50
185.7106198183591
 51
271.1016957362119
  0
LINE
  5
77A
330
1F
100
AcDbEntity
  8
D-STR
 48
15.0
100
AcDbLine
 10
6290.492733539191
 20
951.2141129569442
 30
0.0
 11
6306.492833539189
 21
956.2141129569443
 31
0.0
  0
LINE
  5
77B
330
1F
100
AcDbEntity
  8
D-STR
100
AcDbLine
 10
6290.492733539191
 20
951.2141129569442
 30
0.0
 11
6290.492733539191
 21
911.2141129569442
 31
0.0
  0
LINE
  5
77C
330
1F
100
AcDbEntity
  8
D-STR
 48
15.0
100
AcDbLine
 10
6290.492733539191
 20
911.2141129569442
 30
0.0
 11
6306.492833539189
 21
901.2140129569441
 31
0.0
  0
LINE
  5
77D
330
1F
100
AcDbEntity
  8
D-STR
100
AcDbLine
 10
6656.492883539191
 20
983.7141129569443
 30
0.0
 11
6665.992883539191
 21
987.7141129569443
 31
0.0
  0
LINE
  5
77E
330
1F
100
AcDbEntity
  8
D-STR
100
AcDbLine
 10
6660.992883539191
 20
1002.714112956944
 30
0.0
 11
6665.992883539191
 21
987.7141129569443
 31
0.0
  0
LINE
  5
77F
330
1F
100
AcDbEntity
  8
D-STR
100
AcDbLine
 10
6660.992883539191
 20
1002.714112956944
 30
0.0
 11
6660.992883539191
 21
1028.714112956944
 31
0.0
  0
LINE
  5
780
330
1F
100
AcDbEntity
  8
D-STR
100
AcDbLine
 10
6656.492822608955
 20
1003.714075049916
 30
0.0
 11
6665.992777608953
 21
1007.714065049916
 31
0.0
  0
LINE
  5
781
330
1F
100
AcDbEntity
  8
D-STR
100
AcDbLine
 10
6660.992762608955
 20
1022.714115049917
 30
0.0
 11
6665.992777608953
 21
1007.714065049916
 31
0.0
  0
CIRCLE
  5
782
330
1F
100
AcDbEntity
  8
D-STR
100
AcDbCircle
 10
6706.493083539193
 20
928.7141129569443
 30
0.0
 40
5.9999999
  0
LINE
  5
783
330
1F
100
AcDbEntity
  8
D-STR
100
AcDbLine
 10
6656.492883539191
 20
868.7142129569444
 30
0.0
 11
6656.492822608955
 21
1003.714075049916
 31
0.0
  0
LINE
  5
784
330
1F
100
AcDbEntity
  8
D-STR
100
AcDbLine
 10
6731.492883539191
 20
911.2141129569442
 30
0.0
 11
6731.492883539191
 21
951.2141129569442
 31
0.0
  0
LINE
  5
785
330
1F
100
AcDbEntity
  8
D-STR
100
AcDbLine
 10
6731.492883539191
 20
951.2141129569442
 30
0.0
 11
6734.492883539191
 21
956.2141129569443
 31
0.0
  0
LINE
  5
786
330
1F
100
AcDbEntity
  8
D-STR
100
AcDbLine
 10
6734.492883539191
 20
901.2140129569441
 30
0.0
 11
6734.492883539191
 21
956.2141129569443
 31
0.0
  0
LINE
  5
787
330
1F
100
AcDbEntity
  8
D-STR
100
AcDbLine
 10
6731.492883539191
 20
911.2141129569442
 30
0.0
 11
6734.492883539191
 21
901.2140129569441
 31
0.0
  0
CIRCLE
  5
788
330
1F
100
AcDbEntity
  8
D-STR
100
AcDbCircle
 10
7155.493083539193
 20
936.7142129569444
 30
0.0
 40
10.000001
  0
CIRCLE
  5
789
330
1F
100
AcDbEntity
  8
D-STR
100
AcDbCircle
 10
7155.493083539193
 20
936.7142129569444
 30
0.0
 40
15.0
  0
LINE
  5
78A
330
1F
100
AcDbEntity
  8
D-STR-DIM
 48
15.0
100
AcDbLine
 10
5635.463432426004
 20
2277.338566389293
 30
0.0
 11
5695.463432426004
 21
2277.338566389293
 31
0.0
  0
LINE
  5
78B
330
1F
100
AcDbEntity
  8
D-STR-DIM
 48
15.0
100
AcDbLine
 10
5635.463432426004
 20
2277.338566389293
 30
0.0
 11
5665.463432426005
 21
2294.838566389293
 31
0.0
  0
LINE
  5
78C
330
1F
100
AcDbEntity
  8
D-STR-DIM
 48
15.0
100
AcDbLine
 10
5635.463432426004
 20
2277.338566389293
 30
0.0
 11
5665.463432426005
 21
2259.838566389293
 31
0.0
  0
MTEXT
  5
78D
330
1F
100
AcDbEntity
  8
D-STR-DIM
 48
15.0
100
AcDbMText
 10
5715.28718564775
 20
2281.129612796779
 30
0.0
 40
25.0
 41
0.0
 71
     4
 72
     1
  1
歩道側
 73
     1
 44
1.0
  0
MTEXT
  5
78E
330
1F
100
AcDbEntity
  8
D-STR-TXT
370
    -3
100
AcDbMText
 10
6546.728822541904
 20
1818.160459072831
 30
0.0
 40
50.0
 41
0.0
 71
     5
 72
     1
  1
{\L２型（乗り入れ用）}
 73
     1
 44
1.0
  0
MTEXT
  5
78F
330
1F
100
AcDbEntity
  8
D-STR-TXT
370
    -3
100
AcDbMText
 10
6643.682023228342
 20
1745.079115530817
 30
0.0
 40
50.0
 41
0.0
 71
     5
 72
     1
  1
S=1/10
 73
     1
 44
1.0
  0
LINE
  5
790
330
1F
100
AcDbEntity
  8
D-STR-DIM
 48
15.0
100
AcDbLine
 10
6378.213929495768
 20
2277.338566389293
 30
0.0
 11
6318.213929495767
 21
2277.338566389293
 31
0.0
  0
LINE
  5
791
330
1F
100
AcDbEntity
  8
D-STR-DIM
 48
15.0
100
AcDbLine
 10
6378.213929495768
 20
2277.338566389293
 30
0.0
 11
6348.213929495766
 21
2294.838566389293
 31
0.0
  0
LINE
  5
792
330
1F
100
AcDbEntity
  8
D-STR-DIM
 48
15.0
100
AcDbLine
 10
6378.213929495768
 20
2277.338566389293
 30
0.0
 11
6348.213929495766
 21
2259.838566389293
 31
0.0
  0
MTEXT
  5
793
330
1F
100
AcDbEntity
  8
D-STR-DIM
 48
15.0
100
AcDbMText
 10
6218.135234845082
 20
2281.129612796779
 30
0.0
 40
25.0
 41
0.0
 71
     4
 72
     1
  1
車道側
 73
     1
 44
1.0
  0
DIMENSION
  5
794
330
1F
100
AcDbEntity
  8
D-STR-DIM
 48
10.0
100
AcDbDimension
  2
*D22
 10
2377.690165860534
 20
3009.972963591968
 30
0.0
 11
3376.690135860535
 21
3034.972963591968
 31
0.0
 70
    32
 71
     5
 42
1997.999940000001
  3
STANDARD
100
AcDbAlignedDimension
 13
4375.690105860536
 23
2729.617086470172
 33
0.0
 14
2377.690165860534
 24
2729.617086470172
 34
0.0
100
AcDbRotatedDimension
  0
ARC
  5
795
330
1F
100
AcDbEntity
  8
D-STR
100
AcDbCircle
 10
3156.690462663835
 20
2634.616826470173
 30
0.0
 40
29.999999
100
AcDbArc
 50
90.0
 51
180.0
  0
ARC
  5
796
330
1F
100
AcDbEntity
  8
D-STR
100
AcDbCircle
 10
3136.69036266383
 20
2664.616926470173
 30
0.0
 40
29.999999
100
AcDbArc
 50
90.0
 51
180.0
  0
LINE
  5
797
330
1F
100
AcDbEntity
  8
D-STR
100
AcDbLine
 10
2382.190105860536
 20
2754.617126470172
 30
0.0
 11
4371.190165860535
 21
2754.617126470172
 31
0.0
  0
LINE
  5
798
330
1F
100
AcDbEntity
  8
D-STR
100
AcDbLine
 10
2387.690259467134
 20
2414.617026470173
 30
0.0
 11
4365.690065860537
 21
2414.617026470173
 31
0.0
  0
LINE
  5
799
330
1F
100
AcDbEntity
  8
D-STR
100
AcDbLine
 10
2382.198837818104
 20
2564.617026470173
 30
0.0
 11
4371.190165860535
 21
2564.617026470173
 31
0.0
  0
LINE
  5
79A
330
1F
100
AcDbEntity
  8
D-STR
 48
15.0
100
AcDbLine
 10
2382.192333958323
 20
2560.117026470173
 30
0.0
 11
4371.190165860535
 21
2560.117026470173
 31
0.0
  0
DIMENSION
  5
79B
330
1F
100
AcDbEntity
  8
D-STR-DIM
 48
10.0
100
AcDbDimension
  2
*D23
 10
1967.690137663812
 20
2884.794865031071
 30
0.0
 11
1892.690287663812
 21
2909.79486503107
 31
0.0
 70
    32
 71
     5
 42
149.9997000000003
  3
STANDARD
100
AcDbAlignedDimension
 13
1817.690437663812
 23
2563.563660822325
 33
0.0
 14
1967.690137663812
 24
2734.617026470173
 34
0.0
100
AcDbRotatedDimension
  0
DIMENSION
  5
79C
330
1F
100
AcDbEntity
  8
D-STR-DIM
 48
10.0
100
AcDbDimension
  2
*D24
 10
1817.690437663812
 20
2884.794865031071
 30
0.0
 11
1807.690299463898
 21
2934.79486503107
 31
0.0
 70
    32
 71
     5
 42
20.00027639982727
  3
STANDARD
100
AcDbAlignedDimension
 13
1797.690161263985
 23
2754.616926470173
 33
0.0
 14
1817.690437663812
 24
2563.563660822325
 34
0.0
100
AcDbRotatedDimension
  0
LINE
  5
79D
330
1F
100
AcDbEntity
  8
D-STR
100
AcDbLine
 10
2377.690165860534
 20
2467.116926470173
 30
0.0
 11
2455.690165860534
 21
2467.116926470173
 31
0.0
  0
LINE
  5
79E
330
1F
100
AcDbEntity
  8
D-STR
100
AcDbLine
 10
2377.690165860534
 20
2507.116926470173
 30
0.0
 11
2455.690165860534
 21
2507.116926470173
 31
0.0
  0
LINE
  5
79F
330
1F
100
AcDbEntity
  8
D-STR
100
AcDbLine
 10
2377.690165860534
 20
2512.116926470173
 30
0.0
 11
2458.690165860534
 21
2512.116926470173
 31
0.0
  0
LINE
  5
7A0
330
1F
100
AcDbEntity
  8
D-STR
100
AcDbLine
 10
2377.690165860534
 20
2457.116826470173
 30
0.0
 11
2458.690165860534
 21
2457.116826470173
 31
0.0
  0
DIMENSION
  5
7A1
330
1F
100
AcDbEntity
  8
D-STR-DIM
 48
10.0
100
AcDbDimension
  2
*D25
 10
2127.690162663835
 20
2414.617026470173
 30
0.0
 11
2102.690162663835
 21
2489.617026470174
 31
0.0
 70
    32
 71
     5
 42
150.0
  3
STANDARD
100
AcDbAlignedDimension
 13
1967.690162663813
 23
2564.617026470173
 33
0.0
 14
1967.690162663835
 24
2414.617026470173
 34
0.0
 50
90.0
100
AcDbRotatedDimension
  0
DIMENSION
  5
7A2
330
1F
100
AcDbEntity
  8
D-STR-DIM
 48
10.0
100
AcDbDimension
  2
*D26
 10
2232.109094194151
 20
2414.617026470173
 30
0.0
 11
2207.10909419415
 21
2584.616976470173
 31
0.0
 70
    32
 71
     5
 42
339.9998999999997
  3
STANDARD
100
AcDbAlignedDimension
 13
1797.690161263985
 23
2754.616926470173
 33
0.0
 14
1967.690162663835
 24
2414.617026470173
 34
0.0
 50
90.0
100
AcDbRotatedDimension
  0
LINE
  5
7A3
330
1F
100
AcDbEntity
  8
D-STR
100
AcDbLine
 10
2382.190165860535
 20
2558.616926470173
 30
0.0
 11
2387.190165860535
 21
2543.616926470173
 31
0.0
  0
LINE
  5
7A4
330
1F
100
AcDbEntity
  8
D-STR
100
AcDbLine
 10
2377.690159467129
 20
2424.617026470173
 30
0.0
 11
2377.690219467134
 21
2729.617086470172
 31
0.0
  0
LINE
  5
7A5
330
1F
100
AcDbEntity
  8
D-STR
100
AcDbLine
 10
1967.690162663835
 20
2560.117026470173
 30
0.0
 11
1967.690162663835
 21
2414.617026470173
 31
0.0
  0
ARC
  5
7A6
330
1F
100
AcDbEntity
  8
D-STR
100
AcDbCircle
 10
1821.496221081994
 20
2566.806501024069
 30
0.0
 40
11.0
100
AcDbArc
 50
185.7106170759753
 51
271.1017170776197
  0
LINE
  5
7A7
330
1F
100
AcDbEntity
  8
D-STR
100
AcDbLine
 10
1775.515733947911
 20
2725.114423101352
 30
0.0
 11
1793.57303676215
 21
2544.54215694402
 31
0.0
  0
LINE
  5
7A8
330
1F
100
AcDbEntity
  8
D-STR
100
AcDbLine
 10
1779.495882542462
 20
2725.512439640363
 30
0.0
 11
1797.553185356693
 21
2544.940173483031
 31
0.0
  0
LINE
  5
7A9
330
1F
100
AcDbEntity
  8
D-STR
100
AcDbLine
 10
1821.707722542785
 20
2555.808534524209
 30
0.0
 11
1967.690162663835
 21
2558.615726470173
 31
0.0
  0
LINE
  5
7AA
330
1F
100
AcDbEntity
  8
D-STR
 48
15.0
100
AcDbLine
 10
1951.69006266383
 20
2507.116926470173
 30
0.0
 11
1967.690162663835
 21
2512.116926470173
 31
0.0
  0
LINE
  5
7AB
330
1F
100
AcDbEntity
  8
D-STR
100
AcDbLine
 10
1951.69006266383
 20
2507.116926470173
 30
0.0
 11
1951.69006266383
 21
2467.116926470173
 31
0.0
  0
LINE
  5
7AC
330
1F
100
AcDbEntity
  8
D-STR
 48
15.0
100
AcDbLine
 10
1951.69006266383
 20
2467.116926470173
 30
0.0
 11
1967.690162663835
 21
2457.116826470173
 31
0.0
  0
ARC
  5
7AD
330
1F
100
AcDbEntity
  8
D-STR
100
AcDbCircle
 10
1802.528371099877
 20
2545.437694156795
 30
0.0
 40
5.0
100
AcDbArc
 50
185.7106170759753
 51
271.101695179989
  0
ARC
  5
7AE
330
1F
100
AcDbEntity
  8
D-STR
100
AcDbCircle
 10
1802.528371099877
 20
2545.437694156795
 30
0.0
 40
9.0
100
AcDbArc
 50
185.7106170759753
 51
271.101695179989
  0
LINE
  5
7AF
330
1F
100
AcDbEntity
  8
D-STR
100
AcDbLine
 10
1802.62450621694
 20
2540.438618438298
 30
0.0
 11
1967.690162663835
 21
2543.612926470173
 31
0.0
  0
LINE
  5
7B0
330
1F
100
AcDbEntity
  8
D-STR
100
AcDbLine
 10
1802.701414310584
 20
2536.439357863501
 30
0.0
 11
1967.690162663835
 21
2539.612326470173
 31
0.0
  0
LINE
  5
7B1
330
1F
100
AcDbEntity
  8
D-STR
100
AcDbLine
 10
2377.690165860534
 20
2539.616926470173
 30
0.0
 11
2387.190165860535
 21
2543.616926470173
 31
0.0
  0
LINE
  5
7B2
330
1F
100
AcDbEntity
  8
D-STR
100
AcDbLine
 10
2377.690159467129
 20
2424.617026470173
 30
0.0
 11
2387.690259467134
 21
2414.617026470173
 31
0.0
  0
DIMENSION
  5
7B3
330
1F
100
AcDbEntity
  8
D-STR-DIM
  6
Continuous
 48
10.0
100
AcDbDimension
  2
*D27
 10
2062.690162663821
 20
2694.616945245897
 30
0.0
 11
2037.690162663821
 21
2629.616985858035
 31
0.0
 70
    32
 71
     5
 42
129.9999187757239
  3
STANDARD
100
AcDbAlignedDimension
 13
1967.690162663813
 23
2564.617026470173
 33
0.0
 14
1803.690184705417
 24
2694.616945245897
 34
0.0
 50
90.0
100
AcDbRotatedDimension
  0
DIMENSION
  5
7B4
330
1F
100
AcDbEntity
  8
D-STR-DIM
 48
10.0
100
AcDbDimension
  2
*D28
 10
2127.690162663835
 20
2564.617026470173
 30
0.0
 11
2127.690162663835
 21
2659.616976970172
 31
0.0
 70
   160
 71
     5
 42
189.9998999999997
  3
STANDARD
100
AcDbAlignedDimension
 13
1797.690161263985
 23
2754.616926470173
 33
0.0
 14
1967.690162663813
 24
2564.617026470173
 34
0.0
 50
90.0
100
AcDbRotatedDimension
1001
ACAD
1000
DSTYLE
1002
{
1070
   279
1070
     1
1002
}
  0
LINE
  5
7B5
330
1F
100
AcDbEntity
  8
D-STR
100
AcDbLine
 10
1967.690162663835
 20
2560.117026470173
 30
0.0
 11
1963.190994550255
 21
2564.530503145302
 31
0.0
  0
ARC
  5
7B6
330
1F
100
AcDbEntity
  8
D-STR
100
AcDbCircle
 10
1770.540562663831
 20
2724.616926470173
 30
0.0
 40
24.000001
100
AcDbArc
 50
5.710616999992804
 51
90.0
  0
ARC
  5
7B7
330
1F
100
AcDbEntity
  8
D-STR
100
AcDbCircle
 10
1770.540562663831
 20
2724.616926470173
 30
0.0
 40
30.000001
100
AcDbArc
 50
5.710616999992804
 51
90.0
  0
ARC
  5
7B8
330
1F
100
AcDbEntity
  8
D-STR
100
AcDbCircle
 10
1770.540562663831
 20
2724.616926470173
 30
0.0
 40
5.000001000000001
100
AcDbArc
 50
5.710616999992804
 51
90.0
  0
ARC
  5
7B9
330
1F
100
AcDbEntity
  8
D-STR
100
AcDbCircle
 10
1770.540562663831
 20
2724.616926470173
 30
0.0
 40
9.000001000000001
100
AcDbArc
 50
5.710616999992804
 51
90.0
  0
ARC
  5
7BA
330
1F
100
AcDbEntity
  8
D-STR
100
AcDbCircle
 10
1821.496221081994
 20
2566.806501024069
 30
0.0
 40
5.0
100
AcDbArc
 50
185.7106170759753
 51
271.1017170776197
  0
LINE
  5
7BB
330
1F
100
AcDbEntity
  8
D-STR
100
AcDbLine
 10
1794.421439772013
 20
2727.005001661656
 30
0.0
 11
1810.550812446985
 21
2565.711955541788
 31
0.0
  0
LINE
  5
7BC
330
1F
100
AcDbEntity
  8
D-STR
100
AcDbLine
 10
1800.391662663831
 20
2727.602026470172
 30
0.0
 11
1816.52103533881
 21
2566.308980350306
 31
0.0
  0
LINE
  5
7BD
330
1F
100
AcDbEntity
  8
D-STR
100
AcDbLine
 10
1821.592358109628
 20
2561.807425342314
 30
0.0
 11
1963.190994550255
 21
2564.530503145302
 31
0.0
  0
LINE
  5
7BE
330
1F
100
AcDbEntity
  8
D-STR
100
AcDbLine
 10
2377.690165860534
 20
2729.617086470172
 30
0.0
 11
2387.190120860533
 21
2733.617076470172
 31
0.0
  0
LINE
  5
7BF
330
1F
100
AcDbEntity
  8
D-STR
100
AcDbLine
 10
2382.190105860536
 20
2748.617126470172
 30
0.0
 11
2387.190120860533
 21
2733.617076470172
 31
0.0
  0
LINE
  5
7C0
330
1F
100
AcDbEntity
  8
D-STR
100
AcDbLine
 10
2382.190105860536
 20
2748.617126470172
 30
0.0
 11
2382.190105860536
 21
2754.617126470172
 31
0.0
  0
LINE
  5
7C1
330
1F
100
AcDbEntity
  8
D-STR
100
AcDbLine
 10
2382.190165860535
 20
2558.616926470173
 30
0.0
 11
2382.440203360536
 21
2731.617081470171
 31
0.0
  0
LINE
  5
7C2
330
1F
100
AcDbEntity
  8
D-STR
100
AcDbLine
 10
2455.690165860534
 20
2507.116926470173
 30
0.0
 11
2458.690165860534
 21
2512.116926470173
 31
0.0
  0
CIRCLE
  5
7C3
330
1F
100
AcDbEntity
  8
D-STR
100
AcDbCircle
 10
2427.690265860532
 20
2484.616926470172
 30
0.0
 40
5.9999999
  0
LINE
  5
7C4
330
1F
100
AcDbEntity
  8
D-STR
100
AcDbLine
 10
2455.690165860534
 20
2467.116926470173
 30
0.0
 11
2455.690165860534
 21
2507.116926470173
 31
0.0
  0
LINE
  5
7C5
330
1F
100
AcDbEntity
  8
D-STR
100
AcDbLine
 10
2455.690165860534
 20
2467.116926470173
 30
0.0
 11
2458.690165860534
 21
2457.116826470173
 31
0.0
  0
LINE
  5
7C6
330
1F
100
AcDbEntity
  8
D-STR
100
AcDbLine
 10
2458.690165860534
 20
2457.116826470173
 30
0.0
 11
2458.690165860534
 21
2512.116926470173
 31
0.0
  0
LINE
  5
7C7
330
1F
100
AcDbEntity
  8
D-STR
100
AcDbLine
 10
3106.690262663833
 20
2664.616926470173
 30
0.0
 11
3106.690262663833
 21
2564.617026470173
 31
0.0
  0
LINE
  5
7C8
330
1F
100
AcDbEntity
  8
D-STR
100
AcDbLine
 10
3126.69036266383
 20
2634.616826470173
 30
0.0
 11
3126.69036266383
 21
2564.617026470173
 31
0.0
  0
LINE
  5
7C9
330
1F
100
AcDbEntity
  8
D-STR
100
AcDbLine
 10
3596.689862663836
 20
2664.616826470172
 30
0.0
 11
3156.690462663835
 21
2664.616826470172
 31
0.0
  0
LINE
  5
7CA
330
1F
100
AcDbEntity
  8
D-STR
100
AcDbLine
 10
3616.689962663833
 20
2694.616926470173
 30
0.0
 11
3136.69036266383
 21
2694.616926470173
 31
0.0
  0
ARC
  5
7CB
330
1F
100
AcDbEntity
  8
D-STR
100
AcDbCircle
 10
3596.689862663836
 20
2634.616826470173
 30
0.0
 40
29.999999
100
AcDbArc
 50
0.0
 51
90.0
  0
LINE
  5
7CC
330
1F
100
AcDbEntity
  8
D-STR
100
AcDbLine
 10
3646.690062663831
 20
2664.616926470173
 30
0.0
 11
3646.690062663831
 21
2564.617026470173
 31
0.0
  0
LINE
  5
7CD
330
1F
100
AcDbEntity
  8
D-STR
100
AcDbLine
 10
3626.689962663833
 20
2634.616826470173
 30
0.0
 11
3626.689962663833
 21
2564.617026470173
 31
0.0
  0
ARC
  5
7CE
330
1F
100
AcDbEntity
  8
D-STR
100
AcDbCircle
 10
3616.689962663833
 20
2664.616926470173
 30
0.0
 40
29.999999
100
AcDbArc
 50
0.0
 51
90.0
  0
LINE
  5
7CF
330
1F
100
AcDbEntity
  8
D-STR
100
AcDbLine
 10
4371.190165860535
 20
2558.616926470173
 30
0.0
 11
4366.190165860535
 21
2543.616926470173
 31
0.0
  0
LINE
  5
7D0
330
1F
100
AcDbEntity
  8
D-STR
100
AcDbLine
 10
4375.690165860535
 20
2424.617026470173
 30
0.0
 11
4375.690105860536
 21
2729.617086470172
 31
0.0
  0
LINE
  5
7D1
330
1F
100
AcDbEntity
  8
D-STR
100
AcDbLine
 10
4375.690165860535
 20
2512.116926470173
 30
0.0
 11
4294.690165860535
 21
2512.116926470173
 31
0.0
  0
LINE
  5
7D2
330
1F
100
AcDbEntity
  8
D-STR
100
AcDbLine
 10
4375.690165860535
 20
2467.116926470173
 30
0.0
 11
4297.690165860535
 21
2467.116926470173
 31
0.0
  0
LINE
  5
7D3
330
1F
100
AcDbEntity
  8
D-STR
100
AcDbLine
 10
4375.690165860535
 20
2507.116926470173
 30
0.0
 11
4297.690165860535
 21
2507.116926470173
 31
0.0
  0
LINE
  5
7D4
330
1F
100
AcDbEntity
  8
D-STR
100
AcDbLine
 10
4297.690165860535
 20
2467.116926470173
 30
0.0
 11
4297.690165860535
 21
2507.116926470173
 31
0.0
  0
LINE
  5
7D5
330
1F
100
AcDbEntity
  8
D-STR
100
AcDbLine
 10
4297.690165860535
 20
2507.116926470173
 30
0.0
 11
4294.690165860535
 21
2512.116926470173
 31
0.0
  0
CIRCLE
  5
7D6
330
1F
100
AcDbEntity
  8
D-STR
100
AcDbCircle
 10
4325.689965860532
 20
2484.616926470172
 30
0.0
 40
5.9999999
  0
LINE
  5
7D7
330
1F
100
AcDbEntity
  8
D-STR
100
AcDbLine
 10
4375.690165860535
 20
2539.616926470173
 30
0.0
 11
4366.190165860535
 21
2543.616926470173
 31
0.0
  0
LINE
  5
7D8
330
1F
100
AcDbEntity
  8
D-STR
100
AcDbLine
 10
4375.690165860535
 20
2457.116826470173
 30
0.0
 11
4294.690165860535
 21
2457.116826470173
 31
0.0
  0
LINE
  5
7D9
330
1F
100
AcDbEntity
  8
D-STR
100
AcDbLine
 10
4375.690165860535
 20
2424.617026470173
 30
0.0
 11
4365.690065860537
 21
2414.617026470173
 31
0.0
  0
LINE
  5
7DA
330
1F
100
AcDbEntity
  8
D-STR
100
AcDbLine
 10
4294.690165860535
 20
2457.116826470173
 30
0.0
 11
4294.690165860535
 21
2512.116926470173
 31
0.0
  0
LINE
  5
7DB
330
1F
100
AcDbEntity
  8
D-STR
100
AcDbLine
 10
4297.690165860535
 20
2467.116926470173
 30
0.0
 11
4294.690165860535
 21
2457.116826470173
 31
0.0
  0
LINE
  5
7DC
330
1F
100
AcDbEntity
  8
D-STR
100
AcDbLine
 10
4375.690105860536
 20
2729.617086470172
 30
0.0
 11
4366.190150860536
 21
2733.617076470172
 31
0.0
  0
LINE
  5
7DD
330
1F
100
AcDbEntity
  8
D-STR
100
AcDbLine
 10
4371.190165860535
 20
2748.617126470172
 30
0.0
 11
4366.190150860536
 21
2733.617076470172
 31
0.0
  0
LINE
  5
7DE
330
1F
100
AcDbEntity
  8
D-STR
100
AcDbLine
 10
4371.190165860535
 20
2748.617126470172
 30
0.0
 11
4371.190165860535
 21
2754.617126470172
 31
0.0
  0
LINE
  5
7DF
330
1F
100
AcDbEntity
  8
D-STR
100
AcDbLine
 10
4371.190165860535
 20
2558.616926470173
 30
0.0
 11
4371.190165860535
 21
2731.511802287309
 31
0.0
  0
MTEXT
  5
7E0
330
1F
100
AcDbEntity
  8
D-STR-TXT
370
    -3
100
AcDbMText
 10
2207.926091666551
 20
3374.06327258606
 30
0.0
 40
50.0
 41
0.0
 71
     5
 72
     1
  1
{\L水抜き}
 73
     1
 44
1.0
  0
MTEXT
  5
7E1
330
1F
100
AcDbEntity
  8
D-STR-TXT
370
    -3
100
AcDbMText
 10
2304.87929235299
 20
3300.981929044046
 30
0.0
 40
50.0
 41
0.0
 71
     5
 72
     1
  1
S=1/10
 73
     1
 44
1.0
  0
LINE
  5
7E2
330
1F
100
AcDbEntity
  8
D-STR-DIM
100
AcDbLine
 10
1800.86296846364
 20
4022.494217457697
 30
0.0
 11
3100.86296846364
 21
4022.494217457695
 31
0.0
  0
LINE
  5
7E3
330
1F
100
AcDbEntity
  8
D-STR-DIM
100
AcDbLine
 10
1800.86296846364
 20
3942.494217457696
 30
0.0
 11
3100.86296846364
 21
3942.494217457698
 31
0.0
  0
LINE
  5
7E4
330
1F
100
AcDbEntity
  8
D-STR-DIM
100
AcDbLine
 10
1800.86296846364
 20
3862.494217457696
 30
0.0
 11
3100.86296846364
 21
3862.494217457697
 31
0.0
  0
LINE
  5
7E5
330
1F
100
AcDbEntity
  8
D-STR-DIM
100
AcDbLine
 10
1800.86296846364
 20
3782.494217457696
 30
0.0
 11
3100.86296846364
 21
3782.494217457697
 31
0.0
  0
DIMENSION
  5
7E6
330
1F
100
AcDbEntity
  8
D-STR-DIM
 48
10.0
100
AcDbDimension
  2
*D29
 10
6096.838614561057
 20
2884.7933496915
 30
0.0
 11
6006.838781613875
 21
2909.7933496915
 31
0.0
 70
    32
 71
     5
 42
179.9996658943637
  3
STANDARD
100
AcDbAlignedDimension
 13
5916.838948666693
 23
2754.615411130601
 33
0.0
 14
6096.838614561057
 24
2754.615411130601
 34
0.0
100
AcDbRotatedDimension
  0
DIMENSION
  5
7E7
330
1F
100
AcDbEntity
  8
D-STR-DIM
 48
10.0
100
AcDbDimension
  2
*D30
 10
6266.838615960885
 20
3014.971388252399
 30
0.0
 11
6006.838705960887
 21
3039.971388252399
 31
0.0
 70
    32
 71
     5
 42
519.9998199999972
  3
STANDARD
100
AcDbAlignedDimension
 13
5746.838795960888
 23
2554.615311130601
 33
0.0
 14
6266.838615960885
 24
2564.615511130601
 34
0.0
100
AcDbRotatedDimension
  0
LINE
  5
7E8
330
1F
100
AcDbEntity
  8
D-STR
100
AcDbLine
 10
5943.988465960887
 20
2729.615411130601
 30
0.0
 11
6069.689015960888
 21
2729.615411130601
 31
0.0
  0
LINE
  5
7E9
330
1F
100
AcDbEntity
  8
D-STR
100
AcDbLine
 10
5943.988465960887
 20
2733.615411130601
 30
0.0
 11
6069.689015960888
 21
2733.615411130601
 31
0.0
  0
LINE
  5
7EA
330
1F
100
AcDbEntity
  8
D-STR
100
AcDbLine
 10
5943.988465960887
 20
2748.615411130601
 30
0.0
 11
6069.689015960888
 21
2748.615411130601
 31
0.0
  0
LINE
  5
7EB
330
1F
100
AcDbEntity
  8
D-STR
100
AcDbLine
 10
5943.980719993808
 20
2754.615411130601
 30
0.0
 11
6069.696761928011
 21
2754.615411130601
 31
0.0
  0
LINE
  5
7EC
330
1F
100
AcDbEntity
  8
D-STR
100
AcDbLine
 10
5746.838795960888
 20
2424.615511130602
 30
0.0
 11
6266.838615960885
 21
2424.615511130602
 31
0.0
  0
LINE
  5
7ED
330
1F
100
AcDbEntity
  8
D-STR
100
AcDbLine
 10
5746.838795960888
 20
2414.615511130601
 30
0.0
 11
6266.838615960885
 21
2414.615511130601
 31
0.0
  0
DIMENSION
  5
7EE
330
1F
100
AcDbEntity
  8
D-STR-DIM
 48
10.0
100
AcDbDimension
  2
*D31
 10
5896.838590960884
 20
2884.7933496915
 30
0.0
 11
5821.838693460886
 21
2909.7933496915
 31
0.0
 70
    32
 71
     5
 42
149.999794999996
  3
STANDARD
100
AcDbAlignedDimension
 13
5746.838795960888
 23
2554.615311130601
 33
0.0
 14
5896.838590960884
 24
2559.776222522283
 34
0.0
100
AcDbRotatedDimension
  0
DIMENSION
  5
7EF
330
1F
100
AcDbEntity
  8
D-STR-DIM
 48
10.0
100
AcDbDimension
  2
*D32
 10
5916.838948666693
 20
2884.7933496915
 30
0.0
 11
5906.838769813788
 21
2934.7933496915
 31
0.0
 70
    32
 71
     5
 42
20.00035770580871
  3
STANDARD
100
AcDbAlignedDimension
 13
5896.838590960884
 23
2559.776222522283
 33
0.0
 14
5916.838948666693
 24
2754.615411130601
 34
0.0
100
AcDbRotatedDimension
  0
DIMENSION
  5
7F0
330
1F
100
AcDbEntity
  8
D-STR-DIM
 48
10.0
100
AcDbDimension
  2
*D33
 10
5666.838795960888
 20
2554.615311130601
 30
0.0
 11
5641.838795960887
 21
2654.615361130602
 31
0.0
 70
    32
 71
     5
 42
200.0001000000001
  3
STANDARD
100
AcDbAlignedDimension
 13
5916.838948666693
 23
2754.615411130601
 33
0.0
 14
5746.838795960888
 24
2554.615311130601
 34
0.0
 50
90.0
100
AcDbRotatedDimension
  0
DIMENSION
  5
7F1
330
1F
100
AcDbEntity
  8
D-STR-DIM
 48
10.0
100
AcDbDimension
  2
*D34
 10
5562.419864430573
 20
2414.615511130601
 30
0.0
 11
5537.419864430571
 21
2584.615461130602
 31
0.0
 70
    32
 71
     5
 42
339.9998999999997
  3
STANDARD
100
AcDbAlignedDimension
 13
5916.838948666693
 23
2754.615411130601
 33
0.0
 14
5746.838795960888
 24
2414.615511130601
 34
0.0
 50
90.0
100
AcDbRotatedDimension
  0
ARC
  5
7F2
330
1F
100
AcDbEntity
  8
D-STR
100
AcDbCircle
 10
5892.594313915703
 20
2562.419348013769
 30
0.0
 40
5.0
100
AcDbArc
 50
271.1017538988296
 51
354.2893801816391
  0
ARC
  5
7F3
330
1F
100
AcDbEntity
  8
D-STR
100
AcDbCircle
 10
5892.594313915703
 20
2562.419348013769
 30
0.0
 40
11.0
100
AcDbArc
 50
271.1017538988296
 51
354.2893801816391
  0
LINE
  5
7F4
330
1F
100
AcDbEntity
  8
D-STR
100
AcDbLine
 10
5939.013374557741
 20
2725.112906571128
 30
0.0
 11
5920.590587391016
 21
2540.885901370835
 31
0.0
  0
LINE
  5
7F5
330
1F
100
AcDbEntity
  8
D-STR
100
AcDbLine
 10
5935.033225982246
 20
2725.510923300644
 30
0.0
 11
5916.610438815522
 21
2541.283918100351
 31
0.0
  0
DIMENSION
  5
7F6
330
1F
100
AcDbEntity
  8
D-STR-DIM
 48
10.0
100
AcDbDimension
  2
*D35
 10
5666.838795960888
 20
2414.615511130601
 30
0.0
 11
5641.838795960887
 21
2484.615411130602
 31
0.0
 70
    32
 71
     5
 42
139.9997999999996
  3
STANDARD
100
AcDbAlignedDimension
 13
5746.838795960888
 23
2554.615311130601
 33
0.0
 14
5746.838795960888
 24
2414.615511130601
 34
0.0
 50
90.0
100
AcDbRotatedDimension
  0
LINE
  5
7F7
330
1F
100
AcDbEntity
  8
D-STR
100
AcDbLine
 10
5751.337964018858
 20
2554.701837346863
 30
0.0
 11
5892.690454155999
 21
2557.420272393796
 31
0.0
  0
LINE
  5
7F8
330
1F
100
AcDbEntity
  8
D-STR
100
AcDbLine
 10
5746.838795960888
 20
2529.610611130602
 30
0.0
 11
5911.808289338318
 21
2532.783102584944
 31
0.0
  0
LINE
  5
7F9
330
1F
100
AcDbEntity
  8
D-STR
100
AcDbLine
 10
5746.838795960888
 20
2533.611511130601
 30
0.0
 11
5911.731384341802
 21
2536.7823632193
 31
0.0
  0
LINE
  5
7FA
330
1F
100
AcDbEntity
  8
D-STR
100
AcDbLine
 10
5746.838795960888
 20
2548.614111130601
 30
0.0
 11
5892.805822444344
 21
2551.421381649831
 31
0.0
  0
LINE
  5
7FB
330
1F
100
AcDbEntity
  8
D-STR
100
AcDbLine
 10
5762.838895960886
 20
2507.115411130601
 30
0.0
 11
5762.838895960886
 21
2467.115411130601
 31
0.0
  0
LINE
  5
7FC
330
1F
100
AcDbEntity
  8
D-STR
 48
15.0
100
AcDbLine
 10
5762.838895960886
 20
2507.115411130601
 30
0.0
 11
5746.838795960888
 21
2512.115411130601
 31
0.0
  0
LINE
  5
7FD
330
1F
100
AcDbEntity
  8
D-STR
100
AcDbLine
 10
5746.838795960888
 20
2550.115311130601
 30
0.0
 11
5751.337964018858
 21
2554.701837346863
 31
0.0
  0
ARC
  5
7FE
330
1F
100
AcDbEntity
  8
D-STR
100
AcDbCircle
 10
5911.635253096152
 20
2541.781439012245
 30
0.0
 40
5.0
100
AcDbArc
 50
271.1016508086995
 51
354.2893801816391
  0
ARC
  5
7FF
330
1F
100
AcDbEntity
  8
D-STR
100
AcDbCircle
 10
5911.635253096152
 20
2541.781439012245
 30
0.0
 40
9.0
100
AcDbArc
 50
271.1016508086995
 51
354.2893801816391
  0
LINE
  5
800
330
1F
100
AcDbEntity
  8
D-STR
100
AcDbLine
 10
5746.838795960888
 20
2550.115311130601
 30
0.0
 11
5746.838795960888
 21
2414.615511130601
 31
0.0
  0
LINE
  5
801
330
1F
100
AcDbEntity
  8
D-STR
 48
15.0
100
AcDbLine
 10
5762.838895960886
 20
2467.115411130601
 30
0.0
 11
5746.838795960888
 21
2457.115311130601
 31
0.0
  0
ARC
  5
802
330
1F
100
AcDbEntity
  8
D-STR
100
AcDbCircle
 10
5943.988465960887
 20
2724.615411130601
 30
0.0
 40
24.000001
100
AcDbArc
 50
90.0
 51
174.2893799999884
  0
ARC
  5
803
330
1F
100
AcDbEntity
  8
D-STR
100
AcDbCircle
 10
5943.988465960887
 20
2724.615411130601
 30
0.0
 40
30.000001
100
AcDbArc
 50
90.0
 51
174.2893799999884
  0
ARC
  5
804
330
1F
100
AcDbEntity
  8
D-STR
100
AcDbCircle
 10
5943.988465960887
 20
2724.615411130601
 30
0.0
 40
5.000001000000001
100
AcDbArc
 50
90.0
 51
174.2893799999884
  0
ARC
  5
805
330
1F
100
AcDbEntity
  8
D-STR
100
AcDbCircle
 10
5943.988465960887
 20
2724.615411130601
 30
0.0
 40
9.000001000000001
100
AcDbArc
 50
90.0
 51
174.2893799999884
  0
LINE
  5
806
330
1F
100
AcDbEntity
  8
D-STR
100
AcDbLine
 10
5920.10766882413
 20
2727.003486036327
 30
0.0
 11
5903.539722498317
 21
2561.3248020076
 31
0.0
  0
LINE
  5
807
330
1F
100
AcDbEntity
  8
D-STR
100
AcDbLine
 10
5914.14505356826
 20
2727.67658684649
 30
0.0
 11
5897.569499635072
 21
2561.921827101874
 31
0.0
  0
DIMENSION
  5
808
330
1F
100
AcDbEntity
  8
D-STR-DIM
 48
10.0
100
AcDbDimension
  2
*D36
 10
6266.838590960884
 20
2884.7933496915
 30
0.0
 11
6191.838740960884
 21
2909.7933496915
 31
0.0
 70
    32
 71
     5
 42
149.9997000000003
  3
STANDARD
100
AcDbAlignedDimension
 13
6116.838890960884
 23
2563.562145482754
 33
0.0
 14
6266.838590960884
 24
2734.615511130602
 34
0.0
100
AcDbRotatedDimension
  0
DIMENSION
  5
809
330
1F
100
AcDbEntity
  8
D-STR-DIM
 48
10.0
100
AcDbDimension
  2
*D37
 10
6116.838890960884
 20
2884.7933496915
 30
0.0
 11
6106.83875276097
 21
2934.7933496915
 31
0.0
 70
    32
 71
     5
 42
20.00027639982727
  3
STANDARD
100
AcDbAlignedDimension
 13
6096.838614561057
 23
2754.615411130601
 33
0.0
 14
6116.838890960884
 24
2563.562145482754
 34
0.0
100
AcDbRotatedDimension
  0
LINE
  5
80A
330
1F
100
AcDbEntity
  8
D-STR
100
AcDbLine
 10
6620.338774100564
 20
2754.615901130652
 30
0.0
 11
7009.838674100523
 21
2754.615719967856
 31
0.0
  0
DIMENSION
  5
80B
330
1F
100
AcDbEntity
  8
D-STR-DIM
 48
10.0
100
AcDbDimension
  2
*D38
 10
6451.257547491201
 20
2414.615511130601
 30
0.0
 11
6426.2575474912
 21
2584.615461130602
 31
0.0
 70
    32
 71
     5
 42
339.9998999999997
  3
STANDARD
100
AcDbAlignedDimension
 13
6096.838614561057
 23
2754.615411130601
 33
0.0
 14
6266.838615960885
 24
2414.615511130601
 34
0.0
 50
90.0
100
AcDbRotatedDimension
  0
DIMENSION
  5
80C
330
1F
100
AcDbEntity
  8
D-STR-DIM
 48
10.0
100
AcDbDimension
  2
*D39
 10
6346.838615960885
 20
2414.615511130601
 30
0.0
 11
6321.838615960885
 21
2489.615511130602
 31
0.0
 70
    32
 71
     5
 42
150.0
  3
STANDARD
100
AcDbAlignedDimension
 13
6266.838615960885
 23
2564.615511130601
 33
0.0
 14
6266.838615960885
 24
2414.615511130601
 34
0.0
 50
90.0
100
AcDbRotatedDimension
  0
LINE
  5
80D
330
1F
100
AcDbEntity
  8
D-STR
100
AcDbLine
 10
6620.338615960936
 20
2558.615698572502
 30
0.0
 11
6625.338615960936
 21
2543.615698572502
 31
0.0
  0
LINE
  5
80E
330
1F
100
AcDbEntity
  8
D-STR
100
AcDbLine
 10
6615.838615960936
 20
2424.615798572502
 30
0.0
 11
6615.838675960943
 21
2729.6158585725
 31
0.0
  0
ARC
  5
80F
330
1F
100
AcDbEntity
  8
D-STR
100
AcDbCircle
 10
6120.644674379043
 20
2566.804985684499
 30
0.0
 40
11.0
100
AcDbArc
 50
185.7106170759753
 51
271.1017170776197
  0
LINE
  5
810
330
1F
100
AcDbEntity
  8
D-STR
100
AcDbLine
 10
6120.856175839835
 20
2555.807019184638
 30
0.0
 11
6266.838615960885
 21
2558.614211130601
 31
0.0
  0
LINE
  5
811
330
1F
100
AcDbEntity
  8
D-STR
100
AcDbLine
 10
6266.838615960885
 20
2560.115511130601
 30
0.0
 11
6266.838615960885
 21
2414.615511130601
 31
0.0
  0
LINE
  5
812
330
1F
100
AcDbEntity
  8
D-STR
100
AcDbLine
 10
6074.66418724497
 20
2725.112907761781
 30
0.0
 11
6092.721490059208
 21
2544.540641604449
 31
0.0
  0
LINE
  5
813
330
1F
100
AcDbEntity
  8
D-STR
100
AcDbLine
 10
6078.644335839519
 20
2725.510924300792
 30
0.0
 11
6096.701638653751
 21
2544.938658143461
 31
0.0
  0
LINE
  5
814
330
1F
100
AcDbEntity
  8
D-STR
100
AcDbLine
 10
6250.838515960888
 20
2507.115411130601
 30
0.0
 11
6250.838515960888
 21
2467.115411130601
 31
0.0
  0
LINE
  5
815
330
1F
100
AcDbEntity
  8
D-STR
 48
15.0
100
AcDbLine
 10
6250.838515960888
 20
2507.115411130601
 30
0.0
 11
6266.838615960885
 21
2512.115411130601
 31
0.0
  0
LINE
  5
816
330
1F
100
AcDbEntity
  8
D-STR
100
AcDbLine
 10
6101.772959513997
 20
2540.437103098728
 30
0.0
 11
6266.838615960885
 21
2543.611411130601
 31
0.0
  0
LINE
  5
817
330
1F
100
AcDbEntity
  8
D-STR
100
AcDbLine
 10
6101.849867607649
 20
2536.43784252393
 30
0.0
 11
6266.838615960885
 21
2539.610811130601
 31
0.0
  0
ARC
  5
818
330
1F
100
AcDbEntity
  8
D-STR
100
AcDbCircle
 10
6101.676824396935
 20
2545.436178817224
 30
0.0
 40
5.0
100
AcDbArc
 50
185.7106170759753
 51
271.101695179989
  0
ARC
  5
819
330
1F
100
AcDbEntity
  8
D-STR
100
AcDbCircle
 10
6101.676824396935
 20
2545.436178817224
 30
0.0
 40
9.0
100
AcDbArc
 50
185.7106170759753
 51
271.101695179989
  0
LINE
  5
81A
330
1F
100
AcDbEntity
  8
D-STR
 48
15.0
100
AcDbLine
 10
6250.838515960888
 20
2467.115411130601
 30
0.0
 11
6266.838615960885
 21
2457.115311130601
 31
0.0
  0
LINE
  5
81B
330
1F
100
AcDbEntity
  8
D-STR
100
AcDbLine
 10
6693.838615960936
 20
2507.115698572502
 30
0.0
 11
6696.838615960936
 21
2512.115698572502
 31
0.0
  0
LINE
  5
81C
330
1F
100
AcDbEntity
  8
D-STR
100
AcDbLine
 10
6615.838615960936
 20
2512.115698572502
 30
0.0
 11
6696.838615960936
 21
2512.115698572502
 31
0.0
  0
LINE
  5
81D
330
1F
100
AcDbEntity
  8
D-STR
100
AcDbLine
 10
6615.838615960936
 20
2507.115698572502
 30
0.0
 11
6693.838615960936
 21
2507.115698572502
 31
0.0
  0
CIRCLE
  5
81E
330
1F
100
AcDbEntity
  8
D-STR
100
AcDbCircle
 10
6665.838715960942
 20
2484.615698572502
 30
0.0
 40
5.9999999
  0
LINE
  5
81F
330
1F
100
AcDbEntity
  8
D-STR
100
AcDbLine
 10
6615.838615960936
 20
2467.115698572502
 30
0.0
 11
6693.838615960936
 21
2467.115698572502
 31
0.0
  0
LINE
  5
820
330
1F
100
AcDbEntity
  8
D-STR
100
AcDbLine
 10
6693.838615960936
 20
2467.115698572502
 30
0.0
 11
6693.838615960936
 21
2507.115698572502
 31
0.0
  0
LINE
  5
821
330
1F
100
AcDbEntity
  8
D-STR
100
AcDbLine
 10
6615.838615960936
 20
2539.615698572502
 30
0.0
 11
6625.338615960936
 21
2543.615698572502
 31
0.0
  0
LINE
  5
822
330
1F
100
AcDbEntity
  8
D-STR
100
AcDbLine
 10
6615.838715960942
 20
2424.615798572502
 30
0.0
 11
6625.838715960941
 21
2414.615798572502
 31
0.0
  0
LINE
  5
823
330
1F
100
AcDbEntity
  8
D-STR
100
AcDbLine
 10
6615.838615960936
 20
2457.115598572501
 30
0.0
 11
6696.838615960936
 21
2457.115598572501
 31
0.0
  0
LINE
  5
824
330
1F
100
AcDbEntity
  8
D-STR
100
AcDbLine
 10
6693.838615960936
 20
2467.115698572502
 30
0.0
 11
6696.838615960936
 21
2457.115598572501
 31
0.0
  0
LINE
  5
825
330
1F
100
AcDbEntity
  8
D-STR
100
AcDbLine
 10
6696.838615960936
 20
2457.115598572501
 30
0.0
 11
6696.838615960936
 21
2512.115698572502
 31
0.0
  0
DIMENSION
  5
826
330
1F
100
AcDbEntity
  8
D-STR-DIM
 48
10.0
100
AcDbDimension
  2
*D40
 10
6346.838615960885
 20
2564.615511130601
 30
0.0
 11
6346.838615960885
 21
2659.615461630602
 31
0.0
 70
   160
 71
     5
 42
189.9998999999997
  3
STANDARD
100
AcDbAlignedDimension
 13
6096.838614561057
 23
2754.615411130601
 33
0.0
 14
6266.838615960885
 24
2564.615511130601
 34
0.0
 50
90.0
100
AcDbRotatedDimension
1001
ACAD
1000
DSTYLE
1002
{
1070
   279
1070
     1
1002
}
  0
ARC
  5
827
330
1F
100
AcDbEntity
  8
D-STR
100
AcDbCircle
 10
6069.689015960888
 20
2724.615411130601
 30
0.0
 40
24.000001
100
AcDbArc
 50
5.710616999992804
 51
90.0
  0
ARC
  5
828
330
1F
100
AcDbEntity
  8
D-STR
100
AcDbCircle
 10
6069.689015960888
 20
2724.615411130601
 30
0.0
 40
30.000001
100
AcDbArc
 50
5.710616999992804
 51
90.0
  0
ARC
  5
829
330
1F
100
AcDbEntity
  8
D-STR
100
AcDbCircle
 10
6069.689015960888
 20
2724.615411130601
 30
0.0
 40
5.000001000000001
100
AcDbArc
 50
5.710616999992804
 51
90.0
  0
ARC
  5
82A
330
1F
100
AcDbEntity
  8
D-STR
100
AcDbCircle
 10
6069.689015960888
 20
2724.615411130601
 30
0.0
 40
9.000001000000001
100
AcDbArc
 50
5.710616999992804
 51
90.0
  0
ARC
  5
82B
330
1F
100
AcDbEntity
  8
D-STR
100
AcDbCircle
 10
6120.644674379043
 20
2566.804985684499
 30
0.0
 40
5.0
100
AcDbArc
 50
185.7106170759753
 51
271.1017170776197
  0
LINE
  5
82C
330
1F
100
AcDbEntity
  8
D-STR
100
AcDbLine
 10
6120.740811406679
 20
2561.805910002744
 30
0.0
 11
6262.339447847306
 21
2564.528987805731
 31
0.0
  0
LINE
  5
82D
330
1F
100
AcDbEntity
  8
D-STR
100
AcDbLine
 10
6266.838615960885
 20
2560.115511130601
 30
0.0
 11
6262.339447847306
 21
2564.528987805731
 31
0.0
  0
LINE
  5
82E
330
1F
100
AcDbEntity
  8
D-STR
100
AcDbLine
 10
6093.569893069063
 20
2727.003486322084
 30
0.0
 11
6109.699265744042
 21
2565.710440202218
 31
0.0
  0
LINE
  5
82F
330
1F
100
AcDbEntity
  8
D-STR
100
AcDbLine
 10
6099.536863759313
 20
2727.633033009173
 30
0.0
 11
6115.66948863586
 21
2566.307465010735
 31
0.0
  0
LINE
  5
830
330
1F
100
AcDbEntity
  8
D-STR
100
AcDbLine
 10
6620.338615960936
 20
2748.615898572501
 30
0.0
 11
6625.338630960941
 21
2733.615848572501
 31
0.0
  0
LINE
  5
831
330
1F
100
AcDbEntity
  8
D-STR
100
AcDbLine
 10
6615.838675960943
 20
2729.6158585725
 30
0.0
 11
6625.338630960941
 21
2733.615848572501
 31
0.0
  0
LINE
  5
832
330
1F
100
AcDbEntity
  8
D-STR
100
AcDbLine
 10
6620.338615960936
 20
2748.615898572501
 30
0.0
 11
6620.338615960936
 21
2754.615898572501
 31
0.0
  0
LINE
  5
833
330
1F
100
AcDbEntity
  8
D-STR
100
AcDbLine
 10
6620.338615960936
 20
2558.615698572502
 30
0.0
 11
6620.338615960936
 21
2731.510574389638
 31
0.0
  0
MTEXT
  5
834
330
1F
100
AcDbEntity
  8
D-STR-TXT
370
    -3
100
AcDbMText
 10
6507.074544963602
 20
3374.061757246489
 30
0.0
 40
50.0
 41
0.0
 71
     5
 72
     1
  1
{\L1型（右下がり）}
 73
     1
 44
1.0
  0
MTEXT
  5
835
330
1F
100
AcDbEntity
  8
D-STR-TXT
370
    -3
100
AcDbMText
 10
6604.02774565004
 20
3300.980413704474
 30
0.0
 40
50.0
 41
0.0
 71
     5
 72
     1
  1
S=1/10
 73
     1
 44
1.0
  0
LINE
  5
836
330
1F
100
AcDbEntity
  8
D-STR
100
AcDbLine
 10
7654.492783539193
 20
868.7142129569444
 30
0.0
 11
7644.49268353919
 21
858.7142129569445
 31
0.0
  0
LINE
  5
837
330
1F
100
AcDbEntity
  8
D-STR
100
AcDbLine
 10
7649.992783539186
 20
1002.714112956944
 30
0.0
 11
7649.992783539186
 21
1028.714112956944
 31
0.0
  0
LINE
  5
838
330
1F
100
AcDbEntity
  8
D-STR
100
AcDbLine
 10
7649.992783539186
 20
1002.714112956944
 30
0.0
 11
7644.992783539186
 21
987.7141129569443
 31
0.0
  0
LINE
  5
839
330
1F
100
AcDbEntity
  8
D-STR
100
AcDbLine
 10
7654.492783539186
 20
983.7141129569443
 30
0.0
 11
7644.992783539186
 21
987.7141129569443
 31
0.0
  0
LINE
  5
83A
330
1F
100
AcDbEntity
  8
D-STR
100
AcDbLine
 10
7649.992904469421
 20
1022.714115049917
 30
0.0
 11
7644.992889469424
 21
1007.714065049916
 31
0.0
  0
LINE
  5
83B
330
1F
100
AcDbEntity
  8
D-STR
100
AcDbLine
 10
7654.492844469423
 20
1003.714075049916
 30
0.0
 11
7644.992889469424
 21
1007.714065049916
 31
0.0
  0
LINE
  5
83C
330
1F
100
AcDbEntity
  8
D-STR
100
AcDbLine
 10
7579.492783539193
 20
911.2141129569442
 30
0.0
 11
7579.492783539193
 21
951.2141129569442
 31
0.0
  0
LINE
  5
83D
330
1F
100
AcDbEntity
  8
D-STR
100
AcDbLine
 10
7579.492783539193
 20
951.2141129569442
 30
0.0
 11
7576.492783539194
 21
956.2141129569443
 31
0.0
  0
LINE
  5
83E
330
1F
100
AcDbEntity
  8
D-STR
100
AcDbLine
 10
7576.492783539194
 20
901.2140129569441
 30
0.0
 11
7576.492783539194
 21
956.2141129569443
 31
0.0
  0
LINE
  5
83F
330
1F
100
AcDbEntity
  8
D-STR
100
AcDbLine
 10
7579.492783539193
 20
911.2141129569442
 30
0.0
 11
7576.492783539194
 21
901.2140129569441
 31
0.0
  0
CIRCLE
  5
840
330
1F
100
AcDbEntity
  8
D-STR
100
AcDbCircle
 10
7604.492583539183
 20
928.7141129569443
 30
0.0
 40
5.9999999
  0
LINE
  5
841
330
1F
100
AcDbEntity
  8
D-STR
100
AcDbLine
 10
7654.492783539193
 20
956.2141129569443
 30
0.0
 11
7576.492783539194
 21
956.2141129569443
 31
0.0
  0
LINE
  5
842
330
1F
100
AcDbEntity
  8
D-STR
100
AcDbLine
 10
7654.492783539193
 20
951.2141129569442
 30
0.0
 11
7579.492783539193
 21
951.2141129569442
 31
0.0
  0
LINE
  5
843
330
1F
100
AcDbEntity
  8
D-STR
100
AcDbLine
 10
7654.492783539193
 20
911.2141129569442
 30
0.0
 11
7579.492783539193
 21
911.2141129569442
 31
0.0
  0
LINE
  5
844
330
1F
100
AcDbEntity
  8
D-STR
100
AcDbLine
 10
7654.492783539193
 20
901.2140129569441
 30
0.0
 11
7576.492783539194
 21
901.2140129569441
 31
0.0
  0
LINE
  5
845
330
1F
100
AcDbEntity
  8
D-STR
100
AcDbLine
 10
7654.492783539186
 20
868.7142129569444
 30
0.0
 11
7654.492844469423
 21
1003.714075049916
 31
0.0
  0
LINE
  5
846
330
1F
100
AcDbEntity
  8
D-STR
100
AcDbLine
 10
7609.33878293755
 20
2558.615241130499
 30
0.0
 11
7604.338775960801
 21
2543.615243456082
 31
0.0
  0
LINE
  5
847
330
1F
100
AcDbEntity
  8
D-STR
100
AcDbLine
 10
7613.838620611997
 20
2424.615339037536
 30
0.0
 11
7613.83873503057
 21
2559.615201130496
 31
0.0
  0
LINE
  5
848
330
1F
100
AcDbEntity
  8
D-STR
100
AcDbLine
 10
7613.838661309637
 20
2512.115239037526
 30
0.0
 11
7535.838761309642
 21
2512.11527531656
 31
0.0
  0
LINE
  5
849
330
1F
100
AcDbEntity
  8
D-STR
100
AcDbLine
 10
7613.8386403794
 20
2467.115239037532
 30
0.0
 11
7538.838640379407
 21
2467.115273921262
 31
0.0
  0
LINE
  5
84A
330
1F
100
AcDbEntity
  8
D-STR
100
AcDbLine
 10
7613.838658984052
 20
2507.115239037527
 30
0.0
 11
7538.838658984066
 21
2507.115273921257
 31
0.0
  0
LINE
  5
84B
330
1F
100
AcDbEntity
  8
D-STR
100
AcDbLine
 10
7538.838640379407
 20
2467.115273921262
 30
0.0
 11
7538.838658984066
 21
2507.115273921257
 31
0.0
  0
LINE
  5
84C
330
1F
100
AcDbEntity
  8
D-STR
100
AcDbLine
 10
7538.838658984066
 20
2507.115273921257
 30
0.0
 11
7535.838761309642
 21
2512.11527531656
 31
0.0
  0
CIRCLE
  5
84D
330
1F
100
AcDbEntity
  8
D-STR
100
AcDbCircle
 10
7563.838548518936
 20
2484.615262293397
 30
0.0
 40
5.9999999
  0
LINE
  5
84E
330
1F
100
AcDbEntity
  8
D-STR
100
AcDbLine
 10
7613.838674100334
 20
2539.615239037524
 30
0.0
 11
7604.338775960801
 21
2543.615243456082
 31
0.0
  0
LINE
  5
84F
330
1F
100
AcDbEntity
  8
D-STR
100
AcDbLine
 10
7613.838635728185
 20
2457.115139037532
 30
0.0
 11
7535.838735728197
 21
2457.115175316566
 31
0.0
  0
LINE
  5
850
330
1F
100
AcDbEntity
  8
D-STR
100
AcDbLine
 10
7613.838620611997
 20
2424.615339037536
 30
0.0
 11
7603.838615960835
 21
2414.615343688701
 31
0.0
  0
LINE
  5
851
330
1F
100
AcDbEntity
  8
D-STR
100
AcDbLine
 10
7535.838735728197
 20
2457.115175316566
 30
0.0
 11
7535.838761309642
 21
2512.11527531656
 31
0.0
  0
LINE
  5
852
330
1F
100
AcDbEntity
  8
D-STR
100
AcDbLine
 10
7538.838640379407
 20
2467.115273921262
 30
0.0
 11
7535.838735728197
 21
2457.115175316566
 31
0.0
  0
LINE
  5
853
330
1F
100
AcDbEntity
  8
D-STR
100
AcDbLine
 10
7609.33878293755
 20
2558.615241130499
 30
0.0
 11
7609.338795030577
 21
2584.615241130497
 31
0.0
  0
LINE
  5
854
330
1F
100
AcDbEntity
  8
D-STR
100
AcDbLine
 10
7613.83873503057
 20
2559.615201130496
 30
0.0
 11
7604.338780030572
 21
2563.615191130497
 31
0.0
  0
LINE
  5
855
330
1F
100
AcDbEntity
  8
D-STR
100
AcDbLine
 10
7609.338795030577
 20
2578.615241130497
 30
0.0
 11
7604.338780030572
 21
2563.615191130497
 31
0.0
  0
DIMENSION
  5
856
330
1F
100
AcDbEntity
  8
D-STR-DIM
 48
10.0
100
AcDbDimension
  2
*D41
 10
4523.128225167398
 20
5176.744305770206
 30
0.0
 11
4513.128046314494
 21
5226.744305770207
 31
0.0
 70
    32
 71
     5
 42
20.00035770580871
  3
STANDARD
100
AcDbAlignedDimension
 13
4503.127867461589
 23
4851.72717860099
 33
0.0
 14
4523.128225167398
 24
5046.566367209308
 34
0.0
100
AcDbRotatedDimension
  0
DIMENSION
  5
857
330
1F
100
AcDbEntity
  8
D-STR-DIM
 48
10.0
100
AcDbDimension
  2
*D42
 10
4873.127892461591
 20
5306.922344331105
 30
0.0
 11
4613.127982461592
 21
5331.922344331106
 31
0.0
 70
    32
 71
     5
 42
519.9998199999972
  3
STANDARD
100
AcDbAlignedDimension
 13
4353.128072461593
 23
4846.566267209309
 33
0.0
 14
4873.127892461591
 24
4856.566467209309
 34
0.0
100
AcDbRotatedDimension
  0
DIMENSION
  5
858
330
1F
100
AcDbEntity
  8
D-STR-DIM
 48
10.0
100
AcDbDimension
  2
*D43
 10
4703.127891061762
 20
5176.744305770206
 30
0.0
 11
4613.12805811458
 21
5201.744305770207
 31
0.0
 70
    32
 71
     5
 42
179.9996658943637
  3
STANDARD
100
AcDbAlignedDimension
 13
4523.128225167398
 23
5046.566367209308
 33
0.0
 14
4703.127891061762
 24
5046.566367209308
 34
0.0
100
AcDbRotatedDimension
  0
LINE
  5
859
330
1F
100
AcDbEntity
  8
D-STR
100
AcDbLine
 10
4550.277742461607
 20
5021.56636720931
 30
0.0
 11
4675.978292461608
 21
5021.56636720931
 31
0.0
  0
LINE
  5
85A
330
1F
100
AcDbEntity
  8
D-STR
100
AcDbLine
 10
4550.277742461607
 20
5025.56636720931
 30
0.0
 11
4675.978292461608
 21
5025.56636720931
 31
0.0
  0
LINE
  5
85B
330
1F
100
AcDbEntity
  8
D-STR
100
AcDbLine
 10
4550.277742461607
 20
5040.56636720931
 30
0.0
 11
4675.978292461608
 21
5040.56636720931
 31
0.0
  0
LINE
  5
85C
330
1F
100
AcDbEntity
  8
D-STR
100
AcDbLine
 10
4550.277742461607
 20
5046.56636720931
 30
0.0
 11
4675.978292461608
 21
5046.56636720931
 31
0.0
  0
LINE
  5
85D
330
1F
100
AcDbEntity
  8
D-STR
100
AcDbLine
 10
4353.128072461608
 20
4716.566467209309
 30
0.0
 11
4873.127892461613
 21
4716.566467209309
 31
0.0
  0
LINE
  5
85E
330
1F
100
AcDbEntity
  8
D-STR
100
AcDbLine
 10
4353.128072461608
 20
4706.566467209309
 30
0.0
 11
4873.127892461613
 21
4706.566467209309
 31
0.0
  0
DIMENSION
  5
85F
330
1F
100
AcDbEntity
  8
D-STR-DIM
100
AcDbDimension
  2
*D44
 10
2726.235626955815
 20
4893.395727624429
 30
0.0
 11
2441.23571695581
 21
4918.39572762443
 31
0.0
 70
    32
 71
     5
 42
569.9998200000082
  3
S10
100
AcDbAlignedDimension
 13
2156.235806955807
 23
5043.39572762443
 33
0.0
 14
2726.235626955815
 24
5043.39572762443
 34
0.0
100
AcDbRotatedDimension
  0
DIMENSION
  5
860
330
1F
100
AcDbEntity
  8
D-STR-DIM
 48
10.0
100
AcDbDimension
  2
*D45
 10
4088.709140931292
 20
4706.566467209309
 30
0.0
 11
4063.709140931292
 21
4876.56641720931
 31
0.0
 70
    32
 71
     5
 42
339.9998999999997
  3
STANDARD
100
AcDbAlignedDimension
 13
4523.128225167398
 23
5046.566367209308
 33
0.0
 14
4353.128072461615
 24
4706.566467209309
 34
0.0
 50
90.0
100
AcDbRotatedDimension
  0
DIMENSION
  5
861
330
1F
100
AcDbEntity
  8
D-STR-DIM
 48
10.0
100
AcDbDimension
  2
*D46
 10
4193.128072461615
 20
4846.566267209309
 30
0.0
 11
4168.128072461614
 21
4946.56631720931
 31
0.0
 70
    32
 71
     5
 42
200.0001000000001
  3
STANDARD
100
AcDbAlignedDimension
 13
4523.128225167398
 23
5046.566367209308
 33
0.0
 14
4353.128072461593
 24
4846.566267209309
 34
0.0
 50
90.0
100
AcDbRotatedDimension
  0
DIMENSION
  5
862
330
1F
100
AcDbEntity
  8
D-STR-DIM
  6
Continuous
 48
10.0
100
AcDbDimension
  2
*D47
 10
4258.128072461601
 20
4956.566267209308
 30
0.0
 11
4233.1280724616
 21
4901.566267209309
 31
0.0
 70
    32
 71
     5
 42
110.0
  3
STANDARD
100
AcDbAlignedDimension
 13
4353.128072461593
 23
4846.566267209309
 33
0.0
 14
4514.12814246161
 24
4956.566267209308
 34
0.0
 50
90.0
100
AcDbRotatedDimension
  0
DIMENSION
  5
863
330
1F
100
AcDbEntity
  8
D-STR-DIM
 48
10.0
100
AcDbDimension
  2
*D48
 10
4503.127867461589
 20
5176.744305770206
 30
0.0
 11
4428.127969961591
 21
5201.744305770207
 31
0.0
 70
    32
 71
     5
 42
149.999794999996
  3
STANDARD
100
AcDbAlignedDimension
 13
4353.128072461593
 23
4846.566267209309
 33
0.0
 14
4503.127867461589
 24
4851.72717860099
 34
0.0
100
AcDbRotatedDimension
  0
LINE
  5
864
330
1F
100
AcDbEntity
  8
D-STR
100
AcDbLine
 10
4526.396945324857
 20
5018.954442115036
 30
0.0
 11
4509.828998999044
 21
4853.275758086309
 31
0.0
  0
LINE
  5
865
330
1F
100
AcDbEntity
  8
D-STR
100
AcDbLine
 10
4520.426722461612
 20
5019.55146720931
 30
0.0
 11
4503.858776135799
 21
4853.872783180583
 31
0.0
  0
LINE
  5
866
330
1F
100
AcDbEntity
  8
D-STR
100
AcDbLine
 10
4545.30265105846
 20
5017.063862649836
 30
0.0
 11
4526.879863891743
 21
4832.836857449542
 31
0.0
  0
LINE
  5
867
330
1F
100
AcDbEntity
  8
D-STR
100
AcDbLine
 10
4541.322502482966
 20
5017.461879379351
 30
0.0
 11
4522.899715316241
 21
4833.234874179058
 31
0.0
  0
MTEXT
  5
868
330
1F
100
AcDbEntity
  8
D-STR-DIM
100
AcDbMText
 10
1869.960524176735
 20
4476.034212558794
 30
0.0
 40
30.0
 41
0.0
 71
     5
 72
     1
  1
材料表
 73
     1
 44
1.0
  0
MTEXT
  5
869
330
1F
100
AcDbEntity
  8
D-STR-DIM
100
AcDbMText
 10
3009.752878690385
 20
4476.034212558794
 30
0.0
 40
30.0
 41
0.0
 71
     5
 72
     1
  1
10m当り
 73
     1
 44
1.0
  0
LINE
  5
86A
330
1F
100
AcDbEntity
  8
D-STR-DIM
100
AcDbLine
 10
1800.86296846364
 20
4442.494217457696
 30
0.0
 11
3100.86296846364
 21
4442.494217457696
 31
0.0
  0
LINE
  5
86B
330
1F
100
AcDbEntity
  8
D-STR-DIM
100
AcDbLine
 10
1800.86296846364
 20
4342.494217457696
 30
0.0
 11
3100.86296846364
 21
4342.494217457696
 31
0.0
  0
LINE
  5
86C
330
1F
100
AcDbEntity
  8
D-STR-DIM
100
AcDbLine
 10
1800.86296846364
 20
4262.494217457696
 30
0.0
 11
3100.86296846364
 21
4262.494217457696
 31
0.0
  0
LINE
  5
86D
330
1F
100
AcDbEntity
  8
D-STR-DIM
100
AcDbLine
 10
1800.86296846364
 20
4182.494217457696
 30
0.0
 11
3100.86296846364
 21
4182.494217457696
 31
0.0
  0
LINE
  5
86E
330
1F
100
AcDbEntity
  8
D-STR-DIM
100
AcDbLine
 10
1800.86296846364
 20
4102.494217457696
 30
0.0
 11
3100.86296846364
 21
4102.494217457696
 31
0.0
  0
MTEXT
  5
86F
330
1F
100
AcDbEntity
  8
D-STR-DIM
100
AcDbMText
 10
1950.86296846364
 20
4222.494217457696
 30
0.0
 40
30.0
 41
0.0
 71
     5
 72
     1
  1
敷モルタル
 73
     1
 44
1.0
  0
MTEXT
  5
870
330
1F
100
AcDbEntity
  8
D-STR-DIM
100
AcDbMText
 10
1950.86296846364
 20
4142.494217457696
 30
0.0
 40
30.0
 41
0.0
 71
     5
 72
     1
  1
基礎材
 73
     1
 44
1.0
  0
MTEXT
  5
871
330
1F
100
AcDbEntity
  8
D-STR-DIM
100
AcDbMText
 10
2250.86296846364
 20
4222.494217457696
 30
0.0
 40
30.0
 41
0.0
 71
     5
 72
     1
  1
C:S=1:3
 73
     1
 44
1.0
  0
MTEXT
  5
872
330
1F
100
AcDbEntity
  8
D-STR-DIM
100
AcDbMText
 10
2250.86296846364
 20
4142.494217457696
 30
0.0
 40
30.0
 41
0.0
 71
     5
 72
     1
  1
RC-40
 73
     1
 44
1.0
  0
MTEXT
  5
873
330
1F
100
AcDbEntity
  8
D-STR-DIM
100
AcDbMText
 10
1950.86296846364
 20
4302.494217457696
 30
0.0
 40
30.0
 41
0.0
 71
     5
 72
     1
  1
ベース付歩車道境界ブロック
  7
ｽﾀｲﾙ1
 73
     1
 44
1.0
  0
MTEXT
  5
874
330
1F
100
AcDbEntity
  8
D-STR-DIM
100
AcDbMText
 10
1950.86296846364
 20
4392.494217457696
 30
0.0
 40
30.0
 41
0.0
 71
     5
 72
     1
  1
名　称
 73
     1
 44
1.0
  0
MTEXT
  5
875
330
1F
100
AcDbEntity
  8
D-STR-DIM
100
AcDbMText
 10
2250.86296846364
 20
4392.494217457696
 30
0.0
 40
30.0
 41
0.0
 71
     5
 72
     1
  1
規　格
 73
     1
 44
1.0
  0
MTEXT
  5
876
330
1F
100
AcDbEntity
  8
D-STR-DIM
100
AcDbMText
 10
2250.86296846364
 20
4302.494217457696
 30
0.0
 40
30.0
 41
0.0
 71
     5
 72
     1
  1
標準
 73
     1
 44
1.0
  0
MTEXT
  5
877
330
1F
100
AcDbEntity
  8
D-STR-DIM
100
AcDbMText
 10
2450.86296846364
 20
4222.494217457696
 30
0.0
 40
30.0
 41
0.0
 71
     5
 72
     1
  1
m3
 73
     1
 44
1.0
  0
MTEXT
  5
878
330
1F
100
AcDbEntity
  8
D-STR-DIM
100
AcDbMText
 10
2650.86296846364
 20
4222.494217457696
 30
0.0
 40
30.0
 41
0.0
 71
     5
 72
     1
  1
0.1
 73
     1
 44
1.0
  0
MTEXT
  5
879
330
1F
100
AcDbEntity
  8
D-STR-DIM
100
AcDbMText
 10
2450.86296846364
 20
4142.494217457696
 30
0.0
 40
30.0
 41
0.0
 71
     5
 72
     1
  1
m3
 73
     1
 44
1.0
  0
MTEXT
  5
87A
330
1F
100
AcDbEntity
  8
D-STR-DIM
100
AcDbMText
 10
2650.86296846364
 20
4142.494217457696
 30
0.0
 40
30.0
 41
0.0
 71
     5
 72
     1
  1
5.7
 73
     1
 44
1.0
  0
MTEXT
  5
87B
330
1F
100
AcDbEntity
  8
D-STR-DIM
100
AcDbMText
 10
2450.86296846364
 20
4392.494217457696
 30
0.0
 40
30.0
 41
0.0
 71
     5
 72
     1
  1
単位
 73
     1
 44
1.0
  0
MTEXT
  5
87C
330
1F
100
AcDbEntity
  8
D-STR-DIM
100
AcDbMText
 10
2650.86296846364
 20
4392.494217457696
 30
0.0
 40
30.0
 41
0.0
 71
     5
 72
     1
  1
数　量
 73
     1
 44
1.0
  0
MTEXT
  5
87D
330
1F
100
AcDbEntity
  8
D-STR-DIM
100
AcDbMText
 10
2650.86296846364
 20
4302.494217457696
 30
0.0
 40
30.0
 41
0.0
 71
     5
 72
     1
  1
5.0
 73
     1
 44
1.0
  0
MTEXT
  5
87E
330
1F
100
AcDbEntity
  8
D-STR-DIM
100
AcDbMText
 10
2450.86296846364
 20
4302.494217457696
 30
0.0
 40
30.0
 41
0.0
 71
     5
 72
     1
  1
本
 73
     1
 44
1.0
  0
MTEXT
  5
87F
330
1F
100
AcDbEntity
  8
D-STR-DIM
100
AcDbMText
 10
2950.86296846364
 20
4392.494217457696
 30
0.0
 40
30.0
 41
0.0
 71
     5
 72
     1
  1
摘　要
 73
     1
 44
1.0
  0
LINE
  5
880
330
1F
100
AcDbEntity
  8
D-STR-DIM
 48
15.0
100
AcDbLine
 10
4241.752708926731
 20
4569.289522468
 30
0.0
 11
4271.752708926731
 21
4551.789522468
 31
0.0
  0
LINE
  5
881
330
1F
100
AcDbEntity
  8
D-STR-DIM
 48
15.0
100
AcDbLine
 10
4241.752708926731
 20
4569.289522468
 30
0.0
 11
4271.752708926731
 21
4586.789522468
 31
0.0
  0
LINE
  5
882
330
1F
100
AcDbEntity
  8
D-STR-DIM
 48
15.0
100
AcDbLine
 10
4241.752708926731
 20
4569.289522468
 30
0.0
 11
4301.752708926732
 21
4569.289522468
 31
0.0
  0
MTEXT
  5
883
330
1F
100
AcDbEntity
  8
D-STR-DIM
 48
15.0
100
AcDbMText
 10
4321.576462148478
 20
4573.080568875486
 30
0.0
 40
25.0
 41
0.0
 71
     4
 72
     1
  1
歩道側
 73
     1
 44
1.0
  0
DIMENSION
  5
884
330
1F
100
AcDbEntity
  8
D-STR-DIM
 48
10.0
100
AcDbDimension
  2
*D49
 10
4193.128072461615
 20
4706.566467209309
 30
0.0
 11
4168.128072461614
 21
4776.566367209309
 31
0.0
 70
    32
 71
     5
 42
139.9997999999996
  3
STANDARD
100
AcDbAlignedDimension
 13
4353.128072461593
 23
4846.566267209309
 33
0.0
 14
4353.128072461615
 24
4706.566467209309
 34
0.0
 50
90.0
100
AcDbRotatedDimension
  0
LINE
  5
885
330
1F
100
AcDbEntity
  8
D-STR
 48
15.0
100
AcDbLine
 10
4369.128172461605
 20
4799.066367209309
 30
0.0
 11
4353.128072461608
 21
4804.066367209309
 31
0.0
  0
LINE
  5
886
330
1F
100
AcDbEntity
  8
D-STR
100
AcDbLine
 10
4369.128172461605
 20
4799.066367209309
 30
0.0
 11
4369.128172461605
 21
4759.066367209309
 31
0.0
  0
LINE
  5
887
330
1F
100
AcDbEntity
  8
D-STR
100
AcDbLine
 10
4353.128072461608
 20
4821.561567209309
 30
0.0
 11
4518.097565839044
 21
4824.734058663652
 31
0.0
  0
LINE
  5
888
330
1F
100
AcDbEntity
  8
D-STR
100
AcDbLine
 10
4353.128072461608
 20
4825.562467209309
 30
0.0
 11
4518.020660842521
 21
4828.733319298008
 31
0.0
  0
LINE
  5
889
330
1F
100
AcDbEntity
  8
D-STR
100
AcDbLine
 10
4357.627240519585
 20
4846.652793425571
 30
0.0
 11
4353.128072461608
 21
4842.066267209308
 31
0.0
  0
LINE
  5
88A
330
1F
100
AcDbEntity
  8
D-STR
100
AcDbLine
 10
4357.627240519585
 20
4846.652793425571
 30
0.0
 11
4498.97973065672
 21
4849.371228472506
 31
0.0
  0
LINE
  5
88B
330
1F
100
AcDbEntity
  8
D-STR
100
AcDbLine
 10
4353.128072461608
 20
4840.565067209309
 30
0.0
 11
4499.095098945072
 21
4843.372337728538
 31
0.0
  0
ARC
  5
88C
330
1F
100
AcDbEntity
  8
D-STR
100
AcDbCircle
 10
4517.924529596871
 20
4833.732395090954
 30
0.0
 40
5.0
100
AcDbArc
 50
271.1016508086995
 51
354.2893801816391
  0
ARC
  5
88D
330
1F
100
AcDbEntity
  8
D-STR
100
AcDbCircle
 10
4498.883590416429
 20
4854.370304092476
 30
0.0
 40
5.0
100
AcDbArc
 50
271.1017538988296
 51
354.2893801816391
  0
ARC
  5
88E
330
1F
100
AcDbEntity
  8
D-STR
100
AcDbCircle
 10
4498.883590416429
 20
4854.370304092476
 30
0.0
 40
11.0
100
AcDbArc
 50
271.1017538988296
 51
354.2893801816391
  0
ARC
  5
88F
330
1F
100
AcDbEntity
  8
D-STR
100
AcDbCircle
 10
4517.924529596871
 20
4833.732395090954
 30
0.0
 40
9.0
100
AcDbArc
 50
271.1016508086995
 51
354.2893801816391
  0
LINE
  5
890
330
1F
100
AcDbEntity
  8
D-STR
100
AcDbLine
 10
4353.128072461608
 20
4842.066267209308
 30
0.0
 11
4353.128072461608
 21
4706.566467209309
 31
0.0
  0
LINE
  5
891
330
1F
100
AcDbEntity
  8
D-STR
 48
15.0
100
AcDbLine
 10
4369.128172461605
 20
4759.066367209309
 30
0.0
 11
4353.128072461608
 21
4749.066267209308
 31
0.0
  0
LEADER
  5
892
330
1F
100
AcDbEntity
  8
D-STR-DIM
100
AcDbLeader
  3
S10
 73
     0
 74
     0
 75
     1
 40
36.54822335025381
 41
463.1878172588832
 76
     3
 10
2685.357559789663
 20
5258.562675002478
 30
0.0
 10
2773.552838536561
 20
5192.012328520121
 30
0.0
 10
2798.552838536561
 20
5192.012328520121
 30
0.0
340
893
1001
ACAD
1000
DSTYLE
1002
{
1070
   147
1040
1.0
1070
    77
1070
     1
1002
}
  0
MTEXT
  5
893
102
{ACAD_REACTORS
330
892
102
}
330
1F
100
AcDbEntity
  8
D-STR-DIM
100
AcDbMText
 10
2808.552838536561
 20
5202.012328520122
 30
0.0
 40
30.0
 41
0.0
 71
     7
 72
     1
  1
県型ベース付歩車道境界ブロック
 73
     1
 44
1.0
  0
DIMENSION
  5
894
330
1F
100
AcDbEntity
  8
D-STR-DIM
 48
10.0
100
AcDbDimension
  2
*D50
 10
2726.235626955793
 20
5633.351282293331
 30
0.0
 11
2466.235716955794
 21
5658.351282293331
 31
0.0
 70
    32
 71
     5
 42
519.9998199999972
  3
STANDARD
100
AcDbAlignedDimension
 13
2206.235806955795
 23
5303.39552762443
 33
0.0
 14
2726.235626955793
 24
5313.39572762443
 34
0.0
100
AcDbRotatedDimension
  0
DIMENSION
  5
895
330
1F
100
AcDbEntity
  8
D-STR-DIM
 48
10.0
100
AcDbDimension
  2
*D51
 10
1993.735736955808
 20
5503.395627624431
 30
0.0
 11
1968.735736955807
 21
5333.395677624431
 31
0.0
 70
    32
 71
     5
 42
339.9999000000007
  3
STANDARD
100
AcDbAlignedDimension
 13
2206.23580695581
 23
5163.39572762443
 33
0.0
 14
2206.23580695581
 24
5503.395627624431
 34
0.0
 50
90.0
100
AcDbRotatedDimension
  0
DIMENSION
  5
896
330
1F
100
AcDbEntity
  8
D-STR-DIM
100
AcDbDimension
  2
*D52
 10
1918.735736955808
 20
5043.395727624432
 30
0.0
 11
1893.735736955807
 21
5273.395677624431
 31
0.0
 70
    32
 71
     5
 42
459.9999000000007
  3
S10
100
AcDbAlignedDimension
 13
2206.23580695581
 23
5503.395627624431
 33
0.0
 14
2156.235806955807
 24
5043.39572762443
 34
0.0
 50
90.0
100
AcDbRotatedDimension
  0
ARC
  5
897
330
1F
100
AcDbEntity
  8
D-STR
100
AcDbCircle
 10
2580.041685373973
 20
5315.585202178327
 30
0.0
 40
5.0
100
AcDbArc
 50
185.7106170759753
 51
271.1017170776197
  0
ARC
  5
898
330
1F
100
AcDbEntity
  8
D-STR
100
AcDbCircle
 10
2580.041685373973
 20
5315.585202178327
 30
0.0
 40
11.0
100
AcDbArc
 50
185.7106170759753
 51
271.1017170776197
  0
LINE
  5
899
330
1F
100
AcDbEntity
  8
D-STR
100
AcDbLine
 10
2534.061198239891
 20
5473.893124255609
 30
0.0
 11
2552.11850105413
 21
5293.320858098279
 31
0.0
  0
LINE
  5
89A
330
1F
100
AcDbEntity
  8
D-STR
100
AcDbLine
 10
2538.041346834441
 20
5474.29114079462
 30
0.0
 11
2556.098649648673
 21
5293.718874637289
 31
0.0
  0
LINE
  5
89B
330
1F
100
AcDbEntity
  8
D-STR
100
AcDbLine
 10
2379.504679819059
 20
5475.783702530157
 30
0.0
 11
2362.936733493246
 21
5310.10501850143
 31
0.0
  0
LINE
  5
89C
330
1F
100
AcDbEntity
  8
D-STR
100
AcDbLine
 10
2373.534456955814
 20
5476.38072762443
 30
0.0
 11
2356.966510630001
 21
5310.702043595703
 31
0.0
  0
LINE
  5
89D
330
1F
100
AcDbEntity
  8
D-STR
100
AcDbLine
 10
2398.410385552662
 20
5473.893123064957
 30
0.0
 11
2379.987598385945
 21
5289.666117864664
 31
0.0
  0
LINE
  5
89E
330
1F
100
AcDbEntity
  8
D-STR
100
AcDbLine
 10
2394.430236977168
 20
5474.291139794473
 30
0.0
 11
2376.007449810443
 21
5290.064134594179
 31
0.0
  0
HATCH
  5
89F
330
1F
100
AcDbEntity
  8
D-STR
 62
     0
 48
10.0
100
AcDbHatch
 10
0.0
 20
0.0
 30
0.0
210
0.0
220
0.0
230
1.0
  2
ANSI31
 70
     0
 71
     1
 91
        1
 92
        7
 72
     0
 73
     1
 93
        4
 10
2726.235626955815
 20
5163.39572762443
 10
2206.235806955807
 20
5163.39572762443
 10
2206.235806955814
 20
5143.395727624429
 10
2726.235626955807
 20
5143.395727624429
 97
        4
330
8A4
330
8A9
330
8A1
330
8BB
 75
     0
 76
     1
 52
0.0
 41
100.0
 77
     0
 78
     1
 53
45.0
 43
-30463.19312886987
 44
4080.851621019498
 45
-8.838834764831842
 46
8.838834764831844
 79
     0
 47
1.2677470852394
 98
        1
 10
2643.179806396751
 20
5150.125058770068
  0
DIMENSION
  5
8A0
330
1F
100
AcDbEntity
  8
D-STR-DIM
100
AcDbDimension
  2
*D53
 10
2726.235626955815
 20
4968.39572762443
 30
0.0
 11
2466.235716955813
 21
4993.39572762443
 31
0.0
 70
    32
 71
     5
 42
519.9998200000045
  3
S10
100
AcDbAlignedDimension
 13
2206.23580695581
 23
5043.39572762443
 33
0.0
 14
2726.235626955815
 24
5043.39572762443
 34
0.0
100
AcDbRotatedDimension
  0
LINE
  5
8A1
102
{ACAD_REACTORS
330
89F
102
}
330
1F
100
AcDbEntity
  8
D-STR
 62
     0
 48
10.0
100
AcDbLine
 10
2726.235626955815
 20
5143.395727624429
 30
0.0
 11
2156.235806955807
 21
5143.395727624429
 31
0.0
  0
LINE
  5
8A2
330
1F
100
AcDbEntity
  8
D-STR
 62
     0
100
AcDbLine
 10
2156.235806955807
 20
5043.39572762443
 30
0.0
 11
2726.235626955815
 21
5043.39572762443
 31
0.0
  0
LINE
  5
8A3
330
1F
100
AcDbEntity
  8
D-STR
100
AcDbLine
 10
2206.23580695581
 20
5173.395727624431
 30
0.0
 11
2726.235626955815
 21
5173.395727624431
 31
0.0
  0
LINE
  5
8A4
102
{ACAD_REACTORS
330
89F
102
}
330
1F
100
AcDbEntity
  8
D-STR
100
AcDbLine
 10
2206.23580695581
 20
5163.39572762443
 30
0.0
 11
2726.235626955815
 21
5163.39572762443
 31
0.0
  0
DIMENSION
  5
8A5
330
1F
100
AcDbEntity
  8
D-STR-DIM
100
AcDbDimension
  2
*D54
 10
1993.735736955808
 20
5043.395727624432
 30
0.0
 11
1993.735736955808
 21
5093.395732624429
 31
0.0
 70
   160
 71
     5
 42
100.0000099999997
  3
S10
100
AcDbAlignedDimension
 13
2156.235806955807
 23
5143.39573762443
 33
0.0
 14
2156.235806955807
 24
5043.39572762443
 34
0.0
 50
90.0
100
AcDbRotatedDimension
1001
ACAD
1000
DSTYLE
1002
{
1070
   279
1070
     1
1002
}
  0
LINE
  5
8A6
330
1F
100
AcDbEntity
  8
D-STR
 62
     0
100
AcDbLine
 10
2156.235806955807
 20
5143.395727624429
 30
0.0
 11
2156.235806955807
 21
5043.39572762443
 31
0.0
  0
DIMENSION
  5
8A7
330
1F
100
AcDbEntity
  8
D-STR-DIM
100
AcDbDimension
  2
*D55
 10
2206.23580695581
 20
4968.39572762443
 30
0.0
 11
2181.23580695581
 21
4968.39572762443
 31
0.0
 70
   160
 71
     5
 42
50.00000000000364
  3
S10
100
AcDbAlignedDimension
 13
2156.235806955807
 23
5043.39572762443
 33
0.0
 14
2206.23580695581
 24
5043.39572762443
 34
0.0
100
AcDbRotatedDimension
1001
ACAD
1000
DSTYLE
1002
{
1070
   279
1070
     1
1002
}
  0
DIMENSION
  5
8A8
330
1F
100
AcDbEntity
  8
D-STR-DIM
 48
10.0
100
AcDbDimension
  2
*D56
 10
1993.735736955808
 20
5163.395727624431
 30
0.0
 11
1993.735736955808
 21
5153.39573262443
 31
0.0
 70
   160
 71
     5
 42
19.99999000000025
  3
STANDARD
100
AcDbAlignedDimension
 13
2156.235806955807
 23
5143.39573762443
 33
0.0
 14
2206.23580695581
 24
5163.39572762443
 34
0.0
 50
90.0
100
AcDbRotatedDimension
1001
ACAD
1000
DSTYLE
1002
{
1070
   279
1070
     1
1002
}
  0
LINE
  5
8A9
102
{ACAD_REACTORS
330
89F
102
}
330
1F
100
AcDbEntity
  8
D-STR
 62
     0
 48
10.0
100
AcDbLine
 10
2206.23580695581
 20
5163.39572762443
 30
0.0
 11
2206.23580695581
 21
5143.395727624429
 31
0.0
  0
LINE
  5
8AA
330
1F
100
AcDbEntity
  8
D-STR
100
AcDbLine
 10
2222.235906955807
 20
5255.895627624431
 30
0.0
 11
2222.235906955807
 21
5215.895627624431
 31
0.0
  0
LINE
  5
8AB
330
1F
100
AcDbEntity
  8
D-STR
100
AcDbLine
 10
2206.23580695581
 20
5298.89552762443
 30
0.0
 11
2206.23580695581
 21
5163.39572762443
 31
0.0
  0
LINE
  5
8AC
330
1F
100
AcDbEntity
  8
D-STR
 48
15.0
100
AcDbLine
 10
2222.235906955807
 20
5215.895627624431
 30
0.0
 11
2206.23580695581
 21
5205.89552762443
 31
0.0
  0
LINE
  5
8AD
330
1F
100
AcDbEntity
  8
D-STR
 48
15.0
100
AcDbLine
 10
2222.235906955807
 20
5255.895627624431
 30
0.0
 11
2206.23580695581
 21
5260.895627624431
 31
0.0
  0
LINE
  5
8AE
330
1F
100
AcDbEntity
  8
D-STR
100
AcDbLine
 10
2206.23580695581
 20
5278.390827624431
 30
0.0
 11
2371.205300333247
 21
5281.563319078773
 31
0.0
  0
LINE
  5
8AF
330
1F
100
AcDbEntity
  8
D-STR
100
AcDbLine
 10
2206.23580695581
 20
5282.391727624429
 30
0.0
 11
2371.128395336723
 21
5285.562579713129
 31
0.0
  0
LINE
  5
8B0
330
1F
100
AcDbEntity
  8
D-STR
100
AcDbLine
 10
2210.734975013787
 20
5303.482053840692
 30
0.0
 11
2206.23580695581
 21
5298.89552762443
 31
0.0
  0
LINE
  5
8B1
330
1F
100
AcDbEntity
  8
D-STR
100
AcDbLine
 10
2210.734975013787
 20
5303.482053840692
 30
0.0
 11
2352.087465150922
 21
5306.200488887626
 31
0.0
  0
LINE
  5
8B2
330
1F
100
AcDbEntity
  8
D-STR
100
AcDbLine
 10
2206.23580695581
 20
5297.394327624431
 30
0.0
 11
2352.202833439274
 21
5300.201598143661
 31
0.0
  0
ARC
  5
8B3
330
1F
100
AcDbEntity
  8
D-STR
100
AcDbCircle
 10
2371.032264091074
 20
5290.561655506074
 30
0.0
 40
5.0
100
AcDbArc
 50
271.1016508086995
 51
354.2893801816391
  0
ARC
  5
8B4
330
1F
100
AcDbEntity
  8
D-STR
100
AcDbCircle
 10
2351.991324910632
 20
5311.199564507598
 30
0.0
 40
5.0
100
AcDbArc
 50
271.1017538988296
 51
354.2893801816391
  0
ARC
  5
8B5
330
1F
100
AcDbEntity
  8
D-STR
100
AcDbCircle
 10
2351.991324910632
 20
5311.199564507598
 30
0.0
 40
11.0
100
AcDbArc
 50
271.1017538988296
 51
354.2893801816391
  0
ARC
  5
8B6
330
1F
100
AcDbEntity
  8
D-STR
100
AcDbCircle
 10
2371.032264091074
 20
5290.561655506074
 30
0.0
 40
9.0
100
AcDbArc
 50
271.1016508086995
 51
354.2893801816391
  0
LEADER
  5
8B7
330
1F
100
AcDbEntity
  8
D-STR-DIM
100
AcDbLeader
  3
S10
 73
     0
 74
     0
 75
     1
 40
35.17766497461928
 41
122.4365482233502
 76
     3
 10
2685.357559789663
 20
5114.911775214077
 30
0.0
 10
2773.552838536561
 20
5048.361428731721
 30
0.0
 10
2798.552838536561
 20
5048.361428731721
 30
0.0
340
8B8
1001
ACAD
1000
DSTYLE
1002
{
1070
   147
1040
1.0
1070
    77
1070
     1
1002
}
  0
MTEXT
  5
8B8
102
{ACAD_REACTORS
330
8B7
102
}
330
1F
100
AcDbEntity
  8
D-STR-DIM
100
AcDbMText
 10
2808.552838536561
 20
5058.36142873172
 30
0.0
 40
30.0
 41
0.0
 71
     7
 72
     1
  1
基礎材　
 73
     1
 44
1.0
  0
LINE
  5
8B9
330
1F
100
AcDbEntity
  8
D-STR
 62
     0
 48
10.0
100
AcDbLine
 10
2726.235626955815
 20
5143.395727624429
 30
0.0
 11
2726.235626955815
 21
5043.39572762443
 31
0.0
  0
MTEXT
  5
8BA
330
1F
100
AcDbEntity
  8
D-STR-DIM
100
AcDbMText
 10
2788.386158349108
 20
5009.384291270354
 30
0.0
 40
30.0
 41
0.0
 71
     7
 72
     1
  1
RC-40
 73
     1
 44
1.0
  0
LINE
  5
8BB
102
{ACAD_REACTORS
330
89F
102
}
330
1F
100
AcDbEntity
  8
D-STR
 62
     0
 48
10.0
100
AcDbLine
 10
2726.235626955815
 20
5163.39572762443
 30
0.0
 11
2726.235626955815
 21
5143.395727624429
 31
0.0
  0
LINE
  5
8BC
330
1F
100
AcDbEntity
  8
D-STR
100
AcDbLine
 10
2710.23552695581
 20
5255.895627624431
 30
0.0
 11
2710.23552695581
 21
5215.895627624431
 31
0.0
  0
LINE
  5
8BD
330
1F
100
AcDbEntity
  8
D-STR
100
AcDbLine
 10
2726.235626955815
 20
5308.89572762443
 30
0.0
 11
2726.235626955815
 21
5163.39572762443
 31
0.0
  0
LINE
  5
8BE
330
1F
100
AcDbEntity
  8
D-STR
 48
15.0
100
AcDbLine
 10
2710.23552695581
 20
5215.895627624431
 30
0.0
 11
2726.235626955815
 21
5205.89552762443
 31
0.0
  0
LINE
  5
8BF
330
1F
100
AcDbEntity
  8
D-STR
100
AcDbLine
 10
2580.137822401608
 20
5310.586126496573
 30
0.0
 11
2721.736458842235
 21
5313.30920429956
 31
0.0
  0
LINE
  5
8C0
330
1F
100
AcDbEntity
  8
D-STR
100
AcDbLine
 10
2580.253186834765
 20
5304.587235678465
 30
0.0
 11
2726.235626955815
 21
5307.39442762443
 31
0.0
  0
LINE
  5
8C1
330
1F
100
AcDbEntity
  8
D-STR
100
AcDbLine
 10
2561.169970508919
 20
5289.217319592556
 30
0.0
 11
2726.235626955815
 21
5292.39162762443
 31
0.0
  0
LINE
  5
8C2
330
1F
100
AcDbEntity
  8
D-STR
100
AcDbLine
 10
2561.205281312286
 20
5285.217355252803
 30
0.0
 11
2726.235626955815
 21
5288.391027624431
 31
0.0
  0
ARC
  5
8C3
330
1F
100
AcDbEntity
  8
D-STR
100
AcDbCircle
 10
2561.073835391857
 20
5294.216395311053
 30
0.0
 40
5.0
100
AcDbArc
 50
185.7106170759753
 51
271.101695179989
  0
LINE
  5
8C4
330
1F
100
AcDbEntity
  8
D-STR
 48
15.0
100
AcDbLine
 10
2710.23552695581
 20
5255.895627624431
 30
0.0
 11
2726.235626955815
 21
5260.895627624431
 31
0.0
  0
LINE
  5
8C5
330
1F
100
AcDbEntity
  8
D-STR
100
AcDbLine
 10
2726.235626955815
 20
5308.89572762443
 30
0.0
 11
2721.736458842235
 21
5313.30920429956
 31
0.0
  0
ARC
  5
8C6
330
1F
100
AcDbEntity
  8
D-STR
100
AcDbCircle
 10
2561.073835391857
 20
5294.216395311053
 30
0.0
 40
9.0
100
AcDbArc
 50
185.7106170759753
 51
271.101695179989
  0
MTEXT
  5
8C7
330
1F
100
AcDbEntity
  8
D-STR-DIM
100
AcDbMText
 10
2901.971127556622
 20
5153.035191058755
 30
0.0
 40
30.0
 41
0.0
 71
     7
 72
     1
  1
標準
 73
     1
 44
1.0
  0
LINE
  5
8C8
330
1F
100
AcDbEntity
  8
D-STR
100
AcDbLine
 10
2403.385476955809
 20
5478.395627624431
 30
0.0
 11
2529.08602695581
 21
5478.395627624431
 31
0.0
  0
LINE
  5
8C9
330
1F
100
AcDbEntity
  8
D-STR
100
AcDbLine
 10
2403.385476955809
 20
5482.395627624431
 30
0.0
 11
2529.08602695581
 21
5482.395627624431
 31
0.0
  0
LINE
  5
8CA
330
1F
100
AcDbEntity
  8
D-STR
100
AcDbLine
 10
2403.385476955809
 20
5497.395627624431
 30
0.0
 11
2529.08602695581
 21
5497.395627624431
 31
0.0
  0
LINE
  5
8CB
330
1F
100
AcDbEntity
  8
D-STR
100
AcDbLine
 10
2403.385476955809
 20
5503.395627624431
 30
0.0
 11
2529.08602695581
 21
5503.395627624431
 31
0.0
  0
ARC
  5
8CC
330
1F
100
AcDbEntity
  8
D-STR
100
AcDbCircle
 10
2403.385476955809
 20
5473.39562762443
 30
0.0
 40
30.000001
100
AcDbArc
 50
90.0
 51
174.2893799999884
  0
ARC
  5
8CD
330
1F
100
AcDbEntity
  8
D-STR
100
AcDbCircle
 10
2403.385476955809
 20
5473.39562762443
 30
0.0
 40
24.000001
100
AcDbArc
 50
90.0
 51
174.2893799999884
  0
ARC
  5
8CE
330
1F
100
AcDbEntity
  8
D-STR
100
AcDbCircle
 10
2403.385476955809
 20
5473.39562762443
 30
0.0
 40
5.000001000000001
100
AcDbArc
 50
90.0
 51
174.2893799999884
  0
ARC
  5
8CF
330
1F
100
AcDbEntity
  8
D-STR
100
AcDbCircle
 10
2403.385476955809
 20
5473.39562762443
 30
0.0
 40
9.000001000000001
100
AcDbArc
 50
90.0
 51
174.2893799999884
  0
ARC
  5
8D0
330
1F
100
AcDbEntity
  8
D-STR
100
AcDbCircle
 10
2529.08602695581
 20
5473.39562762443
 30
0.0
 40
5.000001000000001
100
AcDbArc
 50
5.710616999992804
 51
90.0
  0
ARC
  5
8D1
330
1F
100
AcDbEntity
  8
D-STR
100
AcDbCircle
 10
2529.08602695581
 20
5473.39562762443
 30
0.0
 40
9.000001000000001
100
AcDbArc
 50
5.710616999992804
 51
90.0
  0
ARC
  5
8D2
330
1F
100
AcDbEntity
  8
D-STR
100
AcDbCircle
 10
2529.08602695581
 20
5473.39562762443
 30
0.0
 40
24.000001
100
AcDbArc
 50
5.710616999992804
 51
90.0
  0
ARC
  5
8D3
330
1F
100
AcDbEntity
  8
D-STR
100
AcDbCircle
 10
2529.08602695581
 20
5473.39562762443
 30
0.0
 40
30.000001
100
AcDbArc
 50
5.710616999992804
 51
90.0
  0
LINE
  5
8D4
330
1F
100
AcDbEntity
  8
D-STR
100
AcDbLine
 10
2552.966904063993
 20
5475.783702815913
 30
0.0
 11
2569.096276738964
 21
5314.490656696047
 31
0.0
  0
LINE
  5
8D5
330
1F
100
AcDbEntity
  8
D-STR
100
AcDbLine
 10
2558.93712695581
 20
5476.38072762443
 30
0.0
 11
2575.066499630789
 21
5315.087681504564
 31
0.0
  0
ARC
  5
8D6
330
1F
100
AcDbEntity
  8
D-STR
100
AcDbCircle
 10
4550.277742461607
 20
5016.56636720931
 30
0.0
 40
30.000001
100
AcDbArc
 50
90.0
 51
174.2893799999884
  0
ARC
  5
8D7
330
1F
100
AcDbEntity
  8
D-STR
100
AcDbCircle
 10
4550.277742461607
 20
5016.56636720931
 30
0.0
 40
5.000001000000001
100
AcDbArc
 50
90.0
 51
174.2893799999884
  0
ARC
  5
8D8
330
1F
100
AcDbEntity
  8
D-STR
100
AcDbCircle
 10
4550.277742461607
 20
5016.56636720931
 30
0.0
 40
9.000001000000001
100
AcDbArc
 50
90.0
 51
174.2893799999884
  0
ARC
  5
8D9
330
1F
100
AcDbEntity
  8
D-STR
100
AcDbCircle
 10
4550.277742461607
 20
5016.56636720931
 30
0.0
 40
24.000001
100
AcDbArc
 50
90.0
 51
174.2893799999884
  0
DIMENSION
  5
8DA
330
1F
100
AcDbEntity
  8
D-STR-DIM
  6
Continuous
 48
10.0
100
AcDbDimension
  2
*D72
 10
4968.127892461598
 20
4986.566385985033
 30
0.0
 11
4943.127892461597
 21
4921.566426597172
 31
0.0
 70
    32
 71
     5
 42
129.9999187757239
  3
STANDARD
100
AcDbAlignedDimension
 13
4873.127892461591
 23
4856.566467209309
 33
0.0
 14
4709.127914503194
 24
4986.566385985033
 34
0.0
 50
90.0
100
AcDbRotatedDimension
  0
DIMENSION
  5
8DB
330
1F
100
AcDbEntity
  8
D-STR-DIM
 48
10.0
100
AcDbDimension
  2
*D73
 10
5033.127892461613
 20
4856.566467209309
 30
0.0
 11
5033.127892461613
 21
4951.566417709308
 31
0.0
 70
   160
 71
     5
 42
189.9998999999997
  3
STANDARD
100
AcDbAlignedDimension
 13
4703.127891061762
 23
5046.566367209308
 33
0.0
 14
4873.127892461591
 24
4856.566467209309
 34
0.0
 50
90.0
100
AcDbRotatedDimension
1001
ACAD
1000
DSTYLE
1002
{
1070
   279
1070
     1
1002
}
  0
DIMENSION
  5
8DC
330
1F
100
AcDbEntity
  8
D-STR-DIM
 48
10.0
100
AcDbDimension
  2
*D74
 10
5137.546823991929
 20
4706.566467209309
 30
0.0
 11
5112.546823991927
 21
4876.56641720931
 31
0.0
 70
    32
 71
     5
 42
339.9998999999997
  3
STANDARD
100
AcDbAlignedDimension
 13
4703.127891061762
 23
5046.566367209308
 33
0.0
 14
4873.127892461613
 24
4706.566467209309
 34
0.0
 50
90.0
100
AcDbRotatedDimension
  0
DIMENSION
  5
8DD
330
1F
100
AcDbEntity
  8
D-STR-DIM
 48
10.0
100
AcDbDimension
  2
*D75
 10
4873.12786746159
 20
5176.744305770206
 30
0.0
 11
4798.128017461589
 21
5201.744305770207
 31
0.0
 70
    32
 71
     5
 42
149.9997000000003
  3
STANDARD
100
AcDbAlignedDimension
 13
4723.128167461589
 23
4855.51310156146
 33
0.0
 14
4873.12786746159
 24
5026.566467209309
 34
0.0
100
AcDbRotatedDimension
  0
DIMENSION
  5
8DE
330
1F
100
AcDbEntity
  8
D-STR-DIM
 48
10.0
100
AcDbDimension
  2
*D76
 10
4723.128167461589
 20
5176.744305770206
 30
0.0
 11
4713.128029261675
 21
5226.744305770207
 31
0.0
 70
    32
 71
     5
 42
20.00027639982727
  3
STANDARD
100
AcDbAlignedDimension
 13
4703.127891061762
 23
5046.566367209308
 33
0.0
 14
4723.128167461589
 24
4855.51310156146
 34
0.0
100
AcDbRotatedDimension
  0
LINE
  5
8DF
330
1F
100
AcDbEntity
  8
D-STR
100
AcDbLine
 10
7221.127892461613
 20
4716.566467209309
 30
0.0
 11
7221.127832461608
 21
5021.566527209309
 31
0.0
  0
LINE
  5
8E0
330
1F
100
AcDbEntity
  8
D-STR
100
AcDbLine
 10
7216.627892461612
 20
4850.56636720931
 30
0.0
 11
7216.627892461612
 21
5023.461243026446
 31
0.0
  0
LINE
  5
8E1
330
1F
100
AcDbEntity
  8
D-STR
100
AcDbLine
 10
5223.127886068207
 20
4716.566467209309
 30
0.0
 11
5223.127946068205
 21
5021.566527209309
 31
0.0
  0
LINE
  5
8E2
330
1F
100
AcDbEntity
  8
D-STR
100
AcDbLine
 10
5227.627892461613
 20
4850.56636720931
 30
0.0
 11
5227.877929961607
 21
5023.566522209308
 31
0.0
  0
LINE
  5
8E3
330
1F
100
AcDbEntity
  8
D-STR
100
AcDbLine
 10
4699.85916956979
 20
5018.954442400792
 30
0.0
 11
4715.988542244762
 21
4857.661396280925
 31
0.0
  0
LINE
  5
8E4
330
1F
100
AcDbEntity
  8
D-STR
100
AcDbLine
 10
4705.829392461608
 20
5019.55146720931
 30
0.0
 11
4721.958765136587
 21
4858.258421089443
 31
0.0
  0
LINE
  5
8E5
330
1F
100
AcDbEntity
  8
D-STR
100
AcDbLine
 10
4680.953463745689
 20
5017.063863840488
 30
0.0
 11
4699.010766559928
 21
4836.491597683157
 31
0.0
  0
LINE
  5
8E6
330
1F
100
AcDbEntity
  8
D-STR
100
AcDbLine
 10
4684.933612340238
 20
5017.461880379499
 30
0.0
 11
4702.990915154471
 21
4836.889614222169
 31
0.0
  0
LINE
  5
8E7
330
1F
100
AcDbEntity
  8
D-STR
 48
15.0
100
AcDbLine
 10
5227.630060559401
 20
4852.066467209309
 30
0.0
 11
7216.627892461612
 21
4852.066467209309
 31
0.0
  0
LINE
  5
8E8
330
1F
100
AcDbEntity
  8
D-STR
100
AcDbLine
 10
5233.127986068204
 20
4706.566467209309
 30
0.0
 11
7211.127792461607
 21
4706.566467209309
 31
0.0
  0
LINE
  5
8E9
330
1F
100
AcDbEntity
  8
D-STR
100
AcDbLine
 10
5227.636564419175
 20
4856.566467209309
 30
0.0
 11
7216.627892461612
 21
4856.566467209309
 31
0.0
  0
LINE
  5
8EA
330
1F
100
AcDbEntity
  8
D-STR
100
AcDbLine
 10
5223.127892461612
 20
4759.066367209309
 30
0.0
 11
5301.127892461613
 21
4759.066367209309
 31
0.0
  0
LINE
  5
8EB
330
1F
100
AcDbEntity
  8
D-STR
100
AcDbLine
 10
5223.127892461612
 20
4799.066367209309
 30
0.0
 11
5301.127892461613
 21
4799.066367209309
 31
0.0
  0
LINE
  5
8EC
330
1F
100
AcDbEntity
  8
D-STR
100
AcDbLine
 10
5223.127892461612
 20
4804.066367209309
 30
0.0
 11
5304.127892461613
 21
4804.066367209309
 31
0.0
  0
LINE
  5
8ED
330
1F
100
AcDbEntity
  8
D-STR
100
AcDbLine
 10
5223.127892461612
 20
4749.066267209308
 30
0.0
 11
5304.127892461613
 21
4749.066267209308
 31
0.0
  0
MTEXT
  5
8EE
330
1F
100
AcDbEntity
  8
D-STR-DIM
 48
15.0
100
AcDbMText
 10
4824.424511345809
 20
4573.080568875486
 30
0.0
 40
25.0
 41
0.0
 71
     4
 72
     1
  1
車道側
 73
     1
 44
1.0
  0
LINE
  5
8EF
330
1F
100
AcDbEntity
  8
D-STR-DIM
 48
15.0
100
AcDbLine
 10
4984.503205996494
 20
4569.289522468
 30
0.0
 11
4954.503205996495
 21
4551.789522468
 31
0.0
  0
LINE
  5
8F0
330
1F
100
AcDbEntity
  8
D-STR-DIM
 48
15.0
100
AcDbLine
 10
4984.503205996494
 20
4569.289522468
 30
0.0
 11
4954.503205996495
 21
4586.789522468
 31
0.0
  0
LINE
  5
8F1
330
1F
100
AcDbEntity
  8
D-STR-DIM
 48
15.0
100
AcDbLine
 10
4984.503205996494
 20
4569.289522468
 30
0.0
 11
4924.503205996494
 21
4569.289522468
 31
0.0
  0
DIMENSION
  5
8F2
330
1F
100
AcDbEntity
  8
D-STR-DIM
 48
10.0
100
AcDbDimension
  2
*D77
 10
5033.127892461613
 20
4706.566467209309
 30
0.0
 11
5008.127892461612
 21
4781.56646720931
 31
0.0
 70
    32
 71
     5
 42
150.0
  3
STANDARD
100
AcDbAlignedDimension
 13
4873.127892461591
 23
4856.566467209309
 33
0.0
 14
4873.127892461613
 24
4706.566467209309
 34
0.0
 50
90.0
100
AcDbRotatedDimension
  0
LINE
  5
8F3
330
1F
100
AcDbEntity
  8
D-STR
100
AcDbLine
 10
4727.030087907405
 20
4853.756866081451
 30
0.0
 11
4868.628724348033
 21
4856.479943884438
 31
0.0
  0
LINE
  5
8F4
330
1F
100
AcDbEntity
  8
D-STR
100
AcDbLine
 10
4727.145452340563
 20
4847.757975263345
 30
0.0
 11
4873.127892461613
 21
4850.565167209309
 31
0.0
  0
LINE
  5
8F5
330
1F
100
AcDbEntity
  8
D-STR
100
AcDbLine
 10
4708.062236014717
 20
4832.388059177436
 30
0.0
 11
4873.127892461613
 21
4835.562367209309
 31
0.0
  0
LINE
  5
8F6
330
1F
100
AcDbEntity
  8
D-STR
100
AcDbLine
 10
4708.097546818083
 20
4828.388094837682
 30
0.0
 11
4873.127892461613
 21
4831.56176720931
 31
0.0
  0
ARC
  5
8F7
330
1F
100
AcDbEntity
  8
D-STR
100
AcDbCircle
 10
4726.933950879771
 20
4858.755941763206
 30
0.0
 40
5.0
100
AcDbArc
 50
185.7106170759753
 51
271.1017170776197
  0
ARC
  5
8F8
330
1F
100
AcDbEntity
  8
D-STR
100
AcDbCircle
 10
4707.966100897654
 20
4837.387134895933
 30
0.0
 40
5.0
100
AcDbArc
 50
185.7106170759753
 51
271.101695179989
  0
ARC
  5
8F9
330
1F
100
AcDbEntity
  8
D-STR
100
AcDbCircle
 10
4726.933950879771
 20
4858.755941763206
 30
0.0
 40
11.0
100
AcDbArc
 50
185.7106170759753
 51
271.1017170776197
  0
LINE
  5
8FA
330
1F
100
AcDbEntity
  8
D-STR
 48
15.0
100
AcDbLine
 10
4857.127792461608
 20
4799.066367209309
 30
0.0
 11
4873.127892461613
 21
4804.066367209309
 31
0.0
  0
LINE
  5
8FB
330
1F
100
AcDbEntity
  8
D-STR
100
AcDbLine
 10
4857.127792461608
 20
4799.066367209309
 30
0.0
 11
4857.127792461608
 21
4759.066367209309
 31
0.0
  0
LINE
  5
8FC
330
1F
100
AcDbEntity
  8
D-STR
100
AcDbLine
 10
4873.127892461613
 20
4852.066467209309
 30
0.0
 11
4868.628724348033
 21
4856.479943884438
 31
0.0
  0
LINE
  5
8FD
330
1F
100
AcDbEntity
  8
D-STR
100
AcDbLine
 10
4873.127892461613
 20
4852.066467209309
 30
0.0
 11
4873.127892461613
 21
4706.566467209309
 31
0.0
  0
LINE
  5
8FE
330
1F
100
AcDbEntity
  8
D-STR
 48
15.0
100
AcDbLine
 10
4857.127792461608
 20
4759.066367209309
 30
0.0
 11
4873.127892461613
 21
4749.066267209308
 31
0.0
  0
ARC
  5
8FF
330
1F
100
AcDbEntity
  8
D-STR
100
AcDbCircle
 10
4707.966100897654
 20
4837.387134895933
 30
0.0
 40
9.0
100
AcDbArc
 50
185.7106170759753
 51
271.101695179989
  0
CIRCLE
  5
900
330
1F
100
AcDbEntity
  8
D-STR
100
AcDbCircle
 10
5273.12799246161
 20
4776.566367209309
 30
0.0
 40
5.9999999
  0
LINE
  5
901
330
1F
100
AcDbEntity
  8
D-STR
100
AcDbLine
 10
5227.627892461613
 20
4850.56636720931
 30
0.0
 11
5232.627892461612
 21
4835.56636720931
 31
0.0
  0
LINE
  5
902
330
1F
100
AcDbEntity
  8
D-STR
100
AcDbLine
 10
5223.127892461612
 20
4831.566367209309
 30
0.0
 11
5232.627892461612
 21
4835.56636720931
 31
0.0
  0
LINE
  5
903
330
1F
100
AcDbEntity
  8
D-STR
100
AcDbLine
 10
5223.127886068207
 20
4716.566467209309
 30
0.0
 11
5233.127986068204
 21
4706.566467209309
 31
0.0
  0
LINE
  5
904
330
1F
100
AcDbEntity
  8
D-STR
100
AcDbLine
 10
5301.127892461613
 20
4759.066367209309
 30
0.0
 11
5301.127892461613
 21
4799.066367209309
 31
0.0
  0
LINE
  5
905
330
1F
100
AcDbEntity
  8
D-STR
100
AcDbLine
 10
5301.127892461613
 20
4799.066367209309
 30
0.0
 11
5304.127892461613
 21
4804.066367209309
 31
0.0
  0
LINE
  5
906
330
1F
100
AcDbEntity
  8
D-STR
100
AcDbLine
 10
5304.127892461613
 20
4749.066267209308
 30
0.0
 11
5304.127892461613
 21
4804.066367209309
 31
0.0
  0
LINE
  5
907
330
1F
100
AcDbEntity
  8
D-STR
100
AcDbLine
 10
5301.127892461613
 20
4759.066367209309
 30
0.0
 11
5304.127892461613
 21
4749.066267209308
 31
0.0
  0
LINE
  5
908
330
1F
100
AcDbEntity
  8
D-STR
100
AcDbLine
 10
7143.127892461612
 20
4799.066367209309
 30
0.0
 11
7140.127892461612
 21
4804.066367209309
 31
0.0
  0
CIRCLE
  5
909
330
1F
100
AcDbEntity
  8
D-STR
100
AcDbCircle
 10
7171.12769246161
 20
4776.566367209309
 30
0.0
 40
5.9999999
  0
LINE
  5
90A
330
1F
100
AcDbEntity
  8
D-STR
100
AcDbLine
 10
7143.127892461612
 20
4759.066367209309
 30
0.0
 11
7143.127892461612
 21
4799.066367209309
 31
0.0
  0
LINE
  5
90B
330
1F
100
AcDbEntity
  8
D-STR
100
AcDbLine
 10
7216.627892461612
 20
4850.56636720931
 30
0.0
 11
7211.627892461613
 21
4835.56636720931
 31
0.0
  0
LINE
  5
90C
330
1F
100
AcDbEntity
  8
D-STR
100
AcDbLine
 10
7221.127892461613
 20
4799.066367209309
 30
0.0
 11
7143.127892461612
 21
4799.066367209309
 31
0.0
  0
LINE
  5
90D
330
1F
100
AcDbEntity
  8
D-STR
100
AcDbLine
 10
7221.127892461613
 20
4759.066367209309
 30
0.0
 11
7143.127892461612
 21
4759.066367209309
 31
0.0
  0
LINE
  5
90E
330
1F
100
AcDbEntity
  8
D-STR
100
AcDbLine
 10
7221.127892461613
 20
4804.066367209309
 30
0.0
 11
7140.127892461612
 21
4804.066367209309
 31
0.0
  0
LINE
  5
90F
330
1F
100
AcDbEntity
  8
D-STR
100
AcDbLine
 10
7221.127892461613
 20
4831.566367209309
 30
0.0
 11
7211.627892461613
 21
4835.56636720931
 31
0.0
  0
LINE
  5
910
330
1F
100
AcDbEntity
  8
D-STR
100
AcDbLine
 10
7221.127892461613
 20
4749.066267209308
 30
0.0
 11
7140.127892461612
 21
4749.066267209308
 31
0.0
  0
LINE
  5
911
330
1F
100
AcDbEntity
  8
D-STR
100
AcDbLine
 10
7221.127892461613
 20
4716.566467209309
 30
0.0
 11
7211.127792461607
 21
4706.566467209309
 31
0.0
  0
LINE
  5
912
330
1F
100
AcDbEntity
  8
D-STR
100
AcDbLine
 10
7143.127892461612
 20
4759.066367209309
 30
0.0
 11
7140.127892461612
 21
4749.066267209308
 31
0.0
  0
LINE
  5
913
330
1F
100
AcDbEntity
  8
D-STR
100
AcDbLine
 10
7140.127892461612
 20
4749.066267209308
 30
0.0
 11
7140.127892461612
 21
4804.066367209309
 31
0.0
  0
DIMENSION
  5
914
330
1F
100
AcDbEntity
  8
D-STR-DIM
 48
10.0
100
AcDbDimension
  2
*D78
 10
5223.127838855005
 20
5301.922381759853
 30
0.0
 11
6222.127808855006
 21
5326.922381759853
 31
0.0
 70
    32
 71
     5
 42
1997.999940000001
  3
STANDARD
100
AcDbAlignedDimension
 13
7221.127778855008
 23
5021.566504638056
 33
0.0
 14
5223.127838855005
 24
5021.566504638056
 34
0.0
100
AcDbRotatedDimension
  0
LINE
  5
915
330
1F
100
AcDbEntity
  8
D-STR
100
AcDbLine
 10
5227.627832461607
 20
5046.566567209308
 30
0.0
 11
7216.627892461612
 21
5046.566567209308
 31
0.0
  0
ARC
  5
916
330
1F
100
AcDbEntity
  8
D-STR
100
AcDbCircle
 10
4675.978292461608
 20
5016.56636720931
 30
0.0
 40
5.000001000000001
100
AcDbArc
 50
5.710616999992804
 51
90.0
  0
ARC
  5
917
330
1F
100
AcDbEntity
  8
D-STR
100
AcDbCircle
 10
4675.978292461608
 20
5016.56636720931
 30
0.0
 40
9.000001000000001
100
AcDbArc
 50
5.710616999992804
 51
90.0
  0
ARC
  5
918
330
1F
100
AcDbEntity
  8
D-STR
100
AcDbCircle
 10
4675.978292461608
 20
5016.56636720931
 30
0.0
 40
24.000001
100
AcDbArc
 50
5.710616999992804
 51
90.0
  0
ARC
  5
919
330
1F
100
AcDbEntity
  8
D-STR
100
AcDbCircle
 10
4675.978292461608
 20
5016.56636720931
 30
0.0
 40
30.000001
100
AcDbArc
 50
5.710616999992804
 51
90.0
  0
LINE
  5
91A
330
1F
100
AcDbEntity
  8
D-STR
100
AcDbLine
 10
5227.627832461607
 20
5040.566567209308
 30
0.0
 11
5227.627832461607
 21
5046.566567209308
 31
0.0
  0
LINE
  5
91B
330
1F
100
AcDbEntity
  8
D-STR
100
AcDbLine
 10
5227.627832461607
 20
5040.566567209308
 30
0.0
 11
5232.627847461611
 21
5025.566517209307
 31
0.0
  0
LINE
  5
91C
330
1F
100
AcDbEntity
  8
D-STR
100
AcDbLine
 10
5223.127892461612
 20
5021.566527209309
 30
0.0
 11
5232.627847461611
 21
5025.566517209307
 31
0.0
  0
MTEXT
  5
91D
330
1F
100
AcDbEntity
  8
D-STR-TXT
370
    -3
100
AcDbMText
 10
5210.317022150768
 20
5592.931369783182
 30
0.0
 40
50.0
 41
0.0
 71
     5
 72
     1
  1
S=1/10
 73
     1
 44
1.0
  0
MTEXT
  5
91E
330
1F
100
AcDbEntity
  8
D-STR-TXT
370
    -3
100
AcDbMText
 10
5113.363821464329
 20
5666.012713325196
 30
0.0
 40
50.0
 41
0.0
 71
     5
 72
     1
  1
{\L標準}
 73
     1
 44
1.0
  0
LINE
  5
91F
330
1F
100
AcDbEntity
  8
D-STR
100
AcDbLine
 10
7216.627892461612
 20
5040.566567209308
 30
0.0
 11
7216.627892461612
 21
5046.566567209308
 31
0.0
  0
LINE
  5
920
330
1F
100
AcDbEntity
  8
D-STR
100
AcDbLine
 10
7216.627892461612
 20
5040.566567209308
 30
0.0
 11
7211.627877461608
 21
5025.566517209307
 31
0.0
  0
LINE
  5
921
330
1F
100
AcDbEntity
  8
D-STR
100
AcDbLine
 10
7221.127832461608
 20
5021.566527209309
 30
0.0
 11
7211.627877461608
 21
5025.566517209307
 31
0.0
  0
ENDSEC
  0
SECTION
  2
OBJECTS
  0
DICTIONARY
  5
C
330
0
100
AcDbDictionary
281
     1
  3
ACAD_GROUP
350
D
  3
ACAD_LAYOUT
350
1A
  3
ACAD_MLINESTYLE
350
17
  3
ACAD_PLOTSETTINGS
350
19
  3
ACAD_PLOTSTYLENAME
350
E
  3
AcDbVariableDictionary
350
FB8
  3
ASE_INDEX_DICTIONARY
350
FB4
  0
DICTIONARY
  5
D
102
{ACAD_REACTORS
330
C
102
}
330
C
100
AcDbDictionary
281
     1
  0
DICTIONARY
  5
1A
102
{ACAD_REACTORS
330
C
102
}
330
C
100
AcDbDictionary
281
     1
  3
Model
350
22
  3
ﾚｲｱｳﾄ1
350
1E
  3
ﾚｲｱｳﾄ2
350
26
  0
DICTIONARY
  5
17
102
{ACAD_REACTORS
330
C
102
}
330
C
100
AcDbDictionary
281
     1
  3
Standard
350
18
  0
DICTIONARY
  5
19
102
{ACAD_REACTORS
330
C
102
}
330
C
100
AcDbDictionary
281
     1
  0
ACDBDICTIONARYWDFLT
  5
E
102
{ACAD_REACTORS
330
C
102
}
330
C
100
AcDbDictionary
281
     1
  3
Normal
350
F
100
AcDbDictionaryWithDefault
340
F
  0
DICTIONARY
  5
FB8
102
{ACAD_REACTORS
330
C
102
}
330
C
100
AcDbDictionary
281
     1
  3
DIMASSOC
350
FBA
  3
HIDETEXT
350
FB9
  0
DICTIONARY
  5
FB4
102
{ACAD_REACTORS
330
C
102
}
330
C
100
AcDbDictionary
281
     1
  3
ASEBlockHierarchyIndexRecord
350
FB6
1001
DCO15
1040
1594528434.857
  0
LAYOUT
  5
22
102
{ACAD_REACTORS
330
1A
102
}
330
1A
100
AcDbPlotSettings
  1

  2
RICOH IPSiO NX620 RPCS
  4

  6

 40
0.0
 41
0.0
 42
0.0
 43
0.0
 44
0.0
 45
0.0
 46
0.0
 47
0.0
 48
0.0
 49
0.0
140
0.0
141
0.0
142
1.0
143
1.0
 70
  1712
 72
     0
 73
     0
 74
     0
  7
monochrome.ctb
 75
     0
147
1.0
148
0.0
149
0.0
100
AcDbLayout
  1
Model
 70
     1
 71
     0
 10
0.0
 20
0.0
 11
12.0
 21
9.0
 12
0.0
 22
0.0
 32
0.0
 14
0.0
 24
0.0
 34
0.0
 15
0.0
 25
0.0
 35
0.0
146
0.0
 13
0.0
 23
0.0
 33
0.0
 16
1.0
 26
0.0
 36
0.0
 17
0.0
 27
1.0
 37
0.0
 76
     0
330
1F
  0
LAYOUT
  5
1E
102
{ACAD_REACTORS
330
1A
102
}
330
1A
100
AcDbPlotSettings
  1

  2
RICOH IPSiO NX620 RPCS
  4

  6

 40
0.0
 41
0.0
 42
0.0
 43
0.0
 44
0.0
 45
0.0
 46
0.0
 47
0.0
 48
0.0
 49
0.0
140
0.0
141
0.0
142
1.0
143
1.0
 70
   688
 72
     0
 73
     0
 74
     5
  7
monochrome.ctb
 75
    16
147
1.0
148
0.0
149
0.0
100
AcDbLayout
  1
ﾚｲｱｳﾄ1
 70
     1
 71
     1
 10
0.0
 20
0.0
 11
420.0
 21
297.0
 12
0.0
 22
0.0
 32
0.0
 14
1.000000000000000E+20
 24
1.000000000000000E+20
 34
1.000000000000000E+20
 15
-1.000000000000000E+20
 25
-1.000000000000000E+20
 35
-1.000000000000000E+20
146
0.0
 13
0.0
 23
0.0
 33
0.0
 16
1.0
 26
0.0
 36
0.0
 17
0.0
 27
1.0
 37
0.0
 76
     0
330
1B
  0
LAYOUT
  5
26
102
{ACAD_REACTORS
330
1A
102
}
330
1A
100
AcDbPlotSettings
  1

  2
RICOH IPSiO NX620 RPCS
  4

  6

 40
0.0
 41
0.0
 42
0.0
 43
0.0
 44
0.0
 45
0.0
 46
0.0
 47
0.0
 48
0.0
 49
0.0
140
0.0
141
0.0
142
1.0
143
1.0
 70
   688
 72
     0
 73
     0
 74
     5
  7
monochrome.ctb
 75
    16
147
1.0
148
0.0
149
0.0
100
AcDbLayout
  1
ﾚｲｱｳﾄ2
 70
     1
 71
     2
 10
0.0
 20
0.0
 11
12.0
 21
9.0
 12
0.0
 22
0.0
 32
0.0
 14
0.0
 24
0.0
 34
0.0
 15
0.0
 25
0.0
 35
0.0
146
0.0
 13
0.0
 23
0.0
 33
0.0
 16
1.0
 26
0.0
 36
0.0
 17
0.0
 27
1.0
 37
0.0
 76
     0
330
23
  0
MLINESTYLE
  5
18
102
{ACAD_REACTORS
330
17
102
}
330
17
100
AcDbMlineStyle
  2
STANDARD
 70
     0
  3

 62
   256
 51
90.0
 52
90.0
 71
     2
 49
0.5
 62
   256
  6
BYLAYER
 49
-0.5
 62
   256
  6
BYLAYER
  0
ACDBPLACEHOLDER
  5
F
102
{ACAD_REACTORS
330
E
102
}
330
E
  0
DICTIONARYVAR
  5
FBA
102
{ACAD_REACTORS
330
FB8
102
}
330
FB8
100
DictionaryVariables
280
     0
  1
2
  0
DICTIONARYVAR
  5
FB9
102
{ACAD_REACTORS
330
FB8
102
}
330
FB8
100
DictionaryVariables
280
     0
  1
1
  0
XRECORD
  5
FB6
102
{ACAD_REACTORS
330
FB4
102
}
330
FB4
100
AcDbXrecord
280
     1
330
CE4
330
CE5
330
CEC
330
CED
330
CF8
330
CF9
330
D00
330
D01
330
D09
330
D0A
330
D12
330
D13
330
D1E
330
D1F
330
D26
330
D27
330
D2F
330
D30
330
D38
330
D39
330
D44
330
D45
330
D4C
330
D4D
330
D55
330
D56
330
D5E
330
D5F
330
D6A
330
D6B
330
D72
330
D73
330
D7E
330
D7F
330
D86
330
D87
330
D8F
330
D90
330
D9B
330
D9C
330
DA3
330
DA4
330
DAC
330
DAD
330
DB8
330
DB9
330
DC0
330
DC1
330
DC9
330
DCA
330
DD2
330
DD3
330
DDC
330
DDD
330
DE4
330
DE5
330
DED
330
DEE
330
DF6
330
DF7
330
E02
330
E03
330
E0A
330
E0B
330
E13
330
E14
330
E1C
330
E1D
330
E25
330
E26
330
E31
330
E32
330
E39
330
E3A
330
E42
330
E43
330
E4C
330
E4D
330
E57
330
E58
330
E5F
330
E60
330
E68
330
E69
330
E71
330
E72
330
E7A
330
E7B
330
E83
330
E84
330
E8C
330
E8D
330
E95
330
E96
330
E9E
330
E9F
330
EA7
330
EA8
330
EB0
330
EB1
330
EB9
330
EBA
330
EC2
330
EC3
330
ECC
330
ECD
330
ED7
330
ED8
330
EE2
330
EE3
330
EEA
330
EEB
330
EF3
330
EF4
330
EFF
330
F00
330
F07
330
F08
330
F10
330
F11
330
F19
330
F1A
330
F22
330
F23
330
F2B
330
F2C
330
F34
330
F35
330
F3D
330
F3E
330
F46
330
F47
330
F52
330
F53
330
F5A
330
F5B
330
F63
330
F64
330
F6C
330
F6D
330
F75
330
F76
330
F7F
330
F80
330
F87
330
F88
330
F90
330
F91
330
F9C
330
F9D
330
FA4
330
FA5
330
FAD
330
FAE
  0
ENDSEC
  0
EOF
